osu file format v9

[General]
AudioFilename: 2-01-the-merry-mary-bell-rings.mp3
AudioLeadIn: 0
PreviewTime: 3875
Countdown: 0
SampleSet: Soft
StackLeniency: 0.7
Mode: 0
LetterboxInBreaks: 1

[Editor]
DistanceSpacing: 0.8
BeatDivisor: 4
GridSize: 4

[Metadata]
Title:Marrymore
Artist:Yoko Shimomura
Creator:MoodyRPG
Version:Easy
Source:Super Mario RPG: Legend of the Seven Stars
Tags:wmfchris nintendo roddie squaresoft

[Difficulty]
HPDrainRate:3
CircleSize:3
OverallDifficulty:2
ApproachRate:2
SliderMultiplier:0.8
SliderTickRate:1

[Events]
//Background and Video events
0,0,"wallpaper421024_768.jpg"
//Break Periods
2,45122,50448
2,62524,67640
2,110451,115778
//Storyboard Layer 0 (Background)
//Storyboard Layer 1 (Fail)
//Storyboard Layer 2 (Pass)
//Storyboard Layer 3 (Foreground)
//Storyboard Sound Samples
//Background Colour Transformations
3,100,163,162,255

[TimingPoints]
433,286.532951289398,3,2,0,81,1,0

[Colours]
Combo1 : 175,101,46
Combo2 : 249,142,47
Combo3 : 244,15,15
Combo4 : 30,60,164
Combo5 : 254,194,54

[HitObjects]
49,121,3871,2,0,B|85:41|207:41|255:135,1,240,2|2
83,226,5590,1,0
275,227,6450,1,0
445,139,7309,2,0,B|428:44|289:45|267:155,2,240
447,326,9888,1,4
264,322,10748,6,0,B|200:252|124:251|54:331,1,240,2|2
152,171,12467,1,0
343,168,13326,1,0
459,320,14186,2,0,B|416:234|307:234|261:331,3,240,2|2|2|4
72,321,17624,5,0
72,128,18484,1,2
249,55,19344,1,0
425,130,20203,1,2
433,321,21063,2,0,B|329:219|217:191,3,240
49,327,24501,6,0,B|169:256|286:336,1,240,4|2
428,212,26220,1,0
235,209,27080,1,0
57,136,27940,2,0,B|177:66|302:141,2,240,2|2|2
52,327,30518,1,4
244,328,31378,6,0,B|453:205,1,240,2|2
310,74,33097,1,0
117,74,33957,1,0
48,253,34816,2,0,B|280:324,2,240,2|2|2
52,60,37395,1,4
244,60,38255,6,0,B|496:60,1,240,2|2
368,212,39974,1,0
176,212,40834,1,0
30,337,41693,2,0,B|274:337,3,240,0|0|0|4
462,327,52008,5,4
47,324,53728,1,4
252,43,55447,2,0,B|72:212,1,240,2|2
248,293,57166,2,0,B|432:121,1,240,2|2
256,192,58885,12,0,62324
49,322,69200,6,0,B|172:320|172:204|265:205,1,240,4|2
146,35,70920,1,0
337,35,71779,1,0
253,208,72639,2,0,B|373:208|373:321|461:321,2,240,2|2|2
398,82,75218,1,4
178,79,76077,6,0,B|47:79|47:249,1,240,2|2
231,188,77796,1,0
423,188,78656,1,0
286,323,79516,2,0,B|144:324|144:151,3,240,2|2|2|4
301,56,82954,5,0
451,188,83814,1,2
318,326,84673,1,0
125,324,85533,1,2
286,221,86392,2,0,B|177:136|57:226,3,240,0|0|0|4
37,111,89831,6,0,B|116:17|152:126|256:29,1,240,2|2
139,199,91550,1,2
331,199,92410,1,4
464,84,93269,2,0,B|376:4|326:121|244:23,2,240,2|2|2
457,276,95848,1,4
264,276,96708,5,0
123,145,97567,1,0
315,146,98427,1,0
455,276,99286,1,0
262,276,100146,2,0,B|146:341|19:267,2,240,2|2|2
254,84,102725,1,4
427,166,103584,5,0
312,320,104444,1,0
119,320,105304,1,0
117,128,106163,1,0
301,73,107023,2,0,B|408:169|296:298,2,240
108,77,109602,1,4
41,48,117338,5,4
424,54,119057,1,4
74,212,120776,6,0,B|192:269|314:209,1,240
428,64,122496,1,0
424,255,123355,1,0
231,254,124215,2,0,B|169:170|97:168|32:269,2,240,2|2|2
423,256,126794,1,4
425,64,127653,6,0,B|366:134|284:134|210:74,1,240
95,228,129372,1,0
261,324,130232,1,0
256,192,131092,12,4,134530
