osu file format v5

[General]
AudioFilename: Kingdom Hearts 2 - The Corrupted.mp3
AudioLeadIn: 0
PreviewTime: -1
Countdown: 0
SampleSet: Soft
StackLeniency: 0.7
Mode: 0
LetterboxInBreaks: 1

[Metadata]
Title:Kingdom Hearts 2 - The Corrupted
Artist:Yoko Shimomura
Creator:sagerosa
Version:Normal
Source:
Tags:

[Difficulty]
HPDrainRate:6
CircleSize:6
OverallDifficulty:6
SliderMultiplier:0.7
SliderTickRate:1

[Events]
//Background and Video events
0,0,"Kingdom Hearts 2 3.jpg"
//Break Periods
//Storyboard Layer 0 (Background)
//Storyboard Layer 1 (Failing)
//Storyboard Layer 2 (Passing)
//Storyboard Layer 3 (Foreground)
//Storyboard Sound Samples
//Background Colour Transformations
3,100,163,162,255

[TimingPoints]
5691,322.58064516129,4,2,0,100,1

[HitObjects]
64,192,5691,1,0
64,192,6174,1,0
184,192,6981,1,0
184,192,7465,1,0
328,192,8271,1,4
328,192,8755,1,0
456,192,9561,1,0
456,192,10045,1,0
456,96,10852,2,0,B|336:96,1,105
312,152,12142,2,0,B|288:176|251:176|208:152,1,105
136,104,13432,2,0,B|24:104,1,105
176,192,14723,1,0
288,192,15207,1,0
232,248,16013,1,0
232,144,16497,1,0
160,192,17303,1,0
160,192,17787,1,0
64,192,18594,5,0
64,192,18876,1,0
160,192,19803,2,0,B|172:245|211:285|268:307|312:312,1,192.5
376,312,21174,1,0
376,312,21457,1,0
376,232,22465,2,0,B|376:168|360:120|320:80|304:64,1,175
280,216,23755,1,0
280,216,24037,1,0
216,168,24965,2,0,B|200:152|80:153|233:58|96:48,1,175
56,128,26255,1,0
56,192,26578,1,0
56,296,27626,2,0,B|28:358|63:380|152:379|196:368|224:328,1,227.5
216,312,28836,6,4,B|219:261|161:259|-16:382|-16:292|-13:147|-13:101|128:228|183:238|208:224|206:180|200:152,1,472.5
272,176,31174,2,0,B|272:128,2,35
272,176,31578,2,0,B|392:176|408:176|408:304,1,227.5
328,304,32787,2,0,B|224:304|200:304|168:304|184:168,1,245
184,184,34078,2,0,B|184:112,5,70
88,128,36094,1,0
0,184,36658,2,0,B|0:304,5,105
0,288,39239,2,0,B|61:299|-19:346|-54:378|216:341|472:352,1,507.5
460,351,41820,2,0,B|456:264|456:248|456:232|296:232,1,245
305,232,43110,2,0,B|232:232|200:232|208:64,1,227.5
207,71,44400,2,0,B|288:72,14,70
56,48,49884,5,4
160,48,50852,1,0
160,48,51174,1,0
264,48,51820,1,0
352,48,52465,1,4
456,48,53352,1,0
456,48,53674,1,0
400,136,54400,1,0
304,136,55045,1,4
208,136,56013,1,0
208,136,56336,1,0
112,176,56981,1,0
48,248,57626,1,4
160,248,58594,1,0
160,248,58916,1,0
256,192,59561,1,0
256,192,60126,12,0,68513
