osu file format v12

[General]
AudioFilename: In the Final.mp3
AudioLeadIn: 0
PreviewTime: 9230
Countdown: 0
SampleSet: Soft
StackLeniency: 0.3
Mode: 0
LetterboxInBreaks: 1
WidescreenStoryboard: 0

[Editor]
DistanceSpacing: 1
BeatDivisor: 4
GridSize: 8

[Metadata]
Title:In The Final
TitleUnicode:In The Final
Artist:Yoko Shimomura
ArtistUnicode:Yoko Shimomura
Creator:Chupalika
Version:Insane
Source:Mario & Luigi: Bowser's Inside Story
Tags:final boss battle alpha dream alphadream super mario rpg smrpg shrowser
BeatmapID:320519
BeatmapSetID:126054

[Difficulty]
HPDrainRate:7
CircleSize:4
OverallDifficulty:7
ApproachRate:9
SliderMultiplier:2
SliderTickRate:1

[Events]
//Background and Video events
0,0,"background.jpg",0,0
//Break Periods
2,21740,23248
2,77142,78651
//Storyboard Layer 0 (Background)
//Storyboard Layer 1 (Fail)
//Storyboard Layer 2 (Pass)
//Storyboard Layer 3 (Foreground)
//Storyboard Sound Samples
//Background Colour Transformations
3,100,163,162,255

[TimingPoints]
-5,384.738698300737,4,2,1,40,1,0
8843,-100,4,2,1,25,0,0
9228,-100,4,2,1,40,0,0
23848,-100,4,2,1,20,0,0
24041,-100,4,2,1,25,0,0
24233,-100,4,2,1,30,0,0
24425,-100,4,2,1,35,0,0
24618,-100,4,2,1,40,0,0
33467,-100,4,2,1,35,0,0
33852,-100,4,2,1,30,0,0
35390,-100,4,2,1,35,0,0
36929,-100,4,2,1,40,0,0
37699,-100,4,2,1,45,0,0
38468,-100,4,2,1,50,0,0
39238,-100,4,2,1,30,0,0
39366,-100,4,2,1,33,0,0
39494,-100,4,2,1,36,0,0
39623,-100,4,2,1,40,0,0
39751,-100,4,2,1,43,0,0
39879,-100,4,2,1,46,0,0
40007,-100,4,2,1,50,0,1
52319,-100,4,2,1,40,0,0
58763,-100,4,2,1,30,0,0
59052,-100,4,2,1,20,0,0
59244,-100,4,2,1,30,0,0
60783,-100,4,2,1,35,0,0
61553,-100,4,2,1,40,0,0
71075,-100,4,2,1,30,0,0
71364,-100,4,2,1,20,0,0
71556,-200,4,2,1,35,0,0
71844,-200,4,2,1,25,0,0
72133,-200,4,2,1,15,0,0
72325,-100,4,2,1,30,0,0
73095,-100,4,2,1,35,0,0
73864,-100,4,2,1,40,0,0
75980,-100,4,2,1,30,0,0
76173,-100,4,2,1,35,0,0
76365,-100,4,2,1,40,0,0
76558,-100,4,2,1,45,0,0
76942,-100,4,2,1,50,0,1
79251,-100,4,2,1,20,0,1
79443,-100,4,2,1,25,0,1
79635,-100,4,2,1,30,0,1
79828,-100,4,2,1,40,0,1
80020,-100,4,2,1,50,0,1
87715,-100,4,2,1,30,0,1
87907,-100,4,2,1,35,0,1
88100,-100,4,2,1,40,0,1
88292,-100,4,2,1,45,0,1
88484,-100,4,2,1,50,0,1
88677,-100,4,2,1,45,0,1
88869,-100,4,2,1,40,0,1
89062,-100,4,2,1,35,0,1
89254,-100,4,2,1,30,0,0

[Colours]
Combo1 : 128,128,255
Combo2 : 255,128,0
Combo3 : 255,255,0
Combo4 : 0,255,0

[HitObjects]
96,256,8843,2,0,L|136:256,5,33.3333333333333
160,256,9228,2,0,P|216:240|240:208,1,100
288,64,9613,1,8,0:0:0:0:
368,128,9805,1,0,0:0:0:0:
368,128,9902,1,0,0:0:0:0:
368,128,9998,2,0,P|408:208|344:288,1,200,0|8,0:0|0:0,0:0:0:0:
272,224,10575,1,2,0:0:0:0:
200,288,10767,6,0,P|112:232|112:144,1,200,0|8,0:0|0:0,0:0:0:0:
136,48,11344,1,2,0:0:0:0:
136,48,11537,2,0,P|184:32|232:32,1,100,0|2,0:0|0:0,0:0:0:0:
368,96,11921,2,0,P|320:112|272:112,1,100,8|2,0:0|0:0,0:0:0:0:
136,48,12306,6,0,P|48:64|0:168,1,200,0|8,0:0|0:0,0:0:0:0:
96,192,12883,1,2,0:0:0:0:
128,288,13076,2,0,P|216:272|272:168,1,200,0|8,0:0|0:0,0:0:0:0:
424,48,13845,6,0,P|456:80|472:136,2,100,0|0|8,0:0|0:0|0:0,0:0:0:0:
328,16,14422,1,2,0:0:0:0:
296,24,14518,1,2,0:0:0:0:
264,40,14615,1,0,0:0:0:0:
240,64,14711,1,2,0:0:0:0:
208,72,14807,1,2,0:0:0:0:
160,160,14999,2,0,P|112:152|80:112,1,100,8|0,0:0|0:0,0:0:0:0:
48,208,15384,5,0,0:0:0:0:
48,208,15576,1,2,0:0:0:0:
152,320,15769,1,8,0:0:0:0:
48,208,15961,1,0,0:0:0:0:
56,176,16057,1,0,0:0:0:0:
80,144,16154,1,0,0:0:0:0:
152,320,16346,1,0,0:0:0:0:
224,192,16538,1,8,0:0:0:0:
288,272,16731,1,0,0:0:0:0:
352,352,16923,6,0,P|408:336|432:296,1,100,0|2,0:0|0:0,0:0:0:0:
480,160,17308,1,8,0:0:0:0:
384,48,17500,1,0,0:0:0:0:
352,40,17596,1,0,0:0:0:0:
320,32,17692,1,0,0:0:0:0:
288,40,17789,1,0,0:0:0:0:
256,48,17885,1,0,0:0:0:0:
224,64,17981,1,0,0:0:0:0:
200,88,18077,2,0,L|168:128,3,50,8|0|0|0,0:0|0:0|0:0|0:0,0:0:0:0:
152,160,18462,5,0,0:0:0:0:
104,248,18654,1,2,0:0:0:0:
200,280,18847,1,8,0:0:0:0:
248,192,19039,1,2,0:0:0:0:
320,120,19231,1,0,0:0:0:0:
400,64,19424,2,0,P|448:64|480:112,1,100,2|8,0:0|0:0,0:0:0:0:
480,200,19809,5,0,0:0:0:0:
480,200,19905,1,0,0:0:0:0:
480,200,20001,2,0,P|464:296|376:344,1,200,0|8,0:0|0:0,0:0:0:0:
120,192,20770,2,0,P|136:96|224:48,1,200,0|8,0:0|0:0,0:0:0:0:
480,200,21540,1,4,0:0:0:0:
32,192,23848,6,0,L|32:136,3,50,0|0|0|0,0:0|0:0|0:0|0:0,0:0:0:0:
64,192,24233,2,0,L|64:248,3,50,0|0|4|0,0:0|0:0|0:0|0:0,0:0:0:0:
96,192,24618,1,4,0:0:0:0:
160,272,24810,1,0,0:0:0:0:
160,272,25003,1,2,0:0:0:0:
240,208,25195,1,0,0:0:0:0:
304,72,25387,5,0,0:0:0:0:
440,136,25580,1,2,0:0:0:0:
440,288,25772,1,0,0:0:0:0:
304,352,25964,1,0,0:0:0:0:
224,224,26157,5,2,0:0:0:0:
128,336,26349,1,0,0:0:0:0:
16,240,26541,1,0,0:0:0:0:
112,128,26734,1,2,0:0:0:0:
240,48,26926,6,0,P|296:48|336:64,1,100
416,192,27311,2,0,P|360:192|320:176,1,100,2|4,0:0|0:0,0:0:0:0:
240,48,27696,5,4,0:0:0:0:
240,48,27888,1,0,0:0:0:0:
104,112,28080,1,8,0:0:0:0:
72,208,28273,1,0,0:0:0:0:
64,240,28369,1,0,0:0:0:0:
64,272,28465,1,2,0:0:0:0:
72,304,28561,1,0,0:0:0:0:
96,328,28658,1,0,0:0:0:0:
184,208,28850,1,8,0:0:0:0:
272,328,29042,1,0,0:0:0:0:
272,328,29235,6,0,P|368:304|400:216,1,200,0|8,0:0|0:0,0:0:0:0:
256,184,29812,1,2,0:0:0:0:
224,40,30004,2,0,P|128:64|96:152,1,200,0|8,0:0|0:0,0:0:0:0:
168,336,30774,6,0,P|224:352|272:336,1,100,0|2,0:0|0:0,0:0:0:0:
336,208,31158,1,8,0:0:0:0:
416,336,31351,1,0,0:0:0:0:
416,336,31447,1,0,0:0:0:0:
416,336,31543,2,0,P|504:280|504:184,1,200,0|8,0:0|0:0,0:0:0:0:
480,96,32120,1,2,0:0:0:0:
400,32,32313,5,0,0:0:0:0:
400,32,32505,1,2,0:0:0:0:
304,144,32697,2,0,P|256:160|208:144,1,100,8|0,0:0|0:0,0:0:0:0:
184,128,32986,1,0,0:0:0:0:
160,104,33082,1,2,0:0:0:0:
136,80,33178,1,2,0:0:0:0:
104,72,33274,1,2,0:0:0:0:
40,152,33467,2,0,L|24:104,2,50,8|0|0,0:0|0:0|0:0,0:0:0:0:
88,240,33852,6,0,L|64:304,2,66.6666666666667,2|2|2,0:0|0:0|0:0,0:0:0:0:
104,176,34236,2,0,B|160:64|192:256|256:136,1,200,8|0,0:0|0:0,0:0:0:0:
360,32,34813,1,2,0:0:0:0:
440,160,35006,2,0,P|424:272|352:312,1,200,8|0,0:0|0:0,0:0:0:0:
355,311,35583,5,2,0:0:0:0:
256,200,35775,1,8,0:0:0:0:
224,104,35968,1,2,0:0:0:0:
192,120,36064,1,0,0:0:0:0:
168,144,36160,1,2,0:0:0:0:
152,176,36256,1,0,0:0:0:0:
152,208,36352,1,2,0:0:0:0:
192,352,36545,1,8,0:0:0:0:
304,256,36737,1,2,0:0:0:0:
192,352,36929,6,0,P|136:344|104:304,1,100,0|2,0:0|0:0,0:0:0:0:
64,120,37314,2,0,P|120:128|152:168,1,100,8|2,0:0|0:0,0:0:0:0:
256,328,37699,2,0,P|200:320|168:280,1,100,0|2,0:0|0:0,0:0:0:0:
128,96,38084,2,0,P|184:104|216:144,1,100,8|2,0:0|0:0,0:0:0:0:
320,304,38468,6,0,P|224:288|176:192,1,200,0|8,0:0|0:0,0:0:0:0:
256,72,39045,1,2,0:0:0:0:
392,136,39238,2,0,L|416:72,2,66.6666666666667
424,192,39623,2,0,L|496:192,2,66.6666666666667,10|2|2,0:0|0:0|0:0,0:0:0:0:
392,248,40007,5,6,0:0:0:0:
312,312,40200,1,0,0:0:0:0:
328,192,40392,1,10,0:0:0:0:
224,256,40584,1,0,0:0:0:0:
160,64,40777,1,2,0:0:0:0:
88,160,40969,1,0,0:0:0:0:
184,144,41162,1,10,0:0:0:0:
144,240,41354,1,0,0:0:0:0:
80,320,41546,5,2,0:0:0:0:
176,352,41739,1,0,0:0:0:0:
256,240,41931,1,10,0:0:0:0:
352,272,42123,1,0,0:0:0:0:
448,96,42316,2,0,P|416:64|360:72,1,100,2|0,0:0|0:0,0:0:0:0:
280,192,42700,2,0,P|312:224|368:216,1,100,10|0,0:0|0:0,0:0:0:0:
448,96,43085,5,2,0:0:0:0:
416,240,43278,1,0,0:0:0:0:
368,96,43470,1,10,0:0:0:0:
336,240,43662,1,0,0:0:0:0:
192,32,43855,2,0,L|136:120,1,100,2|0,0:0|0:0,0:0:0:0:
256,120,44239,1,10,0:0:0:0:
312,200,44432,1,0,0:0:0:0:
256,280,44624,5,2,0:0:0:0:
200,200,44817,1,0,0:0:0:0:
288,80,45009,1,10,0:0:0:0:
376,200,45201,1,0,0:0:0:0:
256,360,45394,1,2,0:0:0:0:
136,200,45586,1,0,0:0:0:0:
256,360,45778,1,10,0:0:0:0:
136,200,45971,1,0,0:0:0:0:
256,40,46163,5,2,0:0:0:0:
312,176,46356,1,0,0:0:0:0:
448,112,46548,2,0,P|472:152|472:208,1,100,10|0,0:0|0:0,0:0:0:0:
408,344,46933,1,2,0:0:0:0:
352,208,47126,1,0,0:0:0:0:
216,272,47318,2,0,P|192:232|192:176,1,100,10|0,0:0|0:0,0:0:0:0:
256,40,47702,6,0,P|312:40|360:72,1,100,2|0,0:0|0:0,0:0:0:0:
432,240,48087,2,0,P|376:240|328:208,1,100,10|0,0:0|0:0,0:0:0:0:
256,344,48472,2,0,P|216:304|205:247,1,100,2|0,0:0|0:0,0:0:0:0:
56,296,48856,2,0,P|55:240|87:192,1,100,10|0,0:0|0:0,0:0:0:0:
160,80,49241,5,2,0:0:0:0:
288,160,49433,1,0,0:0:0:0:
208,32,49626,1,10,0:0:0:0:
352,160,49818,1,0,0:0:0:0:
224,312,50011,1,2,0:0:0:0:
288,72,50203,1,0,0:0:0:0:
136,160,50395,1,10,0:0:0:0:
375,224,50587,1,0,0:0:0:0:
288,352,50780,5,2,0:0:0:0:
152,288,50972,1,0,0:0:0:0:
224,128,51165,1,10,0:0:0:0:
88,64,51357,1,0,0:0:0:0:
288,264,51549,2,0,P|328:288|384:288,1,100,2|0,0:0|0:0,0:0:0:0:
496,192,51934,2,0,P|456:168|400:168,1,100,14|0,0:0|0:0,0:0:0:0:
288,264,52319,5,4,0:0:0:0:
168,352,52511,1,2,0:0:0:0:
136,352,52608,1,2,0:0:0:0:
104,336,52704,1,8,0:0:0:0:
80,312,52800,1,2,0:0:0:0:
64,280,52896,1,2,0:0:0:0:
64,248,52992,1,2,0:0:0:0:
80,216,53088,1,0,0:0:0:0:
104,192,53185,1,0,0:0:0:0:
136,184,53281,1,2,0:0:0:0:
168,184,53377,1,2,0:0:0:0:
200,200,53473,2,0,P|224:224|232:264,3,50,8|0|2|0,0:0|0:0|0:0|0:0,0:0:0:0:
240,272,53858,5,0,0:0:0:0:
368,352,54050,1,2,0:0:0:0:
400,344,54146,1,2,0:0:0:0:
432,328,54243,2,0,P|448:312|464:288,3,50,8|0|2|0,0:0|0:0|0:0|0:0,0:0:0:0:
472,256,54627,2,0,P|480:232|480:200,3,50,0|0|2|0,0:0|0:0|0:0|0:0,0:0:0:0:
480,168,55012,2,0,L|480:112,1,50,8|2,0:0|0:0,0:0:0:0:
400,56,55205,2,0,L|400:112,1,50,2|2,0:0|0:0,0:0:0:0:
320,168,55397,6,0,B|304:280|200:168|184:312,1,200,0|8,0:0|0:0,0:0:0:0:
112,352,55974,1,0,0:0:0:0:
112,352,56070,1,0,0:0:0:0:
112,352,56166,2,0,P|40:296|32:192,2,200,0|8|0,0:0|0:0|0:0,0:0:0:0:
192,288,57128,5,2,0:0:0:0:
112,224,57321,1,8,0:0:0:0:
208,48,57513,1,2,0:0:0:0:
208,48,57609,1,2,0:0:0:0:
208,48,57705,2,0,P|192:96|240:112,1,100
368,176,58090,1,8,0:0:0:0:
256,336,58475,6,0,L|104:336,2,150
352,336,59244,2,0,P|400:320|424:280,1,100,0|2,0:0|0:0,0:0:0:0:
448,128,59629,1,8,0:0:0:0:
424,279,59821,1,0,0:0:0:0:
424,279,59918,1,0,0:0:0:0:
424,279,60014,6,0,P|384:248|368:192,1,100,2|0,0:0|0:0,0:0:0:0:
352,56,60398,1,8,0:0:0:0:
312,280,60591,2,0,P|271:248|256:192,1,100,2|0,0:0|0:0,0:0:0:0:
240,56,60976,1,0,0:0:0:0:
200,280,61168,1,10,0:0:0:0:
128,56,61360,1,0,0:0:0:0:
88,280,61553,6,0,P|136:336|256:352,1,200,0|8,0:0|0:0,0:0:0:0:
376,192,62130,1,0,0:0:0:0:
376,192,62226,1,0,0:0:0:0:
376,192,62322,2,0,P|328:136|208:120,1,200,0|8,0:0|0:0,0:0:0:0:
208,119,62899,1,2,0:0:0:0:
64,256,63092,6,0,P|80:304|128:328,1,100,2|2,0:0|0:0,0:0:0:0:
152,336,63380,1,0,0:0:0:0:
184,336,63476,1,10,0:0:0:0:
216,320,63573,1,2,0:0:0:0:
248,296,63669,1,0,0:0:0:0:
280,280,63765,1,2,0:0:0:0:
312,280,63861,2,0,L|368:280,1,50,2|2,0:0|0:0,0:0:0:0:
480,192,64053,2,0,L|424:192,1,50,2|2,0:0|0:0,0:0:0:0:
296,248,64246,2,0,L|352:248,1,50,10|2,0:0|0:0,0:0:0:0:
464,160,64438,2,0,L|408:160,1,50,2|2,0:0|0:0,0:0:0:0:
280,216,64631,5,4,0:0:0:0:
112,48,65015,2,0,P|128:96|184:120,1,100,8|2,0:0|0:0,0:0:0:0:
80,296,65400,2,0,P|129:306|178:269,1,100,0|2,0:0|0:0,0:0:0:0:
360,336,65785,2,0,P|393:298|386:237,1,100,8|2,0:0|0:0,0:0:0:0:
320,64,66170,5,0,0:0:0:0:
320,64,66362,1,2,0:0:0:0:
128,224,66554,2,0,P|160:272|216:272,1,100,8|2,0:0|0:0,0:0:0:0:
224,32,66939,2,0,P|166:35|138:84,1,100,0|2,0:0|0:0,0:0:0:0:
344,208,67324,2,0,P|369:156|341:107,1,100,8|2,0:0|0:0,0:0:0:0:
128,224,67709,6,0,P|192:304|288:320,1,200,0|8,0:0|0:0,0:0:0:0:
440,192,68286,1,0,0:0:0:0:
440,192,68382,1,0,0:0:0:0:
440,192,68478,2,0,P|376:112|280:96,1,200,0|8,0:0|0:0,0:0:0:0:
128,224,69055,1,0,0:0:0:0:
256,304,69247,5,2,0:0:0:0:
128,224,69440,1,0,0:0:0:0:
128,224,69632,1,8,0:0:0:0:
192,32,69825,1,2,0:0:0:0:
176,64,69921,1,2,0:0:0:0:
176,96,70017,1,0,0:0:0:0:
200,120,70113,1,2,0:0:0:0:
232,128,70209,1,0,0:0:0:0:
304,56,70402,1,8,0:0:0:0:
408,160,70594,1,2,0:0:0:0:
360,352,70786,6,0,L|208:352,1,150
56,352,71364,1,0,0:0:0:0:
56,256,71556,2,0,L|136:256,1,75
208,256,72133,1,0,0:0:0:0:
208,256,72325,6,0,L|312:256,1,100,2|0,0:0|0:0,0:0:0:0:
496,192,72710,1,8,0:0:0:0:
312,128,72902,2,0,L|208:128,1,100,2|0,0:0|0:0,0:0:0:0:
24,64,73287,1,0,0:0:0:0:
312,128,73480,1,10,0:0:0:0:
24,64,73672,1,0,0:0:0:0:
80,256,73864,6,0,P|144:320|256:320,1,200,2|8,0:0|0:0,0:0:0:0:
360,160,74441,1,2,0:0:0:0:
360,160,74538,1,0,0:0:0:0:
360,160,74634,2,0,P|320:128|272:128,1,100,2|0,0:0|0:0,0:0:0:0:
336,240,75019,1,8,0:0:0:0:
224,72,75211,1,0,0:0:0:0:
112,240,75403,6,0,P|152:272|200:272,1,100,2|0,0:0|0:0,0:0:0:0:
304,104,75788,1,8,0:0:0:0:
440,160,75980,1,2,0:0:0:0:
456,192,76077,1,2,0:0:0:0:
464,224,76173,1,0,0:0:0:0:
464,256,76269,1,2,0:0:0:0:
448,288,76365,1,0,0:0:0:0:
424,312,76461,1,2,0:0:0:0:
392,328,76558,2,2,L|352:344,6,33.3333333333333,2|2|2|2|2|2|6,0:0|0:0|0:0|0:0|0:0|0:0|0:0,0:0:0:0:
88,96,79251,5,0,0:0:0:0:
72,128,79347,1,0,0:0:0:0:
64,160,79443,1,0,0:0:0:0:
64,192,79539,1,0,0:0:0:0:
72,224,79635,2,0,P|80:256|104:280,1,50,4|0,0:0|0:0,0:0:0:0:
152,240,79828,2,0,P|144:208|120:184,1,50
72,224,80020,5,4,0:0:0:0:
184,320,80213,1,0,0:0:0:0:
184,320,80405,1,2,0:0:0:0:
304,288,80597,1,0,0:0:0:0:
400,160,80790,5,0,0:0:0:0:
288,64,80982,1,2,0:0:0:0:
192,176,81174,1,0,0:0:0:0:
312,264,81367,1,0,0:0:0:0:
288,112,81559,5,2,0:0:0:0:
64,224,81751,1,0,0:0:0:0:
128,304,81944,1,0,0:0:0:0:
224,336,82136,1,2,0:0:0:0:
328,336,82329,2,0,P|384:320|416:264,1,100
344,48,82713,2,0,P|288:64|256:120,1,100,6|0,0:0|0:0,0:0:0:0:
328,336,83098,5,4,0:0:0:0:
464,192,83290,1,0,0:0:0:0:
464,192,83483,1,2,0:0:0:0:
160,192,83675,1,0,0:0:0:0:
288,32,83868,1,0,0:0:0:0:
336,176,84060,1,2,0:0:0:0:
240,80,84252,1,0,0:0:0:0:
288,224,84445,1,0,0:0:0:0:
192,128,84637,5,2,0:0:0:0:
88,240,84829,2,0,P|104:288|144:312,1,100
248,200,85214,1,2,0:0:0:0:
104,232,85406,1,0,0:0:0:0:
248,264,85599,1,0,0:0:0:0:
128,168,85791,1,6,0:0:0:0:
192,304,85984,1,0,0:0:0:0:
192,152,86176,5,4,0:0:0:0:
304,48,86368,1,0,0:0:0:0:
304,48,86561,1,2,0:0:0:0:
384,176,86753,2,0,P|432:152|448:104,1,100
480,208,87138,1,2,0:0:0:0:
376,104,87330,1,0,0:0:0:0:
408,248,87523,1,0,0:0:0:0:
352,336,87715,5,2,0:0:0:0:
320,352,87811,1,0,0:0:0:0:
288,352,87907,1,2,0:0:0:0:
256,344,88003,1,2,0:0:0:0:
224,320,88100,1,0,0:0:0:0:
208,288,88196,1,2,0:0:0:0:
208,256,88292,1,0,0:0:0:0:
224,224,88388,1,0,0:0:0:0:
248,200,88484,2,0,P|272:184|288:152,1,50,2|0,0:0|0:0,0:0:0:0:
240,72,88677,2,0,P|216:88|200:120,1,50,2|0,0:0|0:0,0:0:0:0:
280,240,88869,2,0,P|304:224|320:192,1,50,2|0,0:0|0:0,0:0:0:0:
208,40,89062,2,0,P|184:56|168:88,1,50,2|0,0:0|0:0,0:0:0:0:
312,280,89254,1,0,0:0:0:0:
256,192,89446,12,0,92332,0:0:0:0:
