osu file format v5

[General]
AudioFilename: 41-last-battle.mp3
AudioLeadIn: 0
PreviewTime: -1
Countdown: 1
SampleSet: Normal
StackLeniency: 0
Mode: 0
LetterboxInBreaks: 1
EditorBookmarks: 1389,46648,113047

[Metadata]
Title:Cackletta Soul Battle
Artist:Yoko Shimomura
Creator:m980
Version:Insane
Source:
Tags:

[Difficulty]
HPDrainRate:7
CircleSize:5
OverallDifficulty:8
SliderMultiplier:1.4
SliderTickRate:4

[Events]
//Background and Video events
0,0,"Cackletta Background.png"
//Break Periods
2,57495,73754
//Storyboard Layer 0 (Background)
4,0,0,"strobe0.png",0,0 L,-46,2 F,1,0,956,1,0 L,57415,18 F,1,0,956,1,0 L,112962,10 F,1,0,956,1,0 L,47838,10 F,1,0,956,1,0 L,17192,32 F,1,0,956,1,0 L,82315,32 F,1,0,956,1,0
4,0,0,"strobe1.png",0,0 L,432,2 F,1,0,956,1,0 L,57893,18 F,1,0,956,1,0 L,113440,10 F,1,0,956,1,0 L,48316,10 F,1,0,956,1,0 L,17670,32 F,1,0,956,1,0 L,82794,32 F,1,0,956,1,0
4,0,0,"peopleinfrontoflightning.png",0,0 F,0,-500,-500,0,1 F,0,142172,142172,1,0
4,0,1,"ArmHand\arm.png",250,360 L,57495,100 M,0,0,200,250,360,250,355 M,0,200,400,250,355,250,360 F,0,57495,57495,0,1 S,0,57495,57495,2,2 F,0,73754,73754,1,0
6,0,1,"heart\heart.png",320,360,12,200 F,0,57495,57495,0,1 S,0,57495,57495,3,3 F,0,73754,73754,1,0
4,0,1,"ArmHand\arm.png",210,360 L,57495,100 M,0,0,200,210,365,210,370 M,0,200,400,210,370,210,365 F,0,57495,57495,0,1 S,0,57495,57495,3,3 F,0,73754,73754,1,0
4,0,1,"ArmHand\arm.png",190,360 L,57495,100 M,0,0,200,190,360,190,355 M,0,200,400,190,355,190,360 F,0,57495,57495,0,1 S,0,57495,57495,2,2 F,0,73754,73754,1,0
6,0,1,"ArmHand\rh.png",140,340,4,500 F,0,57495,57495,0,1 S,0,57495,57495,3,3 F,0,72745,72745,1,0
6,0,1,"ArmHand\lh.png",390,360,4,500 F,0,57495,57495,0,1 S,0,57495,57495,2.9,2.9 F,0,73754,73754,1,0
6,0,1,"ArmHand\attack.png",140,300,7,450 F,0,72745,72745,0,1 S,0,72745,72745,3,3 F,0,73754,73754,1,0
//Storyboard Layer 1 (Failing)
6,1,1,"laugh\cackletta.png",280,180,12,50 L,57495,100 M,0,0,100,280,180,280,190 M,0,100,200,280,190,280,180 F,0,57495,57495,0,1 S,0,57495,57495,3,3 F,0,73754,73754,1,0
//Storyboard Layer 2 (Passing)
6,2,1,"laugh\cackletta.png",280,180,12,50 L,57495,100 M,0,0,100,280,180,280,190 M,0,100,200,280,190,280,180 F,0,57495,57495,0,1 S,0,57495,57495,3,3 F,0,65563,65563,1,0
4,2,1,"laugh\hurt.png",280,180 L,65563,100 M,0,0,50,280,185,280,190 M,0,50,100,280,190,290,185 M,0,100,150,290,185,280,180 M,0,150,200,280,180,270,185 F,0,65563,65563,0,1 S,0,65563,65563,3,3 F,0,66999,66999,1,0
6,2,1,"laugh\cackletta.png",280,180,12,50 L,66999,100 M,0,0,100,280,180,280,190 M,0,100,200,280,190,280,180 F,0,66999,66999,0,1 S,0,66999,66999,3,3 F,0,73754,73754,1,0
//Storyboard Layer 3 (Foreground)
4,3,1,"bym980.png",-100,380 M,1,0,1390,-100,380,480,380 F,0,0,500,0,1 M,2,1890,3390,480,380,480,-300 F,0,5190,5190,1,0
4,3,1,"blackawesomeness.png",320,240 F,0,46248,46648,0,1 F,0,56695,57195,1,0
4,3,1,"spinner-background.png",320,240 F,0,46248,46648,0,1 S,0,46648,46648,0.62,0.62 F,0,56695,57195,1,0
4,3,1,"bym980.png",-100,380 M,1,0,1390,-100,380,480,380 F,0,0,500,0,1 M,2,1890,3390,480,380,480,-300 F,0,5190,5190,1,0
4,3,1,"spinner-circle.png",320,240 F,0,46248,46648,0,1 S,0,46648,46648,0.62,0.62 R,0,46648,47048,0,8 R,0,47838,57195,0,-314 F,0,56695,57195,1,0
4,3,1,"spinner-approachcircle.png",320,240 F,0,46648,46648,0,1 S,0,46648,56695,1.15,0 F,0,56695,57195,1,0
//Storyboard Sound Samples
//Background Colour Transformations
3,100,163,162,255

[TimingPoints]
1397,478.850758180367,4,1,0,30,1

[Colours]
Combo1 : 39,39,39
Combo2 : 122,122,122
Combo3 : 88,86,86
Combo4 : 55,55,55

[HitObjects]
216,8,1875,1,0
160,56,2115,1,0
104,104,2354,1,0
48,152,2593,1,0
48,224,2833,1,0
104,272,3073,1,0
160,320,3312,1,2
216,368,3551,1,0
288,368,3791,5,0
344,320,4031,1,0
400,272,4270,1,0
456,224,4509,1,0
456,152,4749,1,0
400,104,4989,1,0
344,56,5228,1,2
288,8,5467,1,0
248,72,5706,5,0
248,144,5946,1,0
248,216,6185,1,0
248,288,6424,1,0
184,256,6664,1,0
120,224,6903,1,0
64,184,7143,1,2
120,144,7382,1,0
176,184,7622,5,0
232,144,7861,1,0
176,104,8100,1,0
232,64,8340,1,0
288,104,8579,1,0
344,144,8819,1,0
288,184,9058,1,2
256,248,9298,1,0
320,272,9537,5,0
320,272,9657,1,0
320,272,9777,1,2
320,272,9897,1,0
320,272,10016,1,0
256,304,10256,1,2
224,288,10375,1,0
192,272,10495,1,0
160,208,10735,1,2
176,176,10854,1,0
192,144,10974,1,0
224,128,11094,1,0
256,112,11213,1,2
320,144,11453,5,0
320,144,11573,1,0
320,144,11692,1,2
320,144,11812,1,0
320,144,11932,1,0
384,112,12171,1,2
416,128,12291,1,0
448,144,12410,1,0
480,208,12650,1,2
464,240,12770,1,0
448,272,12889,1,0
416,288,13009,1,0
384,304,13129,1,2
320,272,13368,5,0
320,272,13488,1,0
320,272,13608,1,2
320,272,13727,1,0
320,272,13847,1,0
288,336,14086,1,2
256,352,14206,1,0
224,368,14326,1,0
160,336,14565,1,2
144,304,14685,1,0
128,272,14805,1,0
144,240,14924,1,0
160,208,15044,1,2
224,176,15284,5,0
224,176,15403,1,0
288,160,15643,1,0
288,160,15762,1,0
352,128,16002,1,2
384,112,16122,1,0
416,128,16241,1,0
416,160,16361,1,0
416,192,16480,1,0
392,216,16600,1,0
368,240,16720,1,0
336,240,16840,1,0
320,272,16960,1,2
448,304,17199,5,0
464,280,17318,1,0
472,248,17438,1,0
464,216,17558,1,0
448,192,17677,1,0
400,128,17917,1,0
400,128,18037,1,0
336,168,18276,1,0
296,104,18515,1,0
296,104,18635,1,0
232,144,18875,1,2
176,96,19114,5,0
160,120,19234,1,0
144,144,19353,1,0
160,168,19473,1,0
176,192,19593,1,0
224,248,19832,1,0
224,248,19952,1,0
288,200,20191,1,0
344,256,20431,1,0
344,256,20551,1,2
64,304,21030,5,0
48,280,21149,1,0
40,248,21269,1,0
48,216,21389,1,0
64,192,21508,1,0
112,128,21748,1,0
112,128,21868,1,0
176,168,22107,1,0
216,104,22346,1,0
216,104,22466,1,0
280,144,22706,1,2
336,96,22945,5,0
352,120,23065,1,0
368,144,23184,1,0
352,168,23304,1,0
336,192,23424,1,0
288,248,23663,1,0
288,248,23783,1,0
224,200,24022,1,0
160,248,24262,1,0
160,248,24382,1,2
32,40,24860,5,0
48,64,24980,1,0
64,96,25100,1,0
80,120,25219,1,0
96,152,25339,1,0
136,216,25578,1,0
136,216,25698,1,0
176,152,25938,1,0
216,216,26177,1,0
216,216,26297,1,0
256,152,26536,1,2
216,88,26776,5,0
240,64,26895,1,0
272,56,27015,1,0
304,64,27135,1,0
328,88,27254,1,0
400,64,27494,1,0
416,88,27614,1,0
376,152,27853,1,0
320,208,28092,1,0
336,232,28212,1,2
480,40,28691,5,0
464,64,28811,1,0
448,96,28931,1,0
432,120,29050,1,0
416,152,29170,1,0
376,216,29409,1,0
376,216,29529,1,0
336,152,29769,1,0
296,216,30008,1,0
296,216,30128,1,0
256,152,30367,1,2
296,88,30607,5,0
272,64,30726,1,0
240,56,30846,1,0
208,64,30966,1,0
184,88,31085,1,0
112,64,31325,1,0
96,88,31445,1,0
136,152,31684,1,0
192,208,31923,1,0
176,232,32043,1,2
256,384,32522,5,0
272,360,32642,1,0
240,360,32761,1,0
256,336,32881,1,0
256,304,33001,1,0
256,232,33240,1,0
256,232,33360,1,0
256,160,33599,1,0
296,96,33839,1,0
296,96,33958,1,0
216,96,34198,1,2
256,32,34437,5,0
272,56,34557,1,0
240,56,34676,1,0
256,80,34796,1,0
256,112,34916,1,0
256,184,35155,1,0
256,184,35275,1,0
256,256,35514,1,0
256,328,35754,1,0
256,328,35873,1,2
24,112,36353,5,0
40,88,36472,1,0
56,64,36592,1,0
72,88,36712,1,0
88,112,36831,1,0
56,176,37071,1,0
56,208,37191,1,0
56,280,37430,1,0
128,280,37669,1,0
160,280,37789,1,0
232,280,38029,1,2
232,200,38268,5,0
216,176,38388,1,0
232,152,38507,1,0
248,128,38627,1,0
232,96,38747,1,0
280,40,38986,1,0
304,56,39106,1,0
328,128,39345,1,0
296,200,39585,1,0
304,232,39705,1,2
488,112,40183,5,0
472,88,40302,1,0
456,64,40422,1,0
440,88,40542,1,0
424,112,40661,1,0
456,176,40901,1,0
456,208,41021,1,0
456,280,41260,1,0
384,280,41499,1,0
352,280,41619,1,0
280,272,41859,1,2
280,200,42098,5,0
296,176,42218,1,0
280,152,42337,1,0
264,128,42457,1,0
280,96,42577,1,0
232,40,42816,1,0
208,56,42936,1,0
184,128,43175,1,0
216,200,43415,1,0
208,232,43535,1,2
432,344,44014,5,0
416,320,44134,1,0
400,296,44254,1,0
384,272,44373,1,0
368,248,44493,1,0
312,304,44732,1,0
312,304,44852,1,0
256,248,45092,1,0
200,304,45331,1,0
200,304,45451,1,0
144,248,45690,1,2
88,192,45930,5,0
112,176,46049,1,0
136,160,46169,1,0
160,144,46289,1,0
184,128,46408,1,0
24,192,47845,5,0
48,176,47965,1,0
72,192,48084,1,2
96,208,48204,1,0
120,192,48324,1,0
144,176,48444,1,0
120,160,48563,1,2
96,176,48683,1,0
72,160,48803,5,0
96,144,48922,1,0
120,128,49042,1,2
144,144,49162,1,0
168,160,49282,1,0
192,176,49401,1,0
168,192,49521,1,2
144,208,49641,1,0
168,224,49760,5,0
192,208,49880,1,0
216,192,50000,1,2
240,168,50120,1,0
216,152,50239,1,0
240,136,50359,1,0
264,152,50479,1,2
288,168,50598,1,0
264,184,50718,5,0
288,200,50838,1,0
312,184,50958,1,2
336,168,51077,1,0
312,152,51197,1,0
288,136,51317,1,0
312,120,51436,1,2
336,136,51556,1,0
360,120,51676,5,0
384,136,51796,1,0
360,152,51915,1,2
384,168,52035,1,0
360,184,52155,1,0
384,200,52274,1,0
360,216,52394,1,2
384,232,52514,1,0
360,248,52634,5,0
336,232,52753,1,0
312,216,52873,1,2
336,200,52993,1,0
312,184,53112,1,0
336,168,53232,1,0
312,152,53352,1,2
336,136,53472,1,0
312,120,53591,5,0
288,104,53711,1,0
264,88,53831,1,2
240,72,53950,1,0
216,88,54070,1,0
192,104,54190,1,0
216,120,54310,1,2
240,104,54429,1,0
264,120,54549,5,0
240,136,54669,1,0
216,152,54788,1,2
192,136,54908,1,0
168,120,55028,1,0
144,136,55147,1,0
168,152,55267,1,2
192,176,55387,1,0
216,192,55507,5,0
240,176,55626,1,0
264,160,55746,1,2
288,176,55866,1,0
264,192,55985,1,0
240,208,56105,1,0
264,224,56225,1,2
288,208,56345,1,0
320,192,56464,5,0
344,176,56584,1,0
320,160,56704,1,2
296,144,56823,1,0
320,128,56943,1,0
320,128,57063,1,0
344,144,57183,1,2
368,160,57302,1,6
40,40,74661,5,0
48,72,74780,1,0
56,104,74900,1,2
64,136,75020,1,0
72,168,75140,1,0
144,128,75379,1,2
160,152,75499,1,0
152,184,75618,1,0
128,208,75738,1,0
104,232,75858,1,2
96,264,75978,1,0
112,288,76097,1,0
136,304,76217,1,0
160,288,76337,1,2
256,232,76576,5,0
272,208,76696,1,0
256,176,76815,1,2
288,176,76935,1,0
272,144,77055,1,0
320,80,77294,1,2
344,56,77414,1,0
368,80,77534,1,0
344,104,77653,1,0
320,128,77773,1,2
368,128,77893,1,0
344,160,78013,1,0
320,184,78132,1,0
368,184,78252,1,2
344,264,78491,5,0
328,288,78611,1,0
296,304,78731,1,2
264,288,78851,1,0
248,264,78970,1,0
296,200,79210,1,2
296,168,79329,1,0
280,144,79449,1,0
248,128,79569,1,0
216,136,79689,1,2
200,160,79808,1,0
184,184,79928,1,0
160,200,80048,1,0
136,184,80167,1,2
80,88,80407,5,0
80,88,80527,1,0
152,48,80766,1,0
152,48,80886,1,0
224,80,81125,1,0
208,112,81245,1,0
192,144,81365,1,0
160,144,81484,1,0
128,144,81604,1,0
96,144,81724,1,0
64,144,81843,1,0
32,128,81963,1,0
8,104,82083,1,0
40,40,82322,5,0
64,56,82442,1,0
88,72,82562,1,0
112,88,82681,1,0
136,104,82801,1,0
136,184,83041,1,0
160,200,83160,1,0
160,280,83400,1,0
240,280,83639,1,0
264,296,83759,1,0
344,296,83998,1,2
424,296,84238,5,0
400,280,84358,1,0
424,264,84478,1,0
400,240,84597,1,0
368,216,84717,1,0
368,136,84957,1,0
336,120,85076,1,0
256,120,85316,1,0
176,120,85555,1,0
144,128,85675,1,2
472,40,86153,5,0
448,56,86273,1,0
424,72,86393,1,0
400,88,86512,1,0
376,104,86632,1,0
376,184,86872,1,0
352,200,86991,1,0
352,280,87231,1,0
272,280,87470,1,0
248,296,87590,1,0
168,296,87829,1,2
88,296,88069,5,0
112,280,88189,1,0
88,264,88309,1,0
112,240,88428,1,0
144,216,88548,1,0
144,136,88788,1,0
176,120,88907,1,0
256,120,89147,1,0
336,120,89386,1,0
368,128,89506,1,2
56,336,89984,5,0
64,304,90104,1,0
96,304,90223,1,0
128,304,90343,1,0
136,336,90463,1,0
216,336,90702,1,0
240,312,90822,1,0
296,256,91061,1,0
352,312,91301,1,0
376,336,91420,1,0
448,320,91660,1,2
456,256,91899,5,0
432,240,92019,1,0
408,224,92139,1,0
376,240,92258,1,0
352,224,92378,1,0
288,176,92618,1,0
264,160,92737,1,0
200,112,92977,1,0
136,64,93216,1,0
104,40,93336,1,2
456,336,93815,5,0
448,304,93935,1,0
416,304,94054,1,0
384,304,94174,1,0
376,336,94294,1,0
296,336,94533,1,0
272,312,94653,1,0
216,256,94892,1,0
160,312,95132,1,0
136,336,95251,1,0
56,336,95491,1,2
56,256,95730,5,0
80,240,95850,1,0
104,224,95970,1,0
136,240,96089,1,0
160,224,96209,1,0
224,176,96449,1,0
248,160,96568,1,0
312,112,96808,1,0
376,64,97047,1,0
408,40,97167,1,2
472,328,97646,5,0
456,304,97765,1,0
440,328,97885,1,0
424,304,98005,1,0
408,328,98124,1,0
328,328,98364,1,0
296,304,98483,1,0
360,256,98723,1,0
296,208,98962,1,0
320,184,99082,1,0
360,256,99321,1,2
400,184,99561,5,0
424,168,99681,1,0
400,184,99800,1,0
376,168,99920,1,0
400,144,100040,1,0
400,64,100279,1,0
368,80,100399,1,0
288,80,100638,1,0
208,80,100878,1,0
176,64,100997,1,0
96,64,101237,1,2
96,144,101476,5,0
128,168,101596,1,0
160,192,101716,1,0
128,216,101835,1,0
96,232,101955,1,0
96,312,102195,1,0
128,296,102314,1,0
208,296,102554,1,0
288,296,102793,1,0
320,280,102913,1,0
320,200,103152,1,2
240,200,103392,5,0
224,160,103511,1,0
208,120,103631,1,0
192,88,103751,1,0
176,48,103871,1,0
256,48,104110,1,0
272,80,104230,1,0
304,152,104469,1,0
336,80,104709,1,0
352,48,104828,1,2
32,352,105307,5,0
56,336,105427,1,0
80,320,105547,1,0
104,304,105666,1,0
80,320,105786,1,0
160,320,106025,1,0
184,304,106145,1,0
248,256,106385,1,0
312,208,106624,1,0
336,192,106744,1,0
400,144,106983,1,2
336,88,107223,5,0
312,72,107342,1,0
288,88,107462,1,0
264,72,107582,1,0
240,56,107701,1,0
160,56,107941,1,0
144,80,108061,1,0
144,160,108300,1,0
144,240,108539,1,0
160,272,108659,1,0
240,272,108898,1,2
240,192,109138,5,0
264,176,109258,1,0
288,160,109377,1,0
312,144,109497,1,0
336,128,109617,1,0
416,128,109856,1,0
416,160,109976,1,0
416,240,110215,1,0
416,320,110455,1,0
384,320,110574,1,0
384,240,110814,1,2
384,160,111053,5,0
352,176,111173,1,0
328,192,111293,1,0
304,208,111412,1,0
280,224,111532,1,0
280,304,111772,1,0
256,328,111891,1,0
176,328,112131,1,0
208,256,112370,1,0
240,232,112490,1,0
320,232,112729,1,2
464,272,112969,5,0
464,240,113089,1,0
464,208,113209,1,2
432,208,113328,1,0
432,240,113448,1,0
400,240,113568,1,0
400,208,113687,1,2
368,208,113807,1,0
368,240,113927,1,0
368,272,114047,1,0
400,272,114166,1,2
432,272,114286,1,0
432,304,114406,1,0
400,304,114525,1,0
368,304,114645,1,2
336,304,114765,1,0
336,272,114885,5,0
304,272,115004,1,0
304,304,115124,1,2
272,304,115244,1,0
272,272,115363,1,0
240,272,115483,1,0
240,304,115603,1,2
208,304,115723,1,0
176,304,115842,1,0
176,272,115962,1,0
208,272,116082,1,2
208,240,116201,1,0
176,240,116321,1,0
144,240,116441,1,0
144,272,116561,1,2
144,304,116680,1,0
112,304,116800,5,0
80,304,116920,1,0
48,304,117039,1,2
48,272,117159,1,0
80,272,117279,1,0
112,272,117399,1,0
112,240,117518,1,2
80,240,117638,1,0
48,240,117758,1,0
48,208,117877,1,0
80,208,117997,1,2
80,176,118117,1,0
112,176,118237,1,0
112,208,118356,1,0
144,208,118476,1,2
144,176,118596,1,0
144,144,118715,5,0
144,112,118835,1,0
144,80,118955,1,2
176,80,119074,1,0
208,80,119194,1,0
240,80,119314,1,0
272,80,119434,1,2
272,48,119553,1,0
304,48,119673,1,0
336,48,119793,1,0
368,48,119912,1,2
368,80,120032,1,0
400,80,120152,1,0
400,112,120272,1,0
400,144,120391,1,2
400,176,120511,1,0
400,208,120631,5,0
400,240,120750,1,0
400,272,120870,1,2
400,304,120990,1,0
368,304,121110,1,0
336,304,121229,1,0
336,272,121349,1,2
304,272,121469,1,0
304,304,121588,1,0
272,304,121708,1,0
272,272,121828,1,2
240,272,121948,1,0
240,304,122067,1,0
208,304,122187,1,0
208,272,122307,1,2
208,240,122426,1,4
208,208,122546,5,2
304,208,122786,1,0
304,112,123025,1,0
208,112,123264,1,0
112,112,123504,1,2
112,208,123743,1,0
112,304,123983,1,0
208,304,124222,1,0
304,304,124462,1,2
304,208,124701,1,0
208,208,124940,1,0
208,112,125180,1,0
304,112,125419,1,2
400,112,125659,1,0
400,208,125898,1,0
400,304,126138,1,0
304,304,126377,5,2
304,208,126616,1,0
304,112,126856,1,0
208,112,127095,1,0
208,208,127335,1,2
208,304,127574,1,0
304,304,127814,1,0
304,208,128053,1,0
304,112,128292,5,2
208,112,128532,1,0
112,112,128771,1,0
112,208,129011,1,0
112,304,129250,1,2
208,304,129490,1,0
208,208,129729,1,0
304,208,129968,1,0
256,192,130208,12,6,134039
