osu file format v5

[General]
AudioFilename: 41-last-battle.mp3
AudioLeadIn: 0
PreviewTime: -1
Countdown: 1
SampleSet: Normal
StackLeniency: 0
Mode: 0
LetterboxInBreaks: 1
EditorBookmarks: 57295,74654,113047

[Metadata]
Title:Cackletta Soul Battle
Artist:Yoko Shimomura
Creator:m980
Version:Easy
Source:
Tags:

[Difficulty]
HPDrainRate:2
CircleSize:2
OverallDifficulty:3
SliderMultiplier:1.4
SliderTickRate:2

[Events]
//Background and Video events
0,0,"Cackletta Background.png"
//Break Periods
2,57495,73754
//Storyboard Layer 0 (Background)
//Storyboard Layer 1 (Failing)
//Storyboard Layer 2 (Passing)
//Storyboard Layer 3 (Foreground)
4,3,1,"bym980.png",-100,380 M,1,0,1390,-100,380,480,380 F,0,0,500,0,1 M,2,1890,3390,480,380,480,-300 F,0,5190,5190,1,0
//Storyboard Sound Samples
//Background Colour Transformations
3,100,163,162,255

[TimingPoints]
1397,478.850758180367,4,1,0,29,1

[Colours]
Combo1 : 39,39,39
Combo2 : 122,122,122
Combo3 : 88,86,86
Combo4 : 55,55,55

[HitObjects]
72,320,1875,1,2
128,256,2354,1,2
192,192,2833,1,2
256,128,3312,1,2
256,192,3791,12,2,5706
416,72,6185,5,2
368,144,6664,1,2
320,216,7143,1,2
264,280,7622,6,0,B|198:323|120:272,3,140
80,208,9537,5,2
136,136,10016,1,2
208,88,10495,1,2
288,64,10974,1,2
352,112,11452,5,2
304,184,11931,1,2
232,232,12410,1,2
152,264,12889,1,2
144,176,13368,5,2
216,128,13847,1,2
288,80,14325,1,2
360,32,14804,1,2
424,88,15283,2,2,B|472:160|416:232,2,140
352,128,16720,1,2
272,88,17199,6,0,B|152:96|120:152,1,140
136,216,18156,1,2
208,264,18635,1,2
280,312,19114,6,0,B|352:288|392:200,1,140
344,144,20072,1,2
272,88,20551,1,2
256,192,21029,12,0,23902
120,96,24860,2,2,B|257:36|408:112,3,280
120,280,28691,2,2,B|257:340|408:264,3,280
256,152,32522,5,2
328,96,33001,1,2
256,40,33480,1,2
176,88,33958,1,2
104,136,34437,6,0,B|64:208|96:280,3,140
176,320,36353,6,2,B|256:352|328:328|376:264|400:184,1,280
328,144,37789,1,2
256,200,38268,6,2,B|192:161|176:48,3,140
256,32,40183,6,0,B|318:83|416:32,1,140
384,128,41141,2,2,B|306:161|232:104,1,140
240,200,42099,2,0,B|309:239|400:208,1,140
368,304,43057,2,2,B|298:321|208:272,1,140
144,256,44014,5,0
96,184,44493,1,0
144,112,44972,1,2
216,56,45451,1,2
304,48,45930,1,0
376,96,46408,1,0
416,168,46887,1,2
392,256,47366,1,2
336,328,47845,6,0,B|192:328,6,140
336,56,51676,6,0,B|192:56,8,140
256,88,55985,2,2,B|211:158|211:158|316:156|316:156|256:232,1,280
256,312,57422,1,4
432,176,74661,5,2
376,248,75140,1,2
304,296,75619,1,2
224,328,76098,1,2
160,272,76576,5,2
208,200,77055,1,2
280,152,77534,1,2
360,120,78013,1,2
368,208,78492,5,2
296,256,78971,1,2
224,304,79449,1,2
152,352,79928,1,2
88,296,80407,2,0,B|40:224|96:152,2,140
160,256,81844,1,2
240,296,82323,6,0,B|360:288|392:232,1,140
376,168,83280,1,2
304,120,83759,1,2
232,72,84238,6,0,B|160:96|120:184,1,140
168,240,85196,1,2
240,296,85675,1,2
256,192,86153,12,0,89026
392,288,89984,2,2,B|255:348|104:272,3,280
392,104,93815,2,2,B|255:44|104:120,3,280
256,232,97646,5,2
184,288,98125,1,2
256,344,98604,1,2
336,296,99082,1,2
408,248,99561,6,0,B|448:176|416:104,3,140
336,64,101477,6,2,B|256:32|184:56|136:120|112:200,1,280
184,240,102913,1,2
256,184,103392,6,0,B|320:223|336:336,3,140
256,352,105307,6,0,B|194:301|96:352,1,140
128,256,106265,2,2,B|206:223|280:280,1,140
272,184,107223,2,0,B|203:145|112:176,1,140
144,80,108181,2,2,B|214:63|304:112,1,140
368,128,109138,5,0
416,200,109617,1,0
368,272,110096,1,2
296,328,110575,1,2
208,336,111054,1,0
136,288,111532,1,0
104,208,112011,1,2
136,128,112490,1,2
184,64,112969,6,0,B|328:64,3,140
344,144,114884,1,0
256,144,115363,1,0
168,144,115842,1,0
184,224,116321,1,0
120,280,116800,5,0
192,320,117279,2,0,B|336:320,7,140
256,280,121109,2,2,B|301:210|301:210|196:212|196:212|256:136,1,280
256,56,122546,1,4
256,336,124461,5,2
256,48,126377,5,2
336,192,127334,1,2
176,192,128292,1,2
256,336,129250,1,0
256,192,130207,12,2,134038
