osu file format v5

[General]
AudioFilename: Battle with Smithy.mp3
AudioLeadIn: 0
PreviewTime: -1
Countdown: 0
SampleSet: Normal
StackLeniency: 0.7
Mode: 0
LetterboxInBreaks: 1
EditorBookmarks: 5853,16639,30909,45291,56190,63381,77875,92145,102932

[Metadata]
Title:Battle With Smithy
Artist:Yoko Shimomura
Creator:An64fan
Version:Vs. Smithy
Source:
Tags:Super Mario RPG boss fight

[Difficulty]
HPDrainRate:6
CircleSize:6
OverallDifficulty:7
SliderMultiplier:1.4
SliderTickRate:1

[Events]
//Background and Video events
0,0,"mariorpgbg.png"
//Break Periods
2,14936,15635
2,34726,37224
2,45521,48019
2,63512,69158
2,81503,84001
2,99494,101767
//Storyboard Layer 0 (Background)
//Storyboard Layer 1 (Failing)
//Storyboard Layer 2 (Passing)
//Storyboard Layer 3 (Foreground)
//Storyboard Sound Samples
//Background Colour Transformations
3,100,163,162,255

[TimingPoints]
5741,449.775112443778,4,1,0,45,1,0

[Colours]
Combo1 : 0,159,12
Combo2 : 248,41,41
Combo3 : 1,102,214

[HitObjects]
203,313,5741,1,0
159,217,6078,1,0
147,184,6190,1,0
125,117,6415,1,0
188,87,6640,1,0
188,87,6752,1,0
188,87,6865,1,0
218,150,7090,1,0
282,122,7315,1,0
344,90,7540,5,0
448,92,7877,2,0,B|448:138,1,35
446,162,8102,2,0,B|446:219,1,35
442,266,8439,1,0
422,295,8552,1,0
390,310,8664,1,0
320,318,8889,1,0
250,314,9114,1,0
256,192,9339,12,0,10688
354,60,11138,6,0,B|316:73,3,35
331,104,11588,6,0,B|293:117,3,35
300,150,12037,6,0,B|262:163,3,35
264,196,12487,6,0,B|226:209,3,35,0|2|2|2
256,192,12937,12,4,14736
192,100,16535,5,0
368,213,17210,1,0
184,314,17884,1,0
130,268,18109,1,0
84,320,18334,1,4
154,241,18672,1,0
226,164,19009,1,0
427,104,19684,5,0
427,173,19908,1,0
497,170,20133,1,4
496,64,20471,1,0
391,64,20808,1,0
210,171,21483,5,0
261,123,21708,1,0
315,166,21932,1,4
217,205,22270,1,0
119,243,22607,1,0
328,263,23282,5,0
398,264,23507,1,0
468,264,23732,1,4
468,264,23844,1,4
468,264,23956,1,4
471,123,24406,1,0
275,46,25081,1,0
275,116,25306,1,0
275,46,25531,2,4,B|228:46,2,35
134,45,26205,1,0
22,222,26880,5,2
92,219,27105,1,2
162,219,27330,1,6
162,219,27442,1,6
162,219,27555,1,6
237,336,28004,1,0
424,241,28679,1,2
494,241,28904,1,2
494,170,29129,2,6,B|494:123,2,35
353,172,29803,1,0
142,171,30478,5,2
142,171,30703,1,2
256,192,30928,12,0,34526
389,272,38124,5,0
292,230,38462,1,0
261,212,38574,1,0
275,143,38799,1,0
215,106,39024,1,0
206,72,39136,1,0
199,37,39249,1,0
149,86,39474,1,0
215,106,39699,1,8
212,175,39923,5,0
315,191,40261,1,0
337,217,40373,1,0
284,263,40598,1,0
226,302,40823,1,0
226,302,40935,1,0
226,302,41048,1,8
183,245,41273,2,0,B|225:305,1,70
156,323,41723,5,0
85,245,42060,1,0
99,213,42172,1,0
124,147,42397,1,0
205,177,42622,2,0,B|239:208,1,35
266,228,42847,2,0,B|324:163,1,70
357,121,43297,1,8
398,177,43522,5,0
495,215,43859,2,0,B|495:270,1,35,0|8
493,320,44196,1,0
422,320,44421,1,0
386,319,44534,1,0
351,319,44646,1,0
280,317,44871,1,0
245,316,44983,1,0
209,316,45096,1,8
138,315,45321,1,0
159,327,48919,6,0,B|257:327,1,70
299,327,49369,2,0,B|397:327,1,70
367,256,49818,2,0,B|287:256,1,70
226,255,50268,2,0,B|146:255,1,70
154,184,50718,6,0,B|154:124,2,35
189,184,51055,2,0,B|269:184,1,70
259,148,51393,2,0,B|259:96,2,35
259,183,51730,2,0,B|259:282,1,70
294,253,52067,1,0
364,254,52292,1,0
256,192,52517,12,0,54316
155,58,55890,5,2
183,79,56003,1,2
209,101,56115,2,2,B|229:168|229:168|284:168|284:168|240:198|240:198|256:255|256:255|209:222|209:222|161:251|161:251|179:198|179:198|138:167|138:167|191:167|191:167|204:115,1,560,2|2
204,120,58027,6,0,B|233:93,5,35
264,95,58702,2,0,B|291:124,5,35
351,90,59489,5,2
351,124,59601,1,2
352,159,59714,2,2,B|352:296|352:296|70:295|70:295|70:150,1,560
256,192,61625,12,4,63312
373,312,70058,5,0
425,265,70283,1,0
373,217,70508,1,4
373,217,70621,1,4
373,217,70733,1,4
260,134,71183,1,0
67,216,71857,1,0
137,215,72082,1,0
67,216,72307,2,4,B|67:252,2,35
207,214,72982,1,0
334,47,73657,5,2
385,94,73881,1,2
436,46,74106,1,6
436,46,74219,1,6
436,46,74331,1,6
437,186,74781,1,0
256,292,75456,1,2
210,238,75681,1,2
165,291,75905,2,6,B|139:265,2,35
140,152,76580,1,0
350,154,77255,5,2
350,154,77480,1,2
256,192,77705,12,0,81303
164,239,84901,5,0
268,237,85238,1,0
303,236,85351,1,0
373,235,85576,1,0
371,165,85800,1,0
371,165,85913,1,0
371,165,86025,1,0
300,164,86250,2,0,B|227:164,1,70,0|8
159,166,86700,5,0
159,236,86925,1,0
159,166,87150,1,0
159,95,87375,1,0
207,44,87600,2,0,B|238:79,3,35,0|0|8|0
253,95,88049,2,0,B|284:130,3,35
296,149,88499,5,0
377,215,88836,1,0
403,237,88949,1,0
415,167,89174,1,0
367,115,89399,1,0
332,116,89511,1,0
296,116,89624,1,0
226,116,89848,1,0
190,117,89961,1,0
155,116,90073,1,8
190,176,90298,5,0
294,176,90636,1,0
295,211,90748,1,8
352,251,90973,1,0
299,297,91198,2,0,B|299:347,2,35
228,295,91648,1,0
297,298,91872,1,8
297,227,92097,6,0,B|297:181,1,35
297,156,92322,2,0,B|297:110,1,35
297,85,92547,2,0,B|335:85,1,35
366,89,92772,2,0,B|408:89,1,35
436,91,92997,6,0,B|436:129,1,35
436,161,93222,2,0,B|383:161,1,35
365,162,93447,2,0,B|365:204,1,35
362,232,93672,2,0,B|299:232,1,35
291,231,93896,6,0,B|230:231,1,35
220,231,94121,2,0,B|182:231,1,35
149,232,94346,2,0,B|149:290,1,35
149,302,94571,2,0,B|200:302,1,35
219,302,94796,6,0,B|219:252,1,35
254,270,95021,2,0,B|254:314,1,35
289,304,95246,2,0,B|289:260,3,35
256,192,95696,12,4,99294
256,192,102667,12,4,104691
