osu file format v5

[General]
AudioFilename: Battle with Smithy.mp3
AudioLeadIn: 0
PreviewTime: -1
Countdown: 0
SampleSet: Normal
StackLeniency: 0.7
Mode: 0
LetterboxInBreaks: 1
EditorBookmarks: 5853,16639,30909,45291,56190,63381,77875,92145,102932

[Metadata]
Title:Battle With Smithy
Artist:Yoko Shimomura
Creator:An64fan
Version:Vs. Culex
Source:
Tags:Super Mario RPG boss fight

[Difficulty]
HPDrainRate:6
CircleSize:6
OverallDifficulty:7
SliderMultiplier:1.6
SliderTickRate:1

[Events]
//Background and Video events
0,0,"mariorpgbg.png"
//Break Periods
2,14936,15785
2,34726,37374
2,45521,48169
2,63512,69308
2,81503,84151
2,99494,101917
//Storyboard Layer 0 (Background)
//Storyboard Layer 1 (Failing)
//Storyboard Layer 2 (Passing)
//Storyboard Layer 3 (Foreground)
//Storyboard Sound Samples
//Background Colour Transformations
3,100,163,162,255

[TimingPoints]
5741,449.775112443778,4,1,0,45,1,0

[Colours]
Combo1 : 0,159,12
Combo2 : 248,41,41
Combo3 : 1,102,214

[HitObjects]
119,179,5741,1,0
204,94,6078,1,0
241,108,6190,1,0
316,135,6415,1,0
390,162,6640,1,0
390,162,6752,1,0
390,162,6865,1,0
355,234,7090,1,0
390,162,7315,1,0
443,103,7540,6,0,B|490:109|492:153|472:194,1,80
480,200,7877,1,0
467,238,7989,1,0
443,269,8102,1,0
407,287,8214,1,0
327,293,8439,1,0
367,293,8552,1,0
407,287,8664,1,0
327,293,8889,1,0
247,283,9114,1,0
256,192,9226,12,0,10688
143,104,11138,5,0
143,104,11250,1,0
143,104,11363,1,0
143,104,11475,1,0
182,102,11588,5,0
182,102,11700,1,0
182,102,11812,1,0
182,102,11925,1,0
222,100,12037,5,0
222,100,12150,1,0
222,100,12262,1,0
222,100,12375,1,0
261,96,12487,5,0
261,96,12600,1,2
261,96,12712,1,2
261,96,12824,1,2
256,192,12937,12,4,14736
35,350,16535,5,0
326,139,17210,1,0
35,351,17884,1,0
33,230,18109,1,0
85,121,18334,1,4
375,334,19009,1,0
85,121,19684,5,0
172,202,19908,1,0
85,121,20133,1,4
441,87,20808,1,0
171,325,21483,5,0
262,246,21708,1,0
355,171,21932,1,4
24,29,22607,1,0
355,171,23282,5,0
474,179,23507,1,0
414,283,23732,1,4
414,283,23844,1,0
414,283,23956,1,0
414,283,24069,1,0
414,283,24181,1,0
293,283,24406,1,0
28,38,25081,1,0
28,158,25306,1,0
27,278,25531,1,4
27,278,25643,1,0
27,278,25755,1,0
27,278,25868,1,0
27,278,25980,1,0
147,278,26205,1,0
487,161,26880,5,2
486,40,27105,1,2
365,38,27330,1,6
365,38,27442,1,2
365,38,27555,1,2
365,38,27667,1,2
365,38,27779,1,2
244,38,28004,1,2
50,341,28679,1,2
51,220,28904,1,2
171,220,29129,1,6
171,220,29241,1,6
171,220,29354,1,6
171,220,29466,1,6
171,220,29579,1,6
170,100,29803,1,0
170,100,30478,5,2
170,100,30703,1,2
256,192,30928,12,0,34526
409,75,38124,5,0
334,169,38462,1,0
307,199,38574,1,0
361,140,38799,1,0
290,101,39024,1,0
249,103,39136,2,0,B|202:103,1,40
169,105,39361,1,0
166,145,39474,2,0,B|166:188,1,40
167,225,39699,1,8
246,227,39923,5,0
366,227,40261,1,0
365,266,40373,1,0
298,311,40598,1,0
227,312,40823,1,0
227,312,40935,1,0
227,312,41048,1,8
227,272,41160,2,0,B|184:272,1,40
188,312,41385,2,0,B|140:312,1,40
67,310,41723,5,0
74,190,42060,1,0
101,160,42172,1,0
156,101,42397,1,0
213,157,42622,2,0,B|247:188,1,40
275,206,42847,2,0,B|312:165,1,40
328,146,43072,2,0,B|362:177,1,40
392,193,43297,2,0,B|429:152,1,40,8|0
418,163,43522,5,0
478,59,43859,2,0,B|423:59,1,40,0|8
357,59,44196,1,0
308,122,44421,1,0
267,122,44534,1,0
227,122,44646,1,0
187,122,44758,5,0
187,162,44871,1,0
187,201,44983,1,0
187,241,45096,1,8
187,280,45208,1,0
187,320,45321,1,4
294,325,48919,5,0
232,274,49144,1,0
171,221,49369,1,0
113,165,49594,1,0
57,107,49818,1,0
113,50,50043,1,0
169,107,50268,1,0
228,160,50493,1,0
218,80,50718,5,0
245,109,50830,1,0
275,134,50943,1,0
304,160,51055,1,0
335,184,51168,1,0
366,209,51280,1,0
397,184,51393,1,0
366,158,51505,1,0
334,133,51618,5,0
303,106,51730,1,0
273,78,51842,1,0
244,49,51955,1,0
275,24,52067,1,0
304,51,52180,1,0
333,77,52292,1,0
361,105,52405,1,0
256,192,52517,12,0,54316
178,95,55890,5,2
217,94,56003,1,2
257,97,56115,2,2,B|277:164|277:164|339:164|339:164|287:194|287:194|313:266|313:266|255:218|255:218|194:265|194:265|226:192|226:192|176:163|176:163|239:163|239:163|252:111,1,640
244,145,58027,5,0
244,145,58139,1,0
244,145,58252,1,0
244,145,58364,1,0
281,131,58477,5,0
281,131,58589,1,0
281,131,58702,1,0
281,131,58814,1,0
318,117,58926,5,0
318,117,59039,1,0
318,117,59151,1,0
318,117,59264,1,0
389,80,59489,5,2
416,50,59601,1,2
415,90,59714,2,2,B|415:227|415:227|31:227|31:227|31:357,1,640
70,346,61625,5,0
70,346,61738,1,0
70,346,61850,1,0
70,346,61962,1,0
110,346,62075,5,0
110,346,62187,1,0
110,346,62300,1,0
110,346,62412,1,0
150,346,62525,5,0
150,346,62637,1,0
150,346,62749,1,0
150,346,62862,1,0
189,346,62974,5,0
189,346,63087,1,0
189,346,63199,1,0
189,346,63312,1,4
373,312,70058,5,0
460,230,70283,1,0
371,148,70508,1,4
55,320,71183,1,0
256,21,71857,1,0
376,21,72082,1,0
495,22,72307,1,4
495,22,72420,1,4
495,22,72532,1,4
495,22,72645,1,4
376,157,72982,1,0
18,110,73657,5,2
97,199,73881,1,2
176,109,74106,1,6
492,315,74781,1,0
132,313,75456,1,2
11,314,75681,1,2
11,193,75905,1,6
11,193,76018,1,6
11,193,76130,1,6
11,193,76243,1,6
12,13,76580,1,0
300,229,77255,5,2
300,229,77480,1,2
256,192,77705,12,0,81303
304,272,84901,5,0
423,275,85238,1,0
423,235,85351,1,0
425,154,85576,1,0
345,149,85800,1,0
345,149,85913,1,0
345,149,86025,1,0
264,149,86250,1,0
183,149,86475,1,8
123,201,86700,5,0
206,286,87037,1,0
206,286,87150,1,0
286,286,87375,1,0
366,286,87600,1,0
366,246,87712,1,0
367,206,87824,1,8
407,206,87937,1,0
406,245,88049,1,0
406,285,88162,1,0
445,286,88274,1,0
446,205,88499,5,0
443,85,88836,1,0
411,109,88949,1,0
344,153,89174,1,0
349,73,89399,1,0
308,73,89511,1,0
268,71,89624,1,0
266,151,89848,1,0
305,151,89961,1,0
345,152,90073,1,8
343,232,90298,5,0
462,232,90636,1,0
461,272,90748,1,8
397,321,90973,1,0
317,317,91198,1,0
283,295,91310,1,0
250,271,91423,1,0
250,190,91648,1,0
250,190,91872,1,8
175,160,92097,5,0
191,123,92210,1,0
218,93,92322,1,0
254,76,92435,1,0
293,78,92547,1,0
328,96,92660,1,0
355,125,92772,1,0
371,161,92884,1,0
378,200,92997,6,0,B|347:233,1,40
318,253,93222,2,0,B|264:208,1,40
255,202,93447,2,0,B|224:235,1,40
197,258,93672,2,0,B|143:213,1,40
135,207,93896,5,0
160,176,94009,1,0
186,146,94121,2,0,B|220:111,1,40
243,144,94346,1,0
272,116,94459,1,0
300,88,94571,1,0
329,60,94684,2,0,B|362:25,2,40
356,88,95021,2,0,B|393:120,1,40
417,139,95246,2,0,B|381:181,2,40
450,161,95583,1,0
256,192,95696,12,4,99294
256,192,102667,12,4,104691
