osu file format v5

[General]
AudioFilename: Battle with Smithy.mp3
AudioLeadIn: 0
PreviewTime: -1
Countdown: 0
SampleSet: Normal
StackLeniency: 0.7
Mode: 0
LetterboxInBreaks: 1
EditorBookmarks: 5853,16639,30909,45291,56190,63381,77875,92145,102932

[Metadata]
Title:Battle With Smithy
Artist:Yoko Shimomura
Creator:An64fan
Version:Vs. Croco
Source:
Tags:Super Mario RPG legend of the seven stars boss fight

[Difficulty]
HPDrainRate:2
CircleSize:3
OverallDifficulty:3
SliderMultiplier:1
SliderTickRate:1

[Events]
//Background and Video events
0,0,"mariorpgbg.png"
//Break Periods
2,14936,15095
2,34726,36684
2,45295,47479
2,63512,68618
2,81503,83461
2,95896,101227
//Storyboard Layer 0 (Background)
//Storyboard Layer 1 (Failing)
//Storyboard Layer 2 (Passing)
//Storyboard Layer 3 (Foreground)
//Storyboard Sound Samples
//Background Colour Transformations
3,100,163,162,255

[TimingPoints]
5741,449.775112443778,4,1,0,45,1,0

[Colours]
Combo1 : 0,159,12
Combo2 : 247,43,43
Combo3 : 1,102,214

[HitObjects]
439,302,5740,2,0,B|380:215,1,100
327,135,6640,2,0,B|294:86,2,50
252,202,7540,6,0,B|187:109,1,100
107,169,8439,2,0,B|61:202,2,50
256,192,9114,12,0,10688
242,116,11138,6,0,B|186:144,3,50
222,180,12037,6,0,B|278:154,3,50,0|0|2|2
256,192,12937,12,4,14736
224,284,16535,5,0
331,179,17210,1,0
225,72,17884,2,0,B|134:154,1,100,0|4
247,254,19009,5,0
334,131,19684,2,0,B|414:207,1,100,0|4
318,321,20808,5,0
202,225,21483,2,0,B|162:183,2,50,0|0|4
316,127,22607,1,0
315,277,23282,6,4,B|427:277,1,100,0|4
419,127,24406,1,0
268,127,25081,2,0,B|268:232,1,100,0|4
117,227,26205,1,0
226,124,26880,6,2,B|175:69,2,50,2|2|6
340,221,28004,1,0
443,112,28679,2,6,B|489:153,2,50,2|2|6
340,221,29803,1,0
215,304,30478,6,2,B|168:245,1,50
256,192,30928,12,0,34526
446,105,38124,6,0,B|374:199,1,100
355,224,38799,1,0
323,262,39024,2,0,B|283:310,3,50
247,274,39923,5,0
193,221,40261,2,0,B|254:155,1,75
278,129,40823,2,0,B|236:93,2,50,0|8|0
190,177,41723,5,0
115,172,42060,2,0,B|48:106,1,75
60,69,42622,2,0,B|165:69,1,100,0|0
210,70,43297,1,8
259,72,43522,6,8,B|259:179,1,100,0|8
258,222,44196,1,0
259,272,44421,2,0,B|259:328,3,50,0|0|0|8
120,71,48919,6,0,B|231:117,1,100
172,200,49818,2,0,B|283:246,1,100
325,159,50718,6,0,B|380:182,3,50
358,226,51618,2,0,B|413:249,3,50
256,192,52517,12,0,54316
259,79,55890,6,2,B|282:152|282:152|350:152|350:152|293:189|293:189|316:262|316:262|260:208|260:208|194:256|194:256|221:187|221:187|170:149|170:149|241:149,1,650,2|2
383,164,59489,6,2,B|383:259|383:259|124:259|124:259|124:147,1,450,2|2
256,192,61625,12,4,63312
150,222,70058,6,0,B|229:303,1,100,0|4
339,203,71183,1,0
228,101,71857,2,0,B|147:17,1,100,0|4
35,115,72982,1,0
150,210,73657,6,2,B|242:294,1,100,2|6
332,174,74781,1,0
433,63,75456,2,2,B|476:102,2,50,2|2|6
282,64,76580,1,0
192,184,77255,6,2,B|192:255,1,50
256,192,77705,12,0,81303
130,257,84901,6,0,B|287:257,1,150
330,257,85800,2,0,B|387:257,2,50
329,206,86475,1,8
279,201,86700,6,0,B|279:88,1,100,0|0
228,103,87375,1,0
177,103,87600,2,0,B|177:174,3,50
177,203,88499,6,0,B|283:203,1,100,0|0
366,247,89399,2,0,B|366:132,1,100
367,96,90073,1,8
317,97,90298,6,0,B|215:97,2,100,0|8|0
318,147,91423,2,0,B|318:207,2,50,0|0|8
256,192,92097,12,0,95696
256,192,102667,12,4,104691
