osu file format v12

[General]
AudioFilename: 3d-2-15-All-for-One.mp3
AudioLeadIn: 0
PreviewTime: 37647
Countdown: 1
SampleSet: None
StackLeniency: 0.7
Mode: 3
LetterboxInBreaks: 1
SpecialStyle: 1
WidescreenStoryboard: 0

[Editor]
Bookmarks: 3362
DistanceSpacing: 0.8
BeatDivisor: 4
GridSize: 32
TimelineZoom: 1.800001

[Metadata]
Title:All for One
TitleUnicode:All for One
Artist:Yoko Shimomura
ArtistUnicode:下村陽子
Creator:Hanyuu
Version:8K Another
Source:Kingdom Hearts 3D
Tags:
BeatmapID:385746
BeatmapSetID:157556

[Difficulty]
HPDrainRate:8
CircleSize:8
OverallDifficulty:9
ApproachRate:5
SliderMultiplier:1.4
SliderTickRate:1

[Events]
//Background and Video events
0,0,"kingdom_hearts__dream_drop_distance___wallpaper_by_linxstrife-d5xqts1.png",0,0
//Break Periods
//Storyboard Layer 0 (Background)
//Storyboard Layer 1 (Fail)
//Storyboard Layer 2 (Pass)
//Storyboard Layer 3 (Foreground)
//Storyboard Sound Samples
//Background Colour Transformations
3,100,163,162,255

[TimingPoints]
505,357.142857142857,4,2,0,5,1,0

[HitObjects]
96,192,505,5,0,0:0:0:0:
160,192,505,1,0,0:0:0:0:
416,192,683,1,0,0:0:0:0:
96,192,862,1,0,0:0:0:0:
288,192,862,1,0,0:0:0:0:
480,192,862,1,0,0:0:0:0:
416,192,1040,1,0,0:0:0:0:
224,192,1129,1,0,0:0:0:0:
96,192,1219,1,0,0:0:0:0:
160,192,1219,1,0,0:0:0:0:
416,192,1397,1,0,0:0:0:0:
96,192,1576,1,0,0:0:0:0:
288,192,1576,1,0,0:0:0:0:
352,192,1576,1,0,0:0:0:0:
416,192,1754,1,0,0:0:0:0:
96,192,1933,1,0,0:0:0:0:
160,192,1933,1,0,0:0:0:0:
416,192,2112,1,0,0:0:0:0:
96,192,2290,1,0,0:0:0:0:
288,192,2290,1,0,0:0:0:0:
480,192,2290,1,0,0:0:0:0:
416,192,2469,1,0,0:0:0:0:
224,192,2558,1,0,0:0:0:0:
96,192,2647,1,0,0:0:0:0:
160,192,2647,1,0,0:0:0:0:
96,192,2826,1,0,0:0:0:0:
416,192,2826,1,0,0:0:0:0:
96,192,3004,1,0,0:0:0:0:
288,192,3004,1,0,0:0:0:0:
160,192,3004,1,0,0:0:0:0:
352,192,3004,1,0,0:0:0:0:
224,192,3094,1,0,0:0:0:0:
288,192,3183,1,0,0:0:0:0:
416,192,3272,1,0,0:0:0:0:
480,192,3362,1,0,0:0:0:0:
96,192,3362,1,0,0:0:0:0:
224,192,3451,1,0,0:0:0:0:
352,192,3540,1,0,0:0:0:0:
416,192,3629,1,0,0:0:0:0:
480,192,3719,1,0,0:0:0:0:
96,192,3719,1,0,0:0:0:0:
224,192,3808,1,0,0:0:0:0:
352,192,3897,1,0,0:0:0:0:
416,192,3987,1,0,0:0:0:0:
224,192,3987,1,0,0:0:0:0:
160,192,4076,1,0,0:0:0:0:
96,192,4076,1,0,0:0:0:0:
224,192,4254,1,0,0:0:0:0:
416,192,4344,1,0,0:0:0:0:
352,192,4433,1,0,0:0:0:0:
96,192,4433,1,0,0:0:0:0:
224,192,4433,1,0,0:0:0:0:
160,192,4522,1,0,0:0:0:0:
416,192,4612,1,0,0:0:0:0:
224,192,4612,1,0,0:0:0:0:
288,192,4701,1,0,0:0:0:0:
480,192,4790,1,0,0:0:0:0:
96,192,4790,1,0,0:0:0:0:
352,192,4879,1,0,0:0:0:0:
288,192,4969,1,0,0:0:0:0:
160,192,5058,1,0,0:0:0:0:
416,192,5147,1,0,0:0:0:0:
96,192,5147,1,0,0:0:0:0:
352,192,5237,1,0,0:0:0:0:
288,192,5326,1,0,0:0:0:0:
160,192,5415,1,0,0:0:0:0:
224,192,5415,1,0,0:0:0:0:
480,192,5504,1,0,0:0:0:0:
96,192,5504,1,0,0:0:0:0:
416,192,5594,1,0,0:0:0:0:
288,192,5683,1,0,0:0:0:0:
96,192,5683,1,0,0:0:0:0:
224,192,5772,1,0,0:0:0:0:
352,192,5862,1,0,0:0:0:0:
96,192,5862,1,0,0:0:0:0:
288,192,5951,1,0,0:0:0:0:
224,192,6040,1,0,0:0:0:0:
160,192,6129,1,0,0:0:0:0:
224,192,6219,1,0,0:0:0:0:
416,192,6219,1,0,0:0:0:0:
96,192,6308,1,0,0:0:0:0:
352,192,6308,1,0,0:0:0:0:
224,192,6397,1,0,0:0:0:0:
416,192,6397,1,0,0:0:0:0:
288,192,6487,1,0,0:0:0:0:
480,192,6487,1,0,0:0:0:0:
96,192,6576,1,0,0:0:0:0:
416,192,6576,1,0,0:0:0:0:
160,192,6665,1,0,0:0:0:0:
224,192,6754,1,0,0:0:0:0:
352,192,6754,1,0,0:0:0:0:
288,192,6844,1,0,0:0:0:0:
224,192,6933,1,0,0:0:0:0:
416,192,6933,1,0,0:0:0:0:
96,192,7022,1,0,0:0:0:0:
352,192,7022,1,0,0:0:0:0:
224,192,7111,1,0,0:0:0:0:
416,192,7112,1,0,0:0:0:0:
288,192,7201,1,0,0:0:0:0:
480,192,7201,1,0,0:0:0:0:
96,192,7290,1,0,0:0:0:0:
416,192,7290,1,0,0:0:0:0:
160,192,7379,1,0,0:0:0:0:
224,192,7468,1,0,0:0:0:0:
352,192,7469,1,0,0:0:0:0:
288,192,7558,1,0,0:0:0:0:
160,192,7647,1,0,0:0:0:0:
352,192,7647,1,0,0:0:0:0:
224,192,7737,1,0,0:0:0:0:
416,192,7737,1,0,0:0:0:0:
288,192,7826,1,0,0:0:0:0:
480,192,7826,1,0,0:0:0:0:
224,192,7915,1,0,0:0:0:0:
352,192,7915,1,0,0:0:0:0:
96,192,8004,1,0,0:0:0:0:
224,192,8094,1,0,0:0:0:0:
288,192,8183,1,0,0:0:0:0:
416,192,8183,1,0,0:0:0:0:
160,192,8272,1,0,0:0:0:0:
96,192,8362,1,0,0:0:0:0:
352,192,8362,1,0,0:0:0:0:
160,192,8451,1,0,0:0:0:0:
416,192,8451,1,0,0:0:0:0:
288,192,8540,1,0,0:0:0:0:
480,192,8540,1,0,0:0:0:0:
224,192,8629,1,0,0:0:0:0:
352,192,8629,1,0,0:0:0:0:
96,192,8719,1,0,0:0:0:0:
160,192,8808,1,0,0:0:0:0:
288,192,8897,1,0,0:0:0:0:
416,192,8897,1,0,0:0:0:0:
352,192,8987,1,0,0:0:0:0:
480,192,9076,1,0,0:0:0:0:
96,192,9076,1,0,0:0:0:0:
160,192,9165,1,0,0:0:0:0:
288,192,9254,1,0,0:0:0:0:
352,192,9344,1,0,0:0:0:0:
480,192,9433,1,0,0:0:0:0:
96,192,9433,1,0,0:0:0:0:
160,192,9522,1,0,0:0:0:0:
288,192,9612,1,0,0:0:0:0:
352,192,9701,1,0,0:0:0:0:
224,192,9701,1,0,0:0:0:0:
160,192,9790,1,0,0:0:0:0:
96,192,9790,1,0,0:0:0:0:
224,192,9969,1,0,0:0:0:0:
416,192,10058,1,0,0:0:0:0:
352,192,10147,1,0,0:0:0:0:
96,192,10147,1,0,0:0:0:0:
224,192,10147,1,0,0:0:0:0:
160,192,10237,1,0,0:0:0:0:
416,192,10326,1,0,0:0:0:0:
224,192,10326,1,0,0:0:0:0:
288,192,10415,1,0,0:0:0:0:
480,192,10504,1,0,0:0:0:0:
96,192,10504,1,0,0:0:0:0:
416,192,10594,1,0,0:0:0:0:
288,192,10683,1,0,0:0:0:0:
160,192,10772,1,0,0:0:0:0:
416,192,10862,1,0,0:0:0:0:
96,192,10862,1,0,0:0:0:0:
352,192,10951,1,0,0:0:0:0:
224,192,11040,1,0,0:0:0:0:
160,192,11129,1,0,0:0:0:0:
288,192,11129,1,0,0:0:0:0:
480,192,11219,1,0,0:0:0:0:
96,192,11219,1,0,0:0:0:0:
352,192,11308,1,0,0:0:0:0:
288,192,11397,1,0,0:0:0:0:
96,192,11397,1,0,0:0:0:0:
160,192,11487,1,0,0:0:0:0:
352,192,11576,1,0,0:0:0:0:
96,192,11576,1,0,0:0:0:0:
288,192,11665,1,0,0:0:0:0:
224,192,11754,1,0,0:0:0:0:
160,192,11844,1,0,0:0:0:0:
96,192,11933,1,0,0:0:0:0:
288,192,11933,1,0,0:0:0:0:
416,192,12022,1,0,0:0:0:0:
160,192,12022,1,0,0:0:0:0:
288,192,12112,1,0,0:0:0:0:
224,192,12112,1,0,0:0:0:0:
416,192,12201,1,0,0:0:0:0:
160,192,12201,1,0,0:0:0:0:
288,192,12290,1,0,0:0:0:0:
96,192,12290,1,0,0:0:0:0:
160,192,12379,1,0,0:0:0:0:
416,192,12469,1,0,0:0:0:0:
224,192,12469,1,0,0:0:0:0:
288,192,12558,1,0,0:0:0:0:
352,192,12647,1,0,0:0:0:0:
96,192,12647,1,0,0:0:0:0:
480,192,12737,1,0,0:0:0:0:
224,192,12737,1,0,0:0:0:0:
352,192,12826,1,0,0:0:0:0:
288,192,12826,1,0,0:0:0:0:
480,192,12915,1,0,0:0:0:0:
160,192,12915,1,0,0:0:0:0:
352,192,13004,1,0,0:0:0:0:
96,192,13004,1,0,0:0:0:0:
160,192,13094,1,0,0:0:0:0:
416,192,13183,1,0,0:0:0:0:
224,192,13183,1,0,0:0:0:0:
288,192,13272,1,0,0:0:0:0:
352,192,13362,1,0,0:0:0:0:
160,192,13362,1,0,0:0:0:0:
480,192,13451,1,0,0:0:0:0:
288,192,13451,1,0,0:0:0:0:
352,192,13540,1,0,0:0:0:0:
160,192,13540,1,0,0:0:0:0:
480,192,13629,1,0,0:0:0:0:
288,192,13629,1,0,0:0:0:0:
352,192,13719,1,0,0:0:0:0:
160,192,13719,1,0,0:0:0:0:
224,192,13808,1,0,0:0:0:0:
416,192,13897,1,0,0:0:0:0:
96,192,13897,1,0,0:0:0:0:
224,192,13987,1,0,0:0:0:0:
288,192,14076,1,0,0:0:0:0:
96,192,14076,1,0,0:0:0:0:
416,192,14165,1,0,0:0:0:0:
160,192,14165,1,0,0:0:0:0:
288,192,14254,1,0,0:0:0:0:
224,192,14254,1,0,0:0:0:0:
416,192,14344,1,0,0:0:0:0:
96,192,14344,1,0,0:0:0:0:
288,192,14433,1,0,0:0:0:0:
160,192,14433,1,0,0:0:0:0:
32,192,14433,1,0,0:0:0:0:
416,192,14612,1,0,0:0:0:0:
352,192,14612,1,0,0:0:0:0:
32,192,14790,1,0,0:0:0:0:
288,192,14790,1,0,0:0:0:0:
96,192,14790,1,0,0:0:0:0:
160,192,14879,1,0,0:0:0:0:
224,192,14969,1,0,0:0:0:0:
352,192,15058,1,0,0:0:0:0:
416,192,15147,1,0,0:0:0:0:
96,192,15147,1,0,0:0:0:0:
160,192,15415,1,0,0:0:0:0:
96,192,15504,1,0,0:0:0:0:
480,192,15504,1,0,0:0:0:0:
224,192,15683,1,0,0:0:0:0:
416,192,15683,1,0,0:0:0:0:
288,192,15862,1,0,0:0:0:0:
96,192,15862,1,0,0:0:0:0:
352,192,15862,1,0,0:0:0:0:
352,192,16040,1,0,0:0:0:0:
416,192,16040,1,0,0:0:0:0:
480,192,16219,1,0,0:0:0:0:
96,192,16219,1,0,0:0:0:0:
160,192,16219,1,0,0:0:0:0:
224,192,16397,1,0,0:0:0:0:
416,192,16576,1,0,0:0:0:0:
96,192,16576,1,0,0:0:0:0:
288,192,16576,1,0,0:0:0:0:
352,192,16754,1,0,0:0:0:0:
160,192,16844,1,0,0:0:0:0:
352,192,16933,1,0,0:0:0:0:
96,192,16933,1,0,0:0:0:0:
480,192,16933,1,0,0:0:0:0:
96,192,17112,1,0,0:0:0:0:
416,192,17112,1,0,0:0:0:0:
288,192,17290,1,0,0:0:0:0:
96,192,17290,1,0,0:0:0:0:
352,192,17290,1,0,0:0:0:0:
416,192,17469,1,0,0:0:0:0:
224,192,17647,1,0,0:0:0:0:
96,192,17647,1,0,0:0:0:0:
288,192,17647,1,0,0:0:0:0:
352,192,17826,1,0,0:0:0:0:
96,192,18004,1,0,0:0:0:0:
416,192,18004,1,0,0:0:0:0:
480,192,18183,1,0,0:0:0:0:
160,192,18272,1,0,0:0:0:0:
96,192,18362,1,0,0:0:0:0:
352,192,18362,1,0,0:0:0:0:
288,192,18540,1,0,0:0:0:0:
288,192,18719,1,0,0:0:0:0:
96,192,18719,1,0,0:0:0:0:
224,192,18719,1,0,0:0:0:0:
352,192,18897,1,0,0:0:0:0:
416,192,18897,1,0,0:0:0:0:
416,192,19076,1,0,0:0:0:0:
96,192,19076,1,0,0:0:0:0:
160,192,19076,1,0,0:0:0:0:
224,192,19254,1,0,0:0:0:0:
352,192,19433,1,0,0:0:0:0:
96,192,19433,1,0,0:0:0:0:
288,192,19433,1,0,0:0:0:0:
352,192,19612,1,0,0:0:0:0:
160,192,19701,1,0,0:0:0:0:
288,192,19790,1,0,0:0:0:0:
96,192,19790,1,0,0:0:0:0:
480,192,19790,1,0,0:0:0:0:
96,192,19969,1,0,0:0:0:0:
416,192,19969,1,0,0:0:0:0:
224,192,20147,1,0,0:0:0:0:
96,192,20147,1,0,0:0:0:0:
352,192,20147,1,0,0:0:0:0:
416,192,20326,1,0,0:0:0:0:
160,192,20504,1,0,0:0:0:0:
96,192,20504,1,0,0:0:0:0:
288,192,20504,1,0,0:0:0:0:
352,192,20683,1,0,0:0:0:0:
96,192,20862,1,0,0:0:0:0:
416,192,20862,1,0,0:0:0:0:
480,192,21040,1,0,0:0:0:0:
160,192,21129,1,0,0:0:0:0:
96,192,21219,1,0,0:0:0:0:
416,192,21219,1,0,0:0:0:0:
352,192,21397,1,0,0:0:0:0:
160,192,21576,1,0,0:0:0:0:
96,192,21576,1,0,0:0:0:0:
288,192,21576,1,0,0:0:0:0:
224,192,21754,1,0,0:0:0:0:
352,192,21754,1,0,0:0:0:0:
352,192,21933,1,0,0:0:0:0:
96,192,21933,1,0,0:0:0:0:
288,192,21933,1,0,0:0:0:0:
352,192,22112,1,0,0:0:0:0:
288,192,22290,1,0,0:0:0:0:
96,192,22290,1,0,0:0:0:0:
416,192,22290,1,0,0:0:0:0:
480,192,22469,1,0,0:0:0:0:
160,192,22558,1,0,0:0:0:0:
224,192,22647,1,0,0:0:0:0:
96,192,22647,1,0,0:0:0:0:
416,192,22647,1,0,0:0:0:0:
96,192,22826,1,0,0:0:0:0:
352,192,22826,1,0,0:0:0:0:
160,192,23004,1,0,0:0:0:0:
96,192,23004,1,0,0:0:0:0:
288,192,23004,1,0,0:0:0:0:
352,192,23183,1,0,0:0:0:0:
224,192,23362,1,0,0:0:0:0:
96,192,23362,1,0,0:0:0:0:
288,192,23362,1,0,0:0:0:0:
352,192,23540,1,0,0:0:0:0:
224,192,23540,1,0,0:0:0:0:
96,192,23719,1,0,0:0:0:0:
416,192,23719,1,0,0:0:0:0:
480,192,23897,1,0,0:0:0:0:
224,192,23897,1,0,0:0:0:0:
160,192,23987,1,0,0:0:0:0:
288,192,24076,1,0,0:0:0:0:
96,192,24076,1,0,0:0:0:0:
352,192,24076,1,0,0:0:0:0:
416,192,24254,1,0,0:0:0:0:
224,192,24254,1,0,0:0:0:0:
96,192,24433,1,0,0:0:0:0:
352,192,24433,1,0,0:0:0:0:
480,192,24612,1,0,0:0:0:0:
224,192,24612,1,0,0:0:0:0:
96,192,24790,1,0,0:0:0:0:
160,192,24790,1,0,0:0:0:0:
352,192,24790,1,0,0:0:0:0:
288,192,24879,1,0,0:0:0:0:
352,192,24969,1,0,0:0:0:0:
224,192,24969,1,0,0:0:0:0:
416,192,25058,1,0,0:0:0:0:
96,192,25147,1,0,0:0:0:0:
224,192,25147,1,0,0:0:0:0:
352,192,25237,1,0,0:0:0:0:
416,192,25326,1,0,0:0:0:0:
224,192,25326,1,0,0:0:0:0:
480,192,25415,1,0,0:0:0:0:
160,192,25504,1,0,0:0:0:0:
416,192,25504,1,0,0:0:0:0:
96,192,25504,1,0,0:0:0:0:
288,192,25594,1,0,0:0:0:0:
224,192,25683,1,0,0:0:0:0:
352,192,25683,1,0,0:0:0:0:
416,192,25772,1,0,0:0:0:0:
160,192,25772,1,0,0:0:0:0:
288,192,25862,1,0,0:0:0:0:
96,192,25862,1,0,0:0:0:0:
352,192,25951,1,0,0:0:0:0:
160,192,25951,1,0,0:0:0:0:
416,192,26040,1,0,0:0:0:0:
224,192,26040,1,0,0:0:0:0:
480,192,26129,1,0,0:0:0:0:
288,192,26129,1,0,0:0:0:0:
160,192,26219,1,0,0:0:0:0:
32,192,26219,1,0,0:0:0:0:
96,192,26219,1,0,0:0:0:0:
352,192,26308,1,0,0:0:0:0:
160,192,26397,1,0,0:0:0:0:
224,192,26397,1,0,0:0:0:0:
352,192,26487,1,0,0:0:0:0:
480,192,26576,1,0,0:0:0:0:
96,192,26576,1,0,0:0:0:0:
416,192,26576,1,0,0:0:0:0:
288,192,26754,1,0,0:0:0:0:
224,192,26754,1,0,0:0:0:0:
160,192,26844,1,0,0:0:0:0:
96,192,26933,1,0,0:0:0:0:
352,192,26933,1,0,0:0:0:0:
416,192,27112,1,0,0:0:0:0:
224,192,27112,1,0,0:0:0:0:
96,192,27290,1,0,0:0:0:0:
352,192,27290,1,0,0:0:0:0:
288,192,27290,1,0,0:0:0:0:
288,192,27469,1,0,0:0:0:0:
224,192,27469,1,0,0:0:0:0:
224,192,27647,1,0,0:0:0:0:
96,192,27647,1,0,0:0:0:0:
416,192,27647,1,0,0:0:0:0:
480,192,27826,1,0,0:0:0:0:
352,192,28004,1,0,0:0:0:0:
96,192,28004,1,0,0:0:0:0:
416,192,28004,1,0,0:0:0:0:
480,192,28183,1,0,0:0:0:0:
160,192,28272,1,0,0:0:0:0:
288,192,28362,1,0,0:0:0:0:
96,192,28362,1,0,0:0:0:0:
416,192,28362,1,0,0:0:0:0:
96,192,28540,1,0,0:0:0:0:
480,192,28540,1,0,0:0:0:0:
224,192,28719,1,0,0:0:0:0:
96,192,28719,1,0,0:0:0:0:
288,192,28719,1,0,0:0:0:0:
480,192,28897,1,0,0:0:0:0:
160,192,29076,1,0,0:0:0:0:
96,192,29076,1,0,0:0:0:0:
288,192,29076,1,0,0:0:0:0:
416,192,29254,1,0,0:0:0:0:
96,192,29433,1,0,0:0:0:0:
480,192,29433,1,0,0:0:0:0:
416,192,29612,1,0,0:0:0:0:
160,192,29701,1,0,0:0:0:0:
96,192,29790,1,0,0:0:0:0:
352,192,29790,1,0,0:0:0:0:
224,192,29969,1,0,0:0:0:0:
416,192,29969,1,0,0:0:0:0:
416,192,30147,1,0,0:0:0:0:
96,192,30147,1,0,0:0:0:0:
288,192,30147,1,0,0:0:0:0:
352,192,30326,1,0,0:0:0:0:
416,192,30326,1,0,0:0:0:0:
288,192,30504,1,0,0:0:0:0:
96,192,30504,1,0,0:0:0:0:
224,192,30504,1,0,0:0:0:0:
352,192,30683,1,0,0:0:0:0:
416,192,30862,1,0,0:0:0:0:
96,192,30862,1,0,0:0:0:0:
480,192,30862,1,0,0:0:0:0:
352,192,31040,1,0,0:0:0:0:
160,192,31129,1,0,0:0:0:0:
288,192,31219,1,0,0:0:0:0:
96,192,31219,1,0,0:0:0:0:
352,192,31219,1,0,0:0:0:0:
96,192,31397,1,0,0:0:0:0:
352,192,31397,1,0,0:0:0:0:
224,192,31576,1,0,0:0:0:0:
96,192,31576,1,0,0:0:0:0:
288,192,31576,1,0,0:0:0:0:
352,192,31754,1,0,0:0:0:0:
96,192,31933,1,0,0:0:0:0:
160,192,31933,1,0,0:0:0:0:
352,192,31933,1,0,0:0:0:0:
416,192,31933,1,0,0:0:0:0:
288,192,32112,1,0,0:0:0:0:
96,192,32290,1,0,0:0:0:0:
352,192,32290,1,0,0:0:0:0:
288,192,32469,1,0,0:0:0:0:
160,192,32558,1,0,0:0:0:0:
416,192,32647,1,0,0:0:0:0:
96,192,32647,1,0,0:0:0:0:
160,192,32826,1,0,0:0:0:0:
288,192,32826,1,0,0:0:0:0:
288,192,33004,1,0,0:0:0:0:
96,192,33004,1,0,0:0:0:0:
224,192,33004,1,0,0:0:0:0:
352,192,33183,1,0,0:0:0:0:
288,192,33183,1,0,0:0:0:0:
224,192,33362,1,0,0:0:0:0:
96,192,33362,1,0,0:0:0:0:
288,192,33362,1,0,0:0:0:0:
416,192,33540,1,0,0:0:0:0:
288,192,33719,1,0,0:0:0:0:
96,192,33719,1,0,0:0:0:0:
480,192,33719,1,0,0:0:0:0:
416,192,33897,1,0,0:0:0:0:
160,192,33987,1,0,0:0:0:0:
224,192,34076,1,0,0:0:0:0:
96,192,34076,1,0,0:0:0:0:
352,192,34076,1,0,0:0:0:0:
96,192,34254,1,0,0:0:0:0:
416,192,34254,1,0,0:0:0:0:
160,192,34433,1,0,0:0:0:0:
96,192,34433,1,0,0:0:0:0:
288,192,34433,1,0,0:0:0:0:
416,192,34612,1,0,0:0:0:0:
96,192,34790,1,0,0:0:0:0:
352,192,34969,1,0,0:0:0:0:
480,192,34969,1,0,0:0:0:0:
32,192,34969,1,0,0:0:0:0:
96,192,35147,1,0,0:0:0:0:
224,192,35147,1,0,0:0:0:0:
352,192,35326,1,0,0:0:0:0:
480,192,35326,1,0,0:0:0:0:
32,192,35326,1,0,0:0:0:0:
288,192,35415,1,0,0:0:0:0:
160,192,35504,1,0,0:0:0:0:
96,192,35504,1,0,0:0:0:0:
224,192,35683,1,0,0:0:0:0:
480,192,35683,1,0,0:0:0:0:
32,192,35683,1,0,0:0:0:0:
96,192,35862,1,0,0:0:0:0:
352,192,35862,1,0,0:0:0:0:
224,192,36040,1,0,0:0:0:0:
480,192,36040,1,0,0:0:0:0:
32,192,36040,1,0,0:0:0:0:
288,192,36219,1,0,0:0:0:0:
96,192,36219,1,0,0:0:0:0:
352,192,36397,1,0,0:0:0:0:
160,192,36397,1,0,0:0:0:0:
32,192,36397,1,0,0:0:0:0:
96,192,36576,1,0,0:0:0:0:
288,192,36576,1,0,0:0:0:0:
352,192,36754,1,0,0:0:0:0:
160,192,36754,1,0,0:0:0:0:
32,192,36754,1,0,0:0:0:0:
288,192,36844,1,0,0:0:0:0:
416,192,36933,1,0,0:0:0:0:
96,192,36933,1,0,0:0:0:0:
224,192,36933,1,0,0:0:0:0:
288,192,37022,1,0,0:0:0:0:
224,192,37112,1,0,0:0:0:0:
96,192,37112,1,0,0:0:0:0:
352,192,37112,1,0,0:0:0:0:
416,192,37201,1,0,0:0:0:0:
96,192,37290,1,0,0:0:0:0:
32,192,37290,1,0,0:0:0:0:
480,192,37290,1,0,0:0:0:0:
288,192,37290,1,0,0:0:0:0:
352,192,37379,1,0,0:0:0:0:
224,192,37469,1,0,0:0:0:0:
416,192,37469,1,0,0:0:0:0:
160,192,37469,1,0,0:0:0:0:
480,192,37558,1,0,0:0:0:0:
32,192,37647,1,0,0:0:0:0:
288,192,37647,1,0,0:0:0:0:
96,192,37647,1,0,0:0:0:0:
416,192,37737,1,0,0:0:0:0:
160,192,37737,1,0,0:0:0:0:
480,192,37826,1,0,0:0:0:0:
224,192,37826,1,0,0:0:0:0:
352,192,37915,1,0,0:0:0:0:
160,192,37915,1,0,0:0:0:0:
288,192,38004,1,0,0:0:0:0:
96,192,38004,1,0,0:0:0:0:
416,192,38094,1,0,0:0:0:0:
480,192,38183,1,0,0:0:0:0:
96,192,38183,1,0,0:0:0:0:
352,192,38272,1,0,0:0:0:0:
160,192,38272,1,0,0:0:0:0:
224,192,38362,1,0,0:0:0:0:
96,192,38362,1,0,0:0:0:0:
416,192,38451,1,0,0:0:0:0:
288,192,38540,1,0,0:0:0:0:
160,192,38540,1,0,0:0:0:0:
224,192,38629,1,0,0:0:0:0:
352,192,38719,1,0,0:0:0:0:
96,192,38719,1,0,0:0:0:0:
160,192,38808,1,0,0:0:0:0:
288,192,38808,1,0,0:0:0:0:
416,192,38897,1,0,0:0:0:0:
224,192,38897,1,0,0:0:0:0:
288,192,38987,1,0,0:0:0:0:
352,192,38987,1,0,0:0:0:0:
480,192,39076,1,0,0:0:0:0:
96,192,39076,1,0,0:0:0:0:
416,192,39165,1,0,0:0:0:0:
352,192,39254,1,0,0:0:0:0:
160,192,39254,1,0,0:0:0:0:
224,192,39344,1,0,0:0:0:0:
288,192,39433,1,0,0:0:0:0:
480,192,39433,1,0,0:0:0:0:
224,192,39522,1,0,0:0:0:0:
416,192,39522,1,0,0:0:0:0:
160,192,39612,1,0,0:0:0:0:
288,192,39612,1,0,0:0:0:0:
96,192,39612,1,0,0:0:0:0:
352,192,39701,1,0,0:0:0:0:
480,192,39701,1,0,0:0:0:0:
416,192,39790,1,0,0:0:0:0:
224,192,39790,1,0,0:0:0:0:
352,192,39879,1,0,0:0:0:0:
288,192,39969,1,0,0:0:0:0:
96,192,39969,1,0,0:0:0:0:
160,192,40058,1,0,0:0:0:0:
416,192,40147,1,0,0:0:0:0:
224,192,40147,1,0,0:0:0:0:
288,192,40237,1,0,0:0:0:0:
224,192,40326,1,0,0:0:0:0:
352,192,40326,1,0,0:0:0:0:
160,192,40415,1,0,0:0:0:0:
288,192,40504,1,0,0:0:0:0:
352,192,40504,1,0,0:0:0:0:
32,192,40504,1,0,0:0:0:0:
224,192,40594,1,0,0:0:0:0:
480,192,40594,1,0,0:0:0:0:
160,192,40683,1,0,0:0:0:0:
288,192,40683,1,0,0:0:0:0:
96,192,40772,1,0,0:0:0:0:
416,192,40772,1,0,0:0:0:0:
160,192,40862,1,0,0:0:0:0:
352,192,40862,1,0,0:0:0:0:
224,192,40951,1,0,0:0:0:0:
288,192,41040,1,0,0:0:0:0:
480,192,41040,1,0,0:0:0:0:
352,192,41129,1,0,0:0:0:0:
224,192,41219,1,0,0:0:0:0:
416,192,41219,1,0,0:0:0:0:
32,192,41219,1,0,0:0:0:0:
480,192,41308,1,0,0:0:0:0:
160,192,41397,1,0,0:0:0:0:
352,192,41397,1,0,0:0:0:0:
96,192,41487,1,0,0:0:0:0:
416,192,41487,1,0,0:0:0:0:
160,192,41576,1,0,0:0:0:0:
352,192,41576,1,0,0:0:0:0:
224,192,41665,1,0,0:0:0:0:
288,192,41754,1,0,0:0:0:0:
416,192,41754,1,0,0:0:0:0:
352,192,41844,1,0,0:0:0:0:
224,192,41933,1,0,0:0:0:0:
288,192,41933,1,0,0:0:0:0:
32,192,41933,1,0,0:0:0:0:
416,192,42022,1,0,0:0:0:0:
160,192,42112,1,0,0:0:0:0:
352,192,42112,1,0,0:0:0:0:
96,192,42201,1,0,0:0:0:0:
480,192,42201,1,0,0:0:0:0:
224,192,42290,1,0,0:0:0:0:
416,192,42290,1,0,0:0:0:0:
288,192,42379,1,0,0:0:0:0:
224,192,42469,1,0,0:0:0:0:
480,192,42469,1,0,0:0:0:0:
160,192,42558,1,0,0:0:0:0:
96,192,42647,1,0,0:0:0:0:
352,192,42647,1,0,0:0:0:0:
32,192,42647,1,0,0:0:0:0:
480,192,42737,1,0,0:0:0:0:
160,192,42826,1,0,0:0:0:0:
288,192,42826,1,0,0:0:0:0:
224,192,42915,1,0,0:0:0:0:
416,192,42915,1,0,0:0:0:0:
288,192,43004,1,0,0:0:0:0:
352,192,43004,1,0,0:0:0:0:
224,192,43094,1,0,0:0:0:0:
96,192,43094,1,0,0:0:0:0:
352,192,43183,1,0,0:0:0:0:
480,192,43183,1,0,0:0:0:0:
160,192,43183,1,0,0:0:0:0:
416,192,43272,1,0,0:0:0:0:
224,192,43272,1,0,0:0:0:0:
480,192,43362,1,0,0:0:0:0:
96,192,43362,1,0,0:0:0:0:
352,192,43451,1,0,0:0:0:0:
160,192,43451,1,0,0:0:0:0:
288,192,43540,1,0,0:0:0:0:
224,192,43540,1,0,0:0:0:0:
416,192,43629,1,0,0:0:0:0:
160,192,43629,1,0,0:0:0:0:
480,192,43719,1,0,0:0:0:0:
96,192,43719,1,0,0:0:0:0:
352,192,43808,1,0,0:0:0:0:
160,192,43808,1,0,0:0:0:0:
288,192,43897,1,0,0:0:0:0:
224,192,43897,1,0,0:0:0:0:
416,192,43987,1,0,0:0:0:0:
96,192,43987,1,0,0:0:0:0:
480,192,44076,1,0,0:0:0:0:
224,192,44076,1,0,0:0:0:0:
352,192,44076,1,0,0:0:0:0:
160,192,44165,1,0,0:0:0:0:
288,192,44254,1,0,0:0:0:0:
224,192,44254,1,0,0:0:0:0:
160,192,44344,1,0,0:0:0:0:
352,192,44433,1,0,0:0:0:0:
96,192,44433,1,0,0:0:0:0:
160,192,44522,1,0,0:0:0:0:
416,192,44612,1,0,0:0:0:0:
224,192,44612,1,0,0:0:0:0:
96,192,44701,1,0,0:0:0:0:
480,192,44790,1,0,0:0:0:0:
160,192,44790,1,0,0:0:0:0:
416,192,44879,1,0,0:0:0:0:
352,192,44969,1,0,0:0:0:0:
224,192,44969,1,0,0:0:0:0:
288,192,45058,1,0,0:0:0:0:
160,192,45058,1,0,0:0:0:0:
416,192,45147,1,0,0:0:0:0:
96,192,45147,1,0,0:0:0:0:
352,192,45237,1,0,0:0:0:0:
160,192,45237,1,0,0:0:0:0:
224,192,45326,1,0,0:0:0:0:
96,192,45326,1,0,0:0:0:0:
160,192,45415,1,0,0:0:0:0:
416,192,45504,1,0,0:0:0:0:
480,192,45504,1,0,0:0:0:0:
288,192,45594,1,0,0:0:0:0:
352,192,45594,1,0,0:0:0:0:
224,192,45683,1,0,0:0:0:0:
480,192,45683,1,0,0:0:0:0:
160,192,45772,1,0,0:0:0:0:
416,192,45772,1,0,0:0:0:0:
224,192,45862,1,0,0:0:0:0:
352,192,45862,1,0,0:0:0:0:
288,192,45951,1,0,0:0:0:0:
480,192,45951,1,0,0:0:0:0:
224,192,46040,1,0,0:0:0:0:
416,192,46040,1,0,0:0:0:0:
160,192,46129,1,0,0:0:0:0:
352,192,46129,1,0,0:0:0:0:
288,192,46219,1,0,0:0:0:0:
96,192,46219,1,0,0:0:0:0:
32,192,46219,1,0,0:0:0:0:
416,192,46308,1,0,0:0:0:0:
224,192,46308,1,0,0:0:0:0:
288,192,46397,1,0,0:0:0:0:
96,192,46397,1,0,0:0:0:0:
416,192,46487,1,0,0:0:0:0:
224,192,46487,1,0,0:0:0:0:
288,192,46576,1,0,0:0:0:0:
96,192,46576,1,0,0:0:0:0:
160,192,46665,1,0,0:0:0:0:
352,192,46754,1,0,0:0:0:0:
224,192,46754,1,0,0:0:0:0:
288,192,46844,1,0,0:0:0:0:
352,192,46933,1,0,0:0:0:0:
160,192,46933,1,0,0:0:0:0:
32,192,46933,1,0,0:0:0:0:
480,192,47022,1,0,0:0:0:0:
96,192,47022,1,0,0:0:0:0:
352,192,47112,1,0,0:0:0:0:
224,192,47112,1,0,0:0:0:0:
480,192,47201,1,0,0:0:0:0:
160,192,47201,1,0,0:0:0:0:
352,192,47290,1,0,0:0:0:0:
96,192,47290,1,0,0:0:0:0:
224,192,47379,1,0,0:0:0:0:
352,192,47468,1,0,0:0:0:0:
160,192,47469,1,0,0:0:0:0:
224,192,47558,1,0,0:0:0:0:
288,192,47647,1,0,0:0:0:0:
160,192,47647,1,0,0:0:0:0:
32,192,47647,1,0,0:0:0:0:
416,192,47736,1,0,0:0:0:0:
224,192,47737,1,0,0:0:0:0:
288,192,47825,1,0,0:0:0:0:
160,192,47826,1,0,0:0:0:0:
416,192,47915,1,0,0:0:0:0:
96,192,47915,1,0,0:0:0:0:
288,192,48004,1,0,0:0:0:0:
160,192,48004,1,0,0:0:0:0:
224,192,48094,1,0,0:0:0:0:
352,192,48182,1,0,0:0:0:0:
160,192,48183,1,0,0:0:0:0:
96,192,48272,1,0,0:0:0:0:
352,192,48362,1,0,0:0:0:0:
224,192,48362,1,0,0:0:0:0:
32,192,48362,1,0,0:0:0:0:
480,192,48451,1,0,0:0:0:0:
288,192,48451,1,0,0:0:0:0:
352,192,48540,1,0,0:0:0:0:
224,192,48540,1,0,0:0:0:0:
480,192,48629,1,0,0:0:0:0:
288,192,48629,1,0,0:0:0:0:
352,192,48719,1,0,0:0:0:0:
96,192,48719,1,0,0:0:0:0:
32,192,48719,1,0,0:0:0:0:
160,192,48808,1,0,0:0:0:0:
416,192,48808,1,0,0:0:0:0:
352,192,48897,1,0,0:0:0:0:
224,192,48897,1,0,0:0:0:0:
288,192,48987,1,0,0:0:0:0:
416,192,48987,1,0,0:0:0:0:
32,192,49076,1,0,0:0:0:0:
352,192,49076,1,0,0:0:0:0:
480,192,49076,128,0,50504:0:0:0:0:
160,192,49254,1,0,0:0:0:0:
224,192,49433,1,0,0:0:0:0:
32,192,49612,1,0,0:0:0:0:
160,192,49790,1,0,0:0:0:0:
224,192,49969,1,0,0:0:0:0:
32,192,50147,1,0,0:0:0:0:
160,192,50326,1,0,0:0:0:0:
224,192,50504,1,0,0:0:0:0:
416,192,50504,128,0,51219:0:0:0:0:
32,192,50683,1,0,0:0:0:0:
160,192,50862,1,0,0:0:0:0:
224,192,51040,1,0,0:0:0:0:
32,192,51219,1,0,0:0:0:0:
160,192,51219,1,0,0:0:0:0:
352,192,51219,128,0,51933:0:0:0:0:
288,192,51397,1,0,0:0:0:0:
32,192,51576,1,0,0:0:0:0:
224,192,51576,1,0,0:0:0:0:
160,192,51754,1,0,0:0:0:0:
32,192,51933,1,0,0:0:0:0:
288,192,51933,128,0,53362:0:0:0:0:
96,192,52112,1,0,0:0:0:0:
160,192,52290,1,0,0:0:0:0:
32,192,52469,1,0,0:0:0:0:
96,192,52647,1,0,0:0:0:0:
160,192,52826,1,0,0:0:0:0:
32,192,53004,1,0,0:0:0:0:
96,192,53183,1,0,0:0:0:0:
160,192,53362,1,0,0:0:0:0:
416,192,53362,128,0,54076:0:0:0:0:
32,192,53540,1,0,0:0:0:0:
96,192,53719,1,0,0:0:0:0:
160,192,53897,1,0,0:0:0:0:
32,192,54076,1,0,0:0:0:0:
96,192,54076,1,0,0:0:0:0:
352,192,54076,128,0,54790:0:0:0:0:
224,192,54254,1,0,0:0:0:0:
32,192,54433,1,0,0:0:0:0:
160,192,54433,1,0,0:0:0:0:
224,192,54612,1,0,0:0:0:0:
32,192,54790,1,0,0:0:0:0:
288,192,54790,128,0,55862:0:0:0:0:
224,192,54969,1,0,0:0:0:0:
96,192,55147,1,0,0:0:0:0:
32,192,55326,1,0,0:0:0:0:
224,192,55505,1,0,0:0:0:0:
160,192,55683,1,0,0:0:0:0:
32,192,55861,1,0,0:0:0:0:
96,192,56040,1,0,0:0:0:0:
224,192,56219,1,0,0:0:0:0:
416,192,56219,128,0,56933:0:0:0:0:
32,192,56397,1,0,0:0:0:0:
160,192,56576,1,0,0:0:0:0:
224,192,56754,1,0,0:0:0:0:
32,192,56933,1,0,0:0:0:0:
160,192,56933,1,0,0:0:0:0:
480,192,56933,128,0,57647:0:0:0:0:
224,192,57112,1,0,0:0:0:0:
32,192,57290,1,0,0:0:0:0:
288,192,57291,1,0,0:0:0:0:
224,192,57469,1,0,0:0:0:0:
32,192,57647,1,0,0:0:0:0:
352,192,57647,128,0,58362:0:0:0:0:
96,192,57826,1,0,0:0:0:0:
160,192,58004,1,0,0:0:0:0:
32,192,58183,1,0,0:0:0:0:
96,192,58362,1,0,0:0:0:0:
160,192,58540,1,0,0:0:0:0:
32,192,58718,1,0,0:0:0:0:
416,192,58719,1,0,0:0:0:0:
352,192,58897,1,0,0:0:0:0:
96,192,58897,1,0,0:0:0:0:
160,192,59076,1,0,0:0:0:0:
288,192,59076,128,0,60147:0:0:0:0:
32,192,59254,1,0,0:0:0:0:
96,192,59433,1,0,0:0:0:0:
160,192,59612,1,0,0:0:0:0:
32,192,59790,1,0,0:0:0:0:
96,192,59790,1,0,0:0:0:0:
160,192,59969,1,0,0:0:0:0:
32,192,60147,1,0,0:0:0:0:
224,192,60147,1,0,0:0:0:0:
160,192,60326,1,0,0:0:0:0:
32,192,60504,1,0,0:0:0:0:
288,192,60683,1,0,0:0:0:0:
96,192,60683,1,0,0:0:0:0:
416,192,60772,1,0,0:0:0:0:
480,192,60862,1,0,0:0:0:0:
224,192,60862,1,0,0:0:0:0:
288,192,61040,1,0,0:0:0:0:
416,192,61219,1,0,0:0:0:0:
96,192,61219,1,0,0:0:0:0:
480,192,61397,1,0,0:0:0:0:
224,192,61397,1,0,0:0:0:0:
352,192,61576,1,0,0:0:0:0:
416,192,61754,1,0,0:0:0:0:
160,192,61754,1,0,0:0:0:0:
224,192,61933,1,0,0:0:0:0:
32,192,61933,1,0,0:0:0:0:
288,192,62112,1,0,0:0:0:0:
416,192,62201,1,0,0:0:0:0:
96,192,62290,1,0,0:0:0:0:
480,192,62291,1,0,0:0:0:0:
288,192,62469,1,0,0:0:0:0:
224,192,62469,1,0,0:0:0:0:
160,192,62647,1,0,0:0:0:0:
416,192,62648,1,0,0:0:0:0:
480,192,62826,1,0,0:0:0:0:
96,192,62826,1,0,0:0:0:0:
160,192,63004,1,0,0:0:0:0:
352,192,63005,1,0,0:0:0:0:
416,192,63183,1,0,0:0:0:0:
224,192,63183,1,0,0:0:0:0:
32,192,63362,1,0,0:0:0:0:
224,192,63540,1,0,0:0:0:0:
96,192,63540,1,0,0:0:0:0:
352,192,63629,1,0,0:0:0:0:
416,192,63719,1,0,0:0:0:0:
160,192,63719,1,0,0:0:0:0:
224,192,63897,1,0,0:0:0:0:
352,192,64076,1,0,0:0:0:0:
96,192,64076,1,0,0:0:0:0:
416,192,64254,1,0,0:0:0:0:
160,192,64254,1,0,0:0:0:0:
288,192,64433,1,0,0:0:0:0:
352,192,64612,1,0,0:0:0:0:
96,192,64612,1,0,0:0:0:0:
160,192,64790,1,0,0:0:0:0:
32,192,64790,1,0,0:0:0:0:
224,192,64969,1,0,0:0:0:0:
288,192,65058,1,0,0:0:0:0:
416,192,65147,1,0,0:0:0:0:
96,192,65147,1,0,0:0:0:0:
352,192,65326,1,0,0:0:0:0:
224,192,65326,1,0,0:0:0:0:
480,192,65504,1,0,0:0:0:0:
160,192,65504,1,0,0:0:0:0:
416,192,65683,1,0,0:0:0:0:
96,192,65683,1,0,0:0:0:0:
288,192,65862,1,0,0:0:0:0:
160,192,65862,1,0,0:0:0:0:
224,192,66040,1,0,0:0:0:0:
96,192,66040,1,0,0:0:0:0:
32,192,66219,1,0,0:0:0:0:
96,192,66398,1,0,0:0:0:0:
288,192,66398,1,0,0:0:0:0:
416,192,66487,1,0,0:0:0:0:
224,192,66577,1,0,0:0:0:0:
480,192,66577,1,0,0:0:0:0:
288,192,66755,1,0,0:0:0:0:
416,192,66934,1,0,0:0:0:0:
96,192,66934,1,0,0:0:0:0:
480,192,67112,1,0,0:0:0:0:
224,192,67112,1,0,0:0:0:0:
352,192,67291,1,0,0:0:0:0:
160,192,67469,1,0,0:0:0:0:
416,192,67469,1,0,0:0:0:0:
32,192,67647,1,0,0:0:0:0:
224,192,67648,1,0,0:0:0:0:
288,192,67827,1,0,0:0:0:0:
416,192,67916,1,0,0:0:0:0:
96,192,68005,1,0,0:0:0:0:
480,192,68006,1,0,0:0:0:0:
288,192,68184,1,0,0:0:0:0:
224,192,68184,1,0,0:0:0:0:
160,192,68362,1,0,0:0:0:0:
416,192,68363,1,0,0:0:0:0:
480,192,68541,1,0,0:0:0:0:
96,192,68541,1,0,0:0:0:0:
160,192,68719,1,0,0:0:0:0:
352,192,68720,1,0,0:0:0:0:
416,192,68898,1,0,0:0:0:0:
224,192,68898,1,0,0:0:0:0:
32,192,69077,1,0,0:0:0:0:
224,192,69255,1,0,0:0:0:0:
96,192,69255,1,0,0:0:0:0:
352,192,69344,1,0,0:0:0:0:
416,192,69434,1,0,0:0:0:0:
160,192,69434,1,0,0:0:0:0:
224,192,69612,1,0,0:0:0:0:
96,192,69791,1,0,0:0:0:0:
352,192,69791,1,0,0:0:0:0:
160,192,69969,1,0,0:0:0:0:
416,192,69969,1,0,0:0:0:0:
288,192,70148,1,0,0:0:0:0:
160,192,70326,1,0,0:0:0:0:
352,192,70327,1,0,0:0:0:0:
224,192,70504,1,0,0:0:0:0:
96,192,70504,1,0,0:0:0:0:
32,192,70504,1,0,0:0:0:0:
288,192,70683,1,0,0:0:0:0:
352,192,70772,1,0,0:0:0:0:
160,192,70862,1,0,0:0:0:0:
480,192,70862,1,0,0:0:0:0:
96,192,70862,1,0,0:0:0:0:
288,192,71040,1,0,0:0:0:0:
416,192,71040,1,0,0:0:0:0:
224,192,71219,1,0,0:0:0:0:
480,192,71219,1,0,0:0:0:0:
96,192,71219,1,0,0:0:0:0:
160,192,71397,1,0,0:0:0:0:
416,192,71398,1,0,0:0:0:0:
352,192,71576,1,0,0:0:0:0:
96,192,71576,1,0,0:0:0:0:
224,192,71665,1,0,0:0:0:0:
160,192,71754,1,0,0:0:0:0:
416,192,71754,1,0,0:0:0:0:
288,192,71754,1,0,0:0:0:0:
352,192,71844,1,0,0:0:0:0:
32,192,71933,1,0,0:0:0:0:
416,192,71933,1,0,0:0:0:0:
480,192,71933,1,0,0:0:0:0:
96,192,71933,1,0,0:0:0:0:
224,192,72022,1,0,0:0:0:0:
352,192,72111,1,0,0:0:0:0:
416,192,72200,1,0,0:0:0:0:
96,192,72290,1,0,0:0:0:0:
480,192,72290,1,0,0:0:0:0:
224,192,72379,1,0,0:0:0:0:
352,192,72468,1,0,0:0:0:0:
416,192,72558,1,0,0:0:0:0:
224,192,72558,1,0,0:0:0:0:
96,192,72647,1,0,0:0:0:0:
160,192,72647,1,0,0:0:0:0:
224,192,72825,1,0,0:0:0:0:
416,192,72915,1,0,0:0:0:0:
352,192,73004,1,0,0:0:0:0:
96,192,73004,1,0,0:0:0:0:
224,192,73004,1,0,0:0:0:0:
160,192,73093,1,0,0:0:0:0:
224,192,73183,1,0,0:0:0:0:
416,192,73183,1,0,0:0:0:0:
288,192,73272,1,0,0:0:0:0:
480,192,73361,1,0,0:0:0:0:
96,192,73361,1,0,0:0:0:0:
352,192,73450,1,0,0:0:0:0:
288,192,73540,1,0,0:0:0:0:
160,192,73629,1,0,0:0:0:0:
416,192,73718,1,0,0:0:0:0:
96,192,73718,1,0,0:0:0:0:
352,192,73808,1,0,0:0:0:0:
288,192,73897,1,0,0:0:0:0:
224,192,73986,1,0,0:0:0:0:
160,192,73986,1,0,0:0:0:0:
480,192,74075,1,0,0:0:0:0:
96,192,74075,1,0,0:0:0:0:
416,192,74165,1,0,0:0:0:0:
96,192,74254,1,0,0:0:0:0:
288,192,74254,1,0,0:0:0:0:
224,192,74343,1,0,0:0:0:0:
352,192,74433,1,0,0:0:0:0:
96,192,74433,1,0,0:0:0:0:
288,192,74522,1,0,0:0:0:0:
224,192,74611,1,0,0:0:0:0:
160,192,74700,1,0,0:0:0:0:
416,192,74790,1,0,0:0:0:0:
224,192,74790,1,0,0:0:0:0:
96,192,74879,1,0,0:0:0:0:
352,192,74879,1,0,0:0:0:0:
416,192,74968,1,0,0:0:0:0:
224,192,74968,1,0,0:0:0:0:
480,192,75058,1,0,0:0:0:0:
288,192,75058,1,0,0:0:0:0:
96,192,75147,1,0,0:0:0:0:
416,192,75147,1,0,0:0:0:0:
160,192,75236,1,0,0:0:0:0:
224,192,75325,1,0,0:0:0:0:
352,192,75325,1,0,0:0:0:0:
288,192,75415,1,0,0:0:0:0:
224,192,75504,1,0,0:0:0:0:
416,192,75504,1,0,0:0:0:0:
96,192,75593,1,0,0:0:0:0:
352,192,75593,1,0,0:0:0:0:
224,192,75682,1,0,0:0:0:0:
416,192,75683,1,0,0:0:0:0:
480,192,75772,1,0,0:0:0:0:
288,192,75772,1,0,0:0:0:0:
96,192,75861,1,0,0:0:0:0:
416,192,75861,1,0,0:0:0:0:
160,192,75950,1,0,0:0:0:0:
224,192,76039,1,0,0:0:0:0:
352,192,76040,1,0,0:0:0:0:
288,192,76129,1,0,0:0:0:0:
352,192,76218,1,0,0:0:0:0:
160,192,76218,1,0,0:0:0:0:
416,192,76308,1,0,0:0:0:0:
224,192,76308,1,0,0:0:0:0:
480,192,76397,1,0,0:0:0:0:
288,192,76397,1,0,0:0:0:0:
224,192,76486,1,0,0:0:0:0:
352,192,76486,1,0,0:0:0:0:
96,192,76575,1,0,0:0:0:0:
224,192,76665,1,0,0:0:0:0:
288,192,76754,1,0,0:0:0:0:
416,192,76754,1,0,0:0:0:0:
160,192,76843,1,0,0:0:0:0:
96,192,76933,1,0,0:0:0:0:
352,192,76933,1,0,0:0:0:0:
416,192,77022,1,0,0:0:0:0:
160,192,77022,1,0,0:0:0:0:
288,192,77111,1,0,0:0:0:0:
480,192,77111,1,0,0:0:0:0:
224,192,77200,1,0,0:0:0:0:
352,192,77200,1,0,0:0:0:0:
96,192,77290,1,0,0:0:0:0:
160,192,77379,1,0,0:0:0:0:
288,192,77468,1,0,0:0:0:0:
416,192,77468,1,0,0:0:0:0:
352,192,77558,1,0,0:0:0:0:
480,192,77647,1,0,0:0:0:0:
96,192,77647,1,0,0:0:0:0:
160,192,77736,1,0,0:0:0:0:
288,192,77825,1,0,0:0:0:0:
352,192,77915,1,0,0:0:0:0:
96,192,78004,1,0,0:0:0:0:
480,192,78004,1,0,0:0:0:0:
160,192,78093,1,0,0:0:0:0:
288,192,78183,1,0,0:0:0:0:
224,192,78272,1,0,0:0:0:0:
352,192,78272,1,0,0:0:0:0:
160,192,78361,1,0,0:0:0:0:
96,192,78361,1,0,0:0:0:0:
224,192,78540,1,0,0:0:0:0:
416,192,78629,1,0,0:0:0:0:
224,192,78718,1,0,0:0:0:0:
96,192,78718,1,0,0:0:0:0:
352,192,78718,1,0,0:0:0:0:
160,192,78808,1,0,0:0:0:0:
416,192,78897,1,0,0:0:0:0:
224,192,78897,1,0,0:0:0:0:
288,192,78986,1,0,0:0:0:0:
96,192,79075,1,0,0:0:0:0:
480,192,79075,1,0,0:0:0:0:
416,192,79165,1,0,0:0:0:0:
288,192,79254,1,0,0:0:0:0:
160,192,79343,1,0,0:0:0:0:
96,192,79433,1,0,0:0:0:0:
416,192,79433,1,0,0:0:0:0:
352,192,79522,1,0,0:0:0:0:
224,192,79611,1,0,0:0:0:0:
160,192,79700,1,0,0:0:0:0:
288,192,79700,1,0,0:0:0:0:
96,192,79790,1,0,0:0:0:0:
480,192,79790,1,0,0:0:0:0:
352,192,79879,1,0,0:0:0:0:
96,192,79968,1,0,0:0:0:0:
288,192,79968,1,0,0:0:0:0:
160,192,80058,1,0,0:0:0:0:
352,192,80147,1,0,0:0:0:0:
96,192,80147,1,0,0:0:0:0:
288,192,80236,1,0,0:0:0:0:
224,192,80325,1,0,0:0:0:0:
160,192,80415,1,0,0:0:0:0:
288,192,80504,1,0,0:0:0:0:
96,192,80504,1,0,0:0:0:0:
416,192,80593,1,0,0:0:0:0:
160,192,80593,1,0,0:0:0:0:
288,192,80683,1,0,0:0:0:0:
224,192,80683,1,0,0:0:0:0:
160,192,80772,1,0,0:0:0:0:
416,192,80772,1,0,0:0:0:0:
288,192,80861,1,0,0:0:0:0:
96,192,80861,1,0,0:0:0:0:
160,192,80950,1,0,0:0:0:0:
224,192,81040,1,0,0:0:0:0:
416,192,81040,1,0,0:0:0:0:
288,192,81129,1,0,0:0:0:0:
352,192,81218,1,0,0:0:0:0:
96,192,81218,1,0,0:0:0:0:
224,192,81308,1,0,0:0:0:0:
480,192,81308,1,0,0:0:0:0:
288,192,81397,1,0,0:0:0:0:
352,192,81397,1,0,0:0:0:0:
480,192,81486,1,0,0:0:0:0:
160,192,81486,1,0,0:0:0:0:
96,192,81575,1,0,0:0:0:0:
352,192,81575,1,0,0:0:0:0:
160,192,81665,1,0,0:0:0:0:
416,192,81754,1,0,0:0:0:0:
224,192,81754,1,0,0:0:0:0:
288,192,81843,1,0,0:0:0:0:
160,192,81933,1,0,0:0:0:0:
352,192,81933,1,0,0:0:0:0:
480,192,82022,1,0,0:0:0:0:
288,192,82022,1,0,0:0:0:0:
352,192,82111,1,0,0:0:0:0:
160,192,82111,1,0,0:0:0:0:
288,192,82200,1,0,0:0:0:0:
480,192,82200,1,0,0:0:0:0:
352,192,82290,1,0,0:0:0:0:
160,192,82290,1,0,0:0:0:0:
224,192,82379,1,0,0:0:0:0:
96,192,82468,1,0,0:0:0:0:
416,192,82468,1,0,0:0:0:0:
224,192,82558,1,0,0:0:0:0:
96,192,82647,1,0,0:0:0:0:
288,192,82647,1,0,0:0:0:0:
160,192,82736,1,0,0:0:0:0:
416,192,82736,1,0,0:0:0:0:
288,192,82825,1,0,0:0:0:0:
224,192,82825,1,0,0:0:0:0:
416,192,82915,1,0,0:0:0:0:
96,192,82915,1,0,0:0:0:0:
32,192,83004,1,0,0:0:0:0:
160,192,83004,1,0,0:0:0:0:
288,192,83004,1,0,0:0:0:0:
352,192,83183,1,0,0:0:0:0:
416,192,83183,1,0,0:0:0:0:
96,192,83361,1,0,0:0:0:0:
288,192,83361,1,0,0:0:0:0:
32,192,83361,1,0,0:0:0:0:
160,192,83450,1,0,0:0:0:0:
224,192,83540,1,0,0:0:0:0:
352,192,83629,1,0,0:0:0:0:
96,192,83718,1,0,0:0:0:0:
416,192,83718,1,0,0:0:0:0:
160,192,83986,1,0,0:0:0:0:
96,192,84075,1,0,0:0:0:0:
480,192,84075,1,0,0:0:0:0:
416,192,84254,1,0,0:0:0:0:
224,192,84254,1,0,0:0:0:0:
96,192,84433,1,0,0:0:0:0:
352,192,84433,1,0,0:0:0:0:
288,192,84433,1,0,0:0:0:0:
416,192,84611,1,0,0:0:0:0:
352,192,84611,1,0,0:0:0:0:
160,192,84790,1,0,0:0:0:0:
96,192,84790,1,0,0:0:0:0:
480,192,84790,1,0,0:0:0:0:
224,192,84968,1,0,0:0:0:0:
96,192,85147,1,0,0:0:0:0:
416,192,85147,1,0,0:0:0:0:
288,192,85147,1,0,0:0:0:0:
352,192,85325,1,0,0:0:0:0:
160,192,85415,1,0,0:0:0:0:
480,192,85504,1,0,0:0:0:0:
96,192,85504,1,0,0:0:0:0:
352,192,85504,1,0,0:0:0:0:
416,192,85683,1,0,0:0:0:0:
96,192,85683,1,0,0:0:0:0:
288,192,85861,1,0,0:0:0:0:
96,192,85861,1,0,0:0:0:0:
352,192,85861,1,0,0:0:0:0:
416,192,86040,1,0,0:0:0:0:
224,192,86218,1,0,0:0:0:0:
288,192,86218,1,0,0:0:0:0:
96,192,86218,1,0,0:0:0:0:
352,192,86397,1,0,0:0:0:0:
96,192,86575,1,0,0:0:0:0:
416,192,86575,1,0,0:0:0:0:
480,192,86754,1,0,0:0:0:0:
160,192,86843,1,0,0:0:0:0:
352,192,86933,1,0,0:0:0:0:
96,192,86933,1,0,0:0:0:0:
288,192,87111,1,0,0:0:0:0:
224,192,87290,1,0,0:0:0:0:
288,192,87290,1,0,0:0:0:0:
96,192,87290,1,0,0:0:0:0:
416,192,87468,1,0,0:0:0:0:
352,192,87468,1,0,0:0:0:0:
416,192,87647,1,0,0:0:0:0:
96,192,87647,1,0,0:0:0:0:
160,192,87647,1,0,0:0:0:0:
224,192,87825,1,0,0:0:0:0:
288,192,88004,1,0,0:0:0:0:
352,192,88004,1,0,0:0:0:0:
96,192,88004,1,0,0:0:0:0:
352,192,88183,1,0,0:0:0:0:
160,192,88272,1,0,0:0:0:0:
480,192,88361,1,0,0:0:0:0:
96,192,88361,1,0,0:0:0:0:
288,192,88361,1,0,0:0:0:0:
96,192,88540,1,0,0:0:0:0:
416,192,88540,1,0,0:0:0:0:
352,192,88718,1,0,0:0:0:0:
96,192,88718,1,0,0:0:0:0:
224,192,88718,1,0,0:0:0:0:
416,192,88897,1,0,0:0:0:0:
96,192,89075,1,0,0:0:0:0:
160,192,89075,1,0,0:0:0:0:
288,192,89075,1,0,0:0:0:0:
352,192,89254,1,0,0:0:0:0:
416,192,89433,1,0,0:0:0:0:
96,192,89433,1,0,0:0:0:0:
480,192,89611,1,0,0:0:0:0:
160,192,89700,1,0,0:0:0:0:
416,192,89790,1,0,0:0:0:0:
96,192,89790,1,0,0:0:0:0:
352,192,89968,1,0,0:0:0:0:
288,192,90147,1,0,0:0:0:0:
96,192,90147,1,0,0:0:0:0:
160,192,90147,1,0,0:0:0:0:
352,192,90325,1,0,0:0:0:0:
224,192,90325,1,0,0:0:0:0:
96,192,90504,1,0,0:0:0:0:
288,192,90504,1,0,0:0:0:0:
352,192,90504,1,0,0:0:0:0:
352,192,90683,1,0,0:0:0:0:
288,192,90861,1,0,0:0:0:0:
416,192,90861,1,0,0:0:0:0:
96,192,90861,1,0,0:0:0:0:
480,192,91040,1,0,0:0:0:0:
160,192,91129,1,0,0:0:0:0:
416,192,91218,1,0,0:0:0:0:
96,192,91218,1,0,0:0:0:0:
224,192,91218,1,0,0:0:0:0:
96,192,91397,1,0,0:0:0:0:
352,192,91397,1,0,0:0:0:0:
288,192,91575,1,0,0:0:0:0:
96,192,91575,1,0,0:0:0:0:
160,192,91575,1,0,0:0:0:0:
352,192,91754,1,0,0:0:0:0:
288,192,91933,1,0,0:0:0:0:
224,192,91933,1,0,0:0:0:0:
96,192,91933,1,0,0:0:0:0:
224,192,92111,1,0,0:0:0:0:
352,192,92111,1,0,0:0:0:0:
96,192,92290,1,0,0:0:0:0:
416,192,92290,1,0,0:0:0:0:
224,192,92468,1,0,0:0:0:0:
480,192,92468,1,0,0:0:0:0:
160,192,92558,1,0,0:0:0:0:
96,192,92647,1,0,0:0:0:0:
352,192,92647,1,0,0:0:0:0:
288,192,92647,1,0,0:0:0:0:
416,192,92825,1,0,0:0:0:0:
224,192,92825,1,0,0:0:0:0:
96,192,93004,1,0,0:0:0:0:
352,192,93004,1,0,0:0:0:0:
480,192,93183,1,0,0:0:0:0:
224,192,93183,1,0,0:0:0:0:
352,192,93361,1,0,0:0:0:0:
160,192,93361,1,0,0:0:0:0:
96,192,93361,1,0,0:0:0:0:
288,192,93450,1,0,0:0:0:0:
352,192,93540,1,0,0:0:0:0:
224,192,93540,1,0,0:0:0:0:
416,192,93629,1,0,0:0:0:0:
224,192,93718,1,0,0:0:0:0:
96,192,93718,1,0,0:0:0:0:
352,192,93808,1,0,0:0:0:0:
224,192,93897,1,0,0:0:0:0:
416,192,93897,1,0,0:0:0:0:
480,192,93986,1,0,0:0:0:0:
96,192,94075,1,0,0:0:0:0:
416,192,94075,1,0,0:0:0:0:
160,192,94075,1,0,0:0:0:0:
288,192,94165,1,0,0:0:0:0:
224,192,94254,1,0,0:0:0:0:
352,192,94254,1,0,0:0:0:0:
160,192,94343,1,0,0:0:0:0:
416,192,94343,1,0,0:0:0:0:
96,192,94433,1,0,0:0:0:0:
288,192,94433,1,0,0:0:0:0:
160,192,94522,1,0,0:0:0:0:
352,192,94522,1,0,0:0:0:0:
416,192,94611,1,0,0:0:0:0:
224,192,94611,1,0,0:0:0:0:
480,192,94700,1,0,0:0:0:0:
288,192,94700,1,0,0:0:0:0:
160,192,94790,1,0,0:0:0:0:
32,192,94790,1,0,0:0:0:0:
96,192,94790,1,0,0:0:0:0:
352,192,94879,1,0,0:0:0:0:
160,192,94968,1,0,0:0:0:0:
224,192,94968,1,0,0:0:0:0:
352,192,95058,1,0,0:0:0:0:
416,192,95147,1,0,0:0:0:0:
480,192,95147,1,0,0:0:0:0:
96,192,95147,1,0,0:0:0:0:
288,192,95325,1,0,0:0:0:0:
224,192,95325,1,0,0:0:0:0:
160,192,95415,1,0,0:0:0:0:
352,192,95504,1,0,0:0:0:0:
96,192,95504,1,0,0:0:0:0:
224,192,95683,1,0,0:0:0:0:
416,192,95683,1,0,0:0:0:0:
352,192,95861,1,0,0:0:0:0:
288,192,95861,1,0,0:0:0:0:
96,192,95861,1,0,0:0:0:0:
288,192,96040,1,0,0:0:0:0:
224,192,96040,1,0,0:0:0:0:
416,192,96218,1,0,0:0:0:0:
224,192,96218,1,0,0:0:0:0:
96,192,96218,1,0,0:0:0:0:
480,192,96397,1,0,0:0:0:0:
416,192,96575,1,0,0:0:0:0:
352,192,96575,1,0,0:0:0:0:
96,192,96575,1,0,0:0:0:0:
480,192,96754,1,0,0:0:0:0:
160,192,96843,1,0,0:0:0:0:
416,192,96933,1,0,0:0:0:0:
96,192,96933,1,0,0:0:0:0:
288,192,96933,1,0,0:0:0:0:
96,192,97111,1,0,0:0:0:0:
480,192,97111,1,0,0:0:0:0:
288,192,97290,1,0,0:0:0:0:
96,192,97290,1,0,0:0:0:0:
224,192,97290,1,0,0:0:0:0:
480,192,97468,1,0,0:0:0:0:
160,192,97647,1,0,0:0:0:0:
288,192,97647,1,0,0:0:0:0:
96,192,97647,1,0,0:0:0:0:
416,192,97825,1,0,0:0:0:0:
96,192,98004,1,0,0:0:0:0:
480,192,98004,1,0,0:0:0:0:
416,192,98183,1,0,0:0:0:0:
160,192,98272,1,0,0:0:0:0:
352,192,98361,1,0,0:0:0:0:
96,192,98361,1,0,0:0:0:0:
224,192,98540,1,0,0:0:0:0:
416,192,98540,1,0,0:0:0:0:
416,192,98718,1,0,0:0:0:0:
96,192,98718,1,0,0:0:0:0:
288,192,98718,1,0,0:0:0:0:
352,192,98897,1,0,0:0:0:0:
416,192,98897,1,0,0:0:0:0:
288,192,99075,1,0,0:0:0:0:
96,192,99075,1,0,0:0:0:0:
224,192,99075,1,0,0:0:0:0:
352,192,99254,1,0,0:0:0:0:
416,192,99433,1,0,0:0:0:0:
96,192,99433,1,0,0:0:0:0:
480,192,99433,1,0,0:0:0:0:
352,192,99611,1,0,0:0:0:0:
160,192,99700,1,0,0:0:0:0:
288,192,99790,1,0,0:0:0:0:
352,192,99790,1,0,0:0:0:0:
96,192,99790,1,0,0:0:0:0:
96,192,99968,1,0,0:0:0:0:
352,192,99968,1,0,0:0:0:0:
288,192,100147,1,0,0:0:0:0:
224,192,100147,1,0,0:0:0:0:
96,192,100147,1,0,0:0:0:0:
352,192,100325,1,0,0:0:0:0:
160,192,100504,1,0,0:0:0:0:
96,192,100504,1,0,0:0:0:0:
352,192,100504,1,0,0:0:0:0:
416,192,100504,1,0,0:0:0:0:
288,192,100683,1,0,0:0:0:0:
96,192,100861,1,0,0:0:0:0:
352,192,100861,1,0,0:0:0:0:
288,192,101040,1,0,0:0:0:0:
160,192,101129,1,0,0:0:0:0:
416,192,101218,1,0,0:0:0:0:
96,192,101218,1,0,0:0:0:0:
160,192,101397,1,0,0:0:0:0:
288,192,101397,1,0,0:0:0:0:
96,192,101575,1,0,0:0:0:0:
224,192,101575,1,0,0:0:0:0:
288,192,101575,1,0,0:0:0:0:
352,192,101754,1,0,0:0:0:0:
288,192,101754,1,0,0:0:0:0:
288,192,101933,1,0,0:0:0:0:
224,192,101933,1,0,0:0:0:0:
96,192,101933,1,0,0:0:0:0:
416,192,102111,1,0,0:0:0:0:
96,192,102290,1,0,0:0:0:0:
288,192,102290,1,0,0:0:0:0:
480,192,102290,1,0,0:0:0:0:
416,192,102468,1,0,0:0:0:0:
160,192,102558,1,0,0:0:0:0:
224,192,102647,1,0,0:0:0:0:
96,192,102647,1,0,0:0:0:0:
352,192,102647,1,0,0:0:0:0:
96,192,102825,1,0,0:0:0:0:
416,192,102825,1,0,0:0:0:0:
288,192,103004,1,0,0:0:0:0:
96,192,103004,1,0,0:0:0:0:
160,192,103004,1,0,0:0:0:0:
416,192,103183,1,0,0:0:0:0:
96,192,103361,1,0,0:0:0:0:
352,192,103540,1,0,0:0:0:0:
480,192,103540,1,0,0:0:0:0:
32,192,103540,1,0,0:0:0:0:
96,192,103718,1,0,0:0:0:0:
224,192,103718,1,0,0:0:0:0:
32,192,103897,1,0,0:0:0:0:
480,192,103897,1,0,0:0:0:0:
352,192,103897,1,0,0:0:0:0:
288,192,103986,1,0,0:0:0:0:
96,192,104075,1,0,0:0:0:0:
160,192,104075,1,0,0:0:0:0:
224,192,104254,1,0,0:0:0:0:
480,192,104254,1,0,0:0:0:0:
32,192,104254,1,0,0:0:0:0:
96,192,104433,1,0,0:0:0:0:
352,192,104433,1,0,0:0:0:0:
224,192,104611,1,0,0:0:0:0:
32,192,104611,1,0,0:0:0:0:
480,192,104611,1,0,0:0:0:0:
96,192,104790,1,0,0:0:0:0:
288,192,104790,1,0,0:0:0:0:
160,192,104968,1,0,0:0:0:0:
32,192,104968,1,0,0:0:0:0:
352,192,104968,1,0,0:0:0:0:
288,192,105147,1,0,0:0:0:0:
96,192,105147,1,0,0:0:0:0:
352,192,105325,1,0,0:0:0:0:
32,192,105325,1,0,0:0:0:0:
160,192,105325,1,0,0:0:0:0:
288,192,105415,1,0,0:0:0:0:
96,192,105504,1,0,0:0:0:0:
224,192,105504,1,0,0:0:0:0:
416,192,105504,1,0,0:0:0:0:
288,192,105593,1,0,0:0:0:0:
352,192,105683,1,0,0:0:0:0:
224,192,105683,1,0,0:0:0:0:
96,192,105683,1,0,0:0:0:0:
416,192,105772,1,0,0:0:0:0:
480,192,105861,1,0,0:0:0:0:
288,192,105861,1,0,0:0:0:0:
32,192,105861,1,0,0:0:0:0:
96,192,105861,1,0,0:0:0:0:
352,192,105950,1,0,0:0:0:0:
416,192,106040,1,0,0:0:0:0:
224,192,106040,1,0,0:0:0:0:
160,192,106040,1,0,0:0:0:0:
480,192,106129,1,0,0:0:0:0:
288,192,106218,1,0,0:0:0:0:
96,192,106218,1,0,0:0:0:0:
32,192,106218,1,0,0:0:0:0:
416,192,106308,1,0,0:0:0:0:
160,192,106308,1,0,0:0:0:0:
224,192,106397,1,0,0:0:0:0:
480,192,106397,1,0,0:0:0:0:
160,192,106486,1,0,0:0:0:0:
352,192,106486,1,0,0:0:0:0:
96,192,106575,1,0,0:0:0:0:
288,192,106575,1,0,0:0:0:0:
416,192,106665,1,0,0:0:0:0:
96,192,106754,1,0,0:0:0:0:
480,192,106754,1,0,0:0:0:0:
352,192,106843,1,0,0:0:0:0:
160,192,106843,1,0,0:0:0:0:
96,192,106933,1,0,0:0:0:0:
224,192,106933,1,0,0:0:0:0:
416,192,107022,1,0,0:0:0:0:
288,192,107111,1,0,0:0:0:0:
160,192,107111,1,0,0:0:0:0:
224,192,107200,1,0,0:0:0:0:
96,192,107290,1,0,0:0:0:0:
352,192,107290,1,0,0:0:0:0:
160,192,107379,1,0,0:0:0:0:
288,192,107379,1,0,0:0:0:0:
416,192,107468,1,0,0:0:0:0:
224,192,107468,1,0,0:0:0:0:
288,192,107558,1,0,0:0:0:0:
352,192,107558,1,0,0:0:0:0:
96,192,107647,1,0,0:0:0:0:
480,192,107647,1,0,0:0:0:0:
416,192,107736,1,0,0:0:0:0:
352,192,107825,1,0,0:0:0:0:
160,192,107825,1,0,0:0:0:0:
224,192,107915,1,0,0:0:0:0:
480,192,108004,1,0,0:0:0:0:
288,192,108004,1,0,0:0:0:0:
416,192,108093,1,0,0:0:0:0:
224,192,108093,1,0,0:0:0:0:
96,192,108183,1,0,0:0:0:0:
160,192,108183,1,0,0:0:0:0:
288,192,108183,1,0,0:0:0:0:
480,192,108272,1,0,0:0:0:0:
352,192,108272,1,0,0:0:0:0:
416,192,108361,1,0,0:0:0:0:
224,192,108361,1,0,0:0:0:0:
352,192,108450,1,0,0:0:0:0:
288,192,108540,1,0,0:0:0:0:
96,192,108540,1,0,0:0:0:0:
160,192,108629,1,0,0:0:0:0:
416,192,108718,1,0,0:0:0:0:
224,192,108718,1,0,0:0:0:0:
288,192,108808,1,0,0:0:0:0:
224,192,108897,1,0,0:0:0:0:
352,192,108897,1,0,0:0:0:0:
160,192,108986,1,0,0:0:0:0:
352,192,109075,1,0,0:0:0:0:
32,192,109075,1,0,0:0:0:0:
288,192,109075,1,0,0:0:0:0:
224,192,109165,1,0,0:0:0:0:
480,192,109165,1,0,0:0:0:0:
288,192,109254,1,0,0:0:0:0:
160,192,109254,1,0,0:0:0:0:
416,192,109343,1,0,0:0:0:0:
96,192,109343,1,0,0:0:0:0:
160,192,109433,1,0,0:0:0:0:
352,192,109433,1,0,0:0:0:0:
224,192,109522,1,0,0:0:0:0:
480,192,109611,1,0,0:0:0:0:
288,192,109611,1,0,0:0:0:0:
352,192,109700,1,0,0:0:0:0:
224,192,109790,1,0,0:0:0:0:
416,192,109790,1,0,0:0:0:0:
32,192,109790,1,0,0:0:0:0:
480,192,109879,1,0,0:0:0:0:
160,192,109968,1,0,0:0:0:0:
352,192,109968,1,0,0:0:0:0:
416,192,110058,1,0,0:0:0:0:
96,192,110058,1,0,0:0:0:0:
160,192,110147,1,0,0:0:0:0:
352,192,110147,1,0,0:0:0:0:
224,192,110236,1,0,0:0:0:0:
288,192,110325,1,0,0:0:0:0:
416,192,110325,1,0,0:0:0:0:
352,192,110415,1,0,0:0:0:0:
32,192,110504,1,0,0:0:0:0:
224,192,110504,1,0,0:0:0:0:
288,192,110504,1,0,0:0:0:0:
416,192,110593,1,0,0:0:0:0:
160,192,110683,1,0,0:0:0:0:
352,192,110683,1,0,0:0:0:0:
96,192,110772,1,0,0:0:0:0:
480,192,110772,1,0,0:0:0:0:
224,192,110861,1,0,0:0:0:0:
416,192,110861,1,0,0:0:0:0:
288,192,110950,1,0,0:0:0:0:
224,192,111040,1,0,0:0:0:0:
480,192,111040,1,0,0:0:0:0:
160,192,111129,1,0,0:0:0:0:
32,192,111218,1,0,0:0:0:0:
352,192,111218,1,0,0:0:0:0:
96,192,111218,1,0,0:0:0:0:
480,192,111308,1,0,0:0:0:0:
160,192,111397,1,0,0:0:0:0:
288,192,111397,1,0,0:0:0:0:
224,192,111486,1,0,0:0:0:0:
416,192,111486,1,0,0:0:0:0:
352,192,111575,1,0,0:0:0:0:
288,192,111575,1,0,0:0:0:0:
224,192,111665,1,0,0:0:0:0:
96,192,111665,1,0,0:0:0:0:
160,192,111754,1,0,0:0:0:0:
480,192,111754,1,0,0:0:0:0:
352,192,111754,1,0,0:0:0:0:
224,192,111843,1,0,0:0:0:0:
416,192,111843,1,0,0:0:0:0:
480,192,111933,1,0,0:0:0:0:
96,192,111933,1,0,0:0:0:0:
160,192,112022,1,0,0:0:0:0:
352,192,112022,1,0,0:0:0:0:
224,192,112111,1,0,0:0:0:0:
288,192,112111,1,0,0:0:0:0:
160,192,112200,1,0,0:0:0:0:
416,192,112200,1,0,0:0:0:0:
96,192,112290,1,0,0:0:0:0:
480,192,112290,1,0,0:0:0:0:
160,192,112379,1,0,0:0:0:0:
352,192,112379,1,0,0:0:0:0:
288,192,112468,1,0,0:0:0:0:
224,192,112468,1,0,0:0:0:0:
96,192,112558,1,0,0:0:0:0:
416,192,112558,1,0,0:0:0:0:
480,192,112647,1,0,0:0:0:0:
224,192,112647,1,0,0:0:0:0:
352,192,112647,1,0,0:0:0:0:
160,192,112736,1,0,0:0:0:0:
224,192,112825,1,0,0:0:0:0:
288,192,112825,1,0,0:0:0:0:
160,192,112915,1,0,0:0:0:0:
352,192,113004,1,0,0:0:0:0:
96,192,113004,1,0,0:0:0:0:
160,192,113093,1,0,0:0:0:0:
416,192,113183,1,0,0:0:0:0:
224,192,113183,1,0,0:0:0:0:
96,192,113272,1,0,0:0:0:0:
480,192,113361,1,0,0:0:0:0:
160,192,113361,1,0,0:0:0:0:
416,192,113450,1,0,0:0:0:0:
224,192,113540,1,0,0:0:0:0:
352,192,113540,1,0,0:0:0:0:
288,192,113629,1,0,0:0:0:0:
160,192,113629,1,0,0:0:0:0:
416,192,113718,1,0,0:0:0:0:
96,192,113718,1,0,0:0:0:0:
352,192,113808,1,0,0:0:0:0:
160,192,113808,1,0,0:0:0:0:
96,192,113897,1,0,0:0:0:0:
224,192,113897,1,0,0:0:0:0:
160,192,113986,1,0,0:0:0:0:
480,192,114075,1,0,0:0:0:0:
416,192,114075,1,0,0:0:0:0:
288,192,114165,1,0,0:0:0:0:
352,192,114165,1,0,0:0:0:0:
224,192,114254,1,0,0:0:0:0:
480,192,114254,1,0,0:0:0:0:
160,192,114343,1,0,0:0:0:0:
416,192,114343,1,0,0:0:0:0:
224,192,114433,1,0,0:0:0:0:
352,192,114433,1,0,0:0:0:0:
288,192,114522,1,0,0:0:0:0:
480,192,114522,1,0,0:0:0:0:
416,192,114611,1,0,0:0:0:0:
224,192,114611,1,0,0:0:0:0:
160,192,114700,1,0,0:0:0:0:
352,192,114700,1,0,0:0:0:0:
32,192,114790,1,0,0:0:0:0:
288,192,114790,1,0,0:0:0:0:
96,192,114790,1,0,0:0:0:0:
224,192,114879,1,0,0:0:0:0:
416,192,114879,1,0,0:0:0:0:
288,192,114968,1,0,0:0:0:0:
96,192,114968,1,0,0:0:0:0:
416,192,115058,1,0,0:0:0:0:
224,192,115058,1,0,0:0:0:0:
96,192,115147,1,0,0:0:0:0:
288,192,115147,1,0,0:0:0:0:
160,192,115236,1,0,0:0:0:0:
224,192,115325,1,0,0:0:0:0:
352,192,115325,1,0,0:0:0:0:
288,192,115415,1,0,0:0:0:0:
160,192,115504,1,0,0:0:0:0:
32,192,115504,1,0,0:0:0:0:
352,192,115504,1,0,0:0:0:0:
480,192,115593,1,0,0:0:0:0:
96,192,115593,1,0,0:0:0:0:
352,192,115683,1,0,0:0:0:0:
224,192,115683,1,0,0:0:0:0:
480,192,115772,1,0,0:0:0:0:
160,192,115772,1,0,0:0:0:0:
96,192,115861,1,0,0:0:0:0:
352,192,115861,1,0,0:0:0:0:
224,192,115950,1,0,0:0:0:0:
352,192,116039,1,0,0:0:0:0:
160,192,116040,1,0,0:0:0:0:
224,192,116129,1,0,0:0:0:0:
32,192,116218,1,0,0:0:0:0:
160,192,116218,1,0,0:0:0:0:
288,192,116218,1,0,0:0:0:0:
416,192,116307,1,0,0:0:0:0:
224,192,116308,1,0,0:0:0:0:
288,192,116396,1,0,0:0:0:0:
160,192,116397,1,0,0:0:0:0:
416,192,116486,1,0,0:0:0:0:
96,192,116486,1,0,0:0:0:0:
160,192,116575,1,0,0:0:0:0:
288,192,116575,1,0,0:0:0:0:
224,192,116665,1,0,0:0:0:0:
352,192,116753,1,0,0:0:0:0:
160,192,116754,1,0,0:0:0:0:
96,192,116843,1,0,0:0:0:0:
352,192,116933,1,0,0:0:0:0:
224,192,116933,1,0,0:0:0:0:
32,192,116933,1,0,0:0:0:0:
288,192,117022,1,0,0:0:0:0:
480,192,117022,1,0,0:0:0:0:
224,192,117111,1,0,0:0:0:0:
352,192,117111,1,0,0:0:0:0:
480,192,117200,1,0,0:0:0:0:
288,192,117200,1,0,0:0:0:0:
32,192,117290,1,0,0:0:0:0:
96,192,117290,1,0,0:0:0:0:
352,192,117290,1,0,0:0:0:0:
160,192,117379,1,0,0:0:0:0:
416,192,117379,1,0,0:0:0:0:
352,192,117468,1,0,0:0:0:0:
224,192,117468,1,0,0:0:0:0:
416,192,117558,1,0,0:0:0:0:
288,192,117558,1,0,0:0:0:0:
352,192,117647,1,0,0:0:0:0:
32,192,117647,1,0,0:0:0:0:
480,192,117647,128,0,119075:0:0:0:0:
160,192,117825,1,0,0:0:0:0:
224,192,118004,1,0,0:0:0:0:
32,192,118183,1,0,0:0:0:0:
160,192,118361,1,0,0:0:0:0:
224,192,118540,1,0,0:0:0:0:
32,192,118718,1,0,0:0:0:0:
160,192,118897,1,0,0:0:0:0:
416,192,119075,128,0,119790:0:0:0:0:
224,192,119075,1,0,0:0:0:0:
32,192,119254,1,0,0:0:0:0:
160,192,119433,1,0,0:0:0:0:
224,192,119611,1,0,0:0:0:0:
160,192,119790,1,0,0:0:0:0:
352,192,119790,128,0,120504:0:0:0:0:
32,192,119790,1,0,0:0:0:0:
288,192,119968,1,0,0:0:0:0:
32,192,120147,1,0,0:0:0:0:
224,192,120147,1,0,0:0:0:0:
160,192,120325,1,0,0:0:0:0:
32,192,120504,1,0,0:0:0:0:
288,192,120504,128,0,121933:0:0:0:0:
96,192,120683,1,0,0:0:0:0:
160,192,120861,1,0,0:0:0:0:
32,192,121040,1,0,0:0:0:0:
96,192,121218,1,0,0:0:0:0:
160,192,121397,1,0,0:0:0:0:
32,192,121575,1,0,0:0:0:0:
96,192,121754,1,0,0:0:0:0:
416,192,121933,128,0,122647:0:0:0:0:
160,192,121933,1,0,0:0:0:0:
32,192,122111,1,0,0:0:0:0:
96,192,122290,1,0,0:0:0:0:
160,192,122468,1,0,0:0:0:0:
352,192,122647,128,0,123361:0:0:0:0:
96,192,122647,1,0,0:0:0:0:
32,192,122647,1,0,0:0:0:0:
224,192,122825,1,0,0:0:0:0:
32,192,123004,1,0,0:0:0:0:
160,192,123004,1,0,0:0:0:0:
224,192,123183,1,0,0:0:0:0:
288,192,123361,128,0,124433:0:0:0:0:
32,192,123361,1,0,0:0:0:0:
224,192,123540,1,0,0:0:0:0:
96,192,123718,1,0,0:0:0:0:
32,192,123897,1,0,0:0:0:0:
224,192,124076,1,0,0:0:0:0:
160,192,124254,1,0,0:0:0:0:
32,192,124432,1,0,0:0:0:0:
96,192,124611,1,0,0:0:0:0:
416,192,124790,128,0,125504:0:0:0:0:
224,192,124790,1,0,0:0:0:0:
32,192,124968,1,0,0:0:0:0:
160,192,125147,1,0,0:0:0:0:
224,192,125325,1,0,0:0:0:0:
480,192,125504,128,0,126218:0:0:0:0:
32,192,125504,1,0,0:0:0:0:
160,192,125504,1,0,0:0:0:0:
224,192,125683,1,0,0:0:0:0:
32,192,125861,1,0,0:0:0:0:
288,192,125862,1,0,0:0:0:0:
224,192,126040,1,0,0:0:0:0:
352,192,126218,128,0,126933:0:0:0:0:
32,192,126218,1,0,0:0:0:0:
96,192,126397,1,0,0:0:0:0:
160,192,126575,1,0,0:0:0:0:
32,192,126754,1,0,0:0:0:0:
96,192,126933,1,0,0:0:0:0:
160,192,127111,1,0,0:0:0:0:
32,192,127289,1,0,0:0:0:0:
416,192,127290,1,0,0:0:0:0:
96,192,127468,1,0,0:0:0:0:
352,192,127468,1,0,0:0:0:0:
288,192,127647,128,0,128718:0:0:0:0:
160,192,127647,1,0,0:0:0:0:
32,192,127825,1,0,0:0:0:0:
96,192,128004,1,0,0:0:0:0:
160,192,128183,1,0,0:0:0:0:
96,192,128361,1,0,0:0:0:0:
32,192,128361,1,0,0:0:0:0:
160,192,128540,1,0,0:0:0:0:
224,192,128718,1,0,0:0:0:0:
32,192,128718,1,0,0:0:0:0:
160,192,128897,1,0,0:0:0:0:
32,192,129075,1,0,0:0:0:0:
96,192,129254,1,0,0:0:0:0:
288,192,129254,1,0,0:0:0:0:
416,192,129343,1,0,0:0:0:0:
224,192,129433,1,0,0:0:0:0:
480,192,129433,1,0,0:0:0:0:
288,192,129611,1,0,0:0:0:0:
416,192,129790,1,0,0:0:0:0:
96,192,129790,1,0,0:0:0:0:
224,192,129968,1,0,0:0:0:0:
480,192,129968,1,0,0:0:0:0:
352,192,130147,1,0,0:0:0:0:
160,192,130325,1,0,0:0:0:0:
416,192,130325,1,0,0:0:0:0:
224,192,130504,1,0,0:0:0:0:
32,192,130504,1,0,0:0:0:0:
288,192,130683,1,0,0:0:0:0:
416,192,130772,1,0,0:0:0:0:
96,192,130861,1,0,0:0:0:0:
480,192,130862,1,0,0:0:0:0:
224,192,131040,1,0,0:0:0:0:
288,192,131040,1,0,0:0:0:0:
160,192,131218,1,0,0:0:0:0:
416,192,131219,1,0,0:0:0:0:
480,192,131397,1,0,0:0:0:0:
96,192,131397,1,0,0:0:0:0:
160,192,131575,1,0,0:0:0:0:
352,192,131576,1,0,0:0:0:0:
416,192,131754,1,0,0:0:0:0:
224,192,131754,1,0,0:0:0:0:
32,192,131933,1,0,0:0:0:0:
96,192,132111,1,0,0:0:0:0:
224,192,132111,1,0,0:0:0:0:
352,192,132200,1,0,0:0:0:0:
416,192,132290,1,0,0:0:0:0:
160,192,132290,1,0,0:0:0:0:
224,192,132468,1,0,0:0:0:0:
352,192,132647,1,0,0:0:0:0:
96,192,132647,1,0,0:0:0:0:
160,192,132825,1,0,0:0:0:0:
416,192,132825,1,0,0:0:0:0:
288,192,133004,1,0,0:0:0:0:
96,192,133183,1,0,0:0:0:0:
352,192,133183,1,0,0:0:0:0:
160,192,133361,1,0,0:0:0:0:
32,192,133361,1,0,0:0:0:0:
224,192,133540,1,0,0:0:0:0:
288,192,133629,1,0,0:0:0:0:
96,192,133718,1,0,0:0:0:0:
416,192,133718,1,0,0:0:0:0:
352,192,133897,1,0,0:0:0:0:
224,192,133897,1,0,0:0:0:0:
480,192,134075,1,0,0:0:0:0:
160,192,134075,1,0,0:0:0:0:
96,192,134254,1,0,0:0:0:0:
416,192,134254,1,0,0:0:0:0:
288,192,134433,1,0,0:0:0:0:
160,192,134433,1,0,0:0:0:0:
224,192,134611,1,0,0:0:0:0:
96,192,134611,1,0,0:0:0:0:
32,192,134790,1,0,0:0:0:0:
96,192,134969,1,0,0:0:0:0:
288,192,134969,1,0,0:0:0:0:
416,192,135058,1,0,0:0:0:0:
480,192,135148,1,0,0:0:0:0:
224,192,135148,1,0,0:0:0:0:
288,192,135326,1,0,0:0:0:0:
96,192,135505,1,0,0:0:0:0:
416,192,135505,1,0,0:0:0:0:
480,192,135683,1,0,0:0:0:0:
224,192,135683,1,0,0:0:0:0:
352,192,135862,1,0,0:0:0:0:
160,192,136040,1,0,0:0:0:0:
416,192,136040,1,0,0:0:0:0:
32,192,136218,1,0,0:0:0:0:
224,192,136219,1,0,0:0:0:0:
288,192,136398,1,0,0:0:0:0:
416,192,136487,1,0,0:0:0:0:
96,192,136576,1,0,0:0:0:0:
480,192,136577,1,0,0:0:0:0:
224,192,136755,1,0,0:0:0:0:
288,192,136755,1,0,0:0:0:0:
160,192,136933,1,0,0:0:0:0:
416,192,136934,1,0,0:0:0:0:
96,192,137112,1,0,0:0:0:0:
480,192,137112,1,0,0:0:0:0:
160,192,137290,1,0,0:0:0:0:
352,192,137291,1,0,0:0:0:0:
224,192,137469,1,0,0:0:0:0:
416,192,137469,1,0,0:0:0:0:
32,192,137648,1,0,0:0:0:0:
96,192,137826,1,0,0:0:0:0:
224,192,137826,1,0,0:0:0:0:
352,192,137915,1,0,0:0:0:0:
160,192,138005,1,0,0:0:0:0:
416,192,138005,1,0,0:0:0:0:
224,192,138183,1,0,0:0:0:0:
96,192,138362,1,0,0:0:0:0:
352,192,138362,1,0,0:0:0:0:
416,192,138540,1,0,0:0:0:0:
160,192,138540,1,0,0:0:0:0:
288,192,138719,1,0,0:0:0:0:
160,192,138897,1,0,0:0:0:0:
352,192,138898,1,0,0:0:0:0:
224,192,139075,1,0,0:0:0:0:
96,192,139075,1,0,0:0:0:0:
32,192,139075,1,0,0:0:0:0:
288,192,139254,1,0,0:0:0:0:
352,192,139343,1,0,0:0:0:0:
96,192,139433,1,0,0:0:0:0:
480,192,139433,1,0,0:0:0:0:
160,192,139433,1,0,0:0:0:0:
288,192,139611,1,0,0:0:0:0:
416,192,139611,1,0,0:0:0:0:
96,192,139790,1,0,0:0:0:0:
480,192,139790,1,0,0:0:0:0:
224,192,139790,1,0,0:0:0:0:
160,192,139968,1,0,0:0:0:0:
416,192,139969,1,0,0:0:0:0:
352,192,140147,1,0,0:0:0:0:
96,192,140147,1,0,0:0:0:0:
224,192,140236,1,0,0:0:0:0:
288,192,140325,1,0,0:0:0:0:
160,192,140325,1,0,0:0:0:0:
416,192,140325,1,0,0:0:0:0:
352,192,140415,1,0,0:0:0:0:
416,192,140504,1,0,0:0:0:0:
32,192,140504,1,0,0:0:0:0:
