osu file format v12

[General]
AudioFilename: A Twinkle In The Sky.mp3
AudioLeadIn: 0
PreviewTime: -1
Countdown: 0
SampleSet: Soft
StackLeniency: 0.7
Mode: 0
LetterboxInBreaks: 0
WidescreenStoryboard: 1

[Editor]
Bookmarks: 301
DistanceSpacing: 1.1
BeatDivisor: 4
GridSize: 4

[Metadata]
Title:A Twinkle in the Sky
TitleUnicode:A Twinkle in the Sky
Artist:Yoko Shimomura
ArtistUnicode:Yoko Shimomura
Creator:balter 666
Version:Hard
Source:Kingdom hearts II
Tags:
BeatmapID:298696
BeatmapSetID:85443

[Difficulty]
HPDrainRate:7
CircleSize:4
OverallDifficulty:7
ApproachRate:7
SliderMultiplier:1.6
SliderTickRate:1

[Events]
//Background and Video events
0,0,"KH.jpg",0,0
//Break Periods
//Storyboard Layer 0 (Background)
//Storyboard Layer 1 (Fail)
//Storyboard Layer 2 (Pass)
//Storyboard Layer 3 (Foreground)
//Storyboard Sound Samples
//Background Colour Transformations
3,100,163,162,255

[TimingPoints]
608,508.517670989067,4,2,0,35,1,0

[Colours]
Combo1 : 60,187,249
Combo2 : 56,147,245
Combo3 : 255,219,144
Combo4 : 104,213,249

[HitObjects]
64,224,608,2,0,P|139:256|215:222,1,160,0|2,0:0|0:0,0:0:0:0:
272,172,1370,1,0,0:0:0:0:
320,112,1625,2,0,P|392:83|466:110,1,160,0|2,0:0|0:0,0:0:0:0:
444,180,2387,1,0,0:0:0:0:
368,180,2642,6,0,P|309:237|331:313,2,160,0|2|0,0:0|0:0|0:0,0:0:0:0:
384,104,3913,1,0,0:0:0:0:
311,95,4167,2,0,L|232:88,1,80,2|0,0:0|0:0,0:0:0:0:
160,96,4676,6,0,P|110:37|34:48,1,160,0|2,0:0|0:0,0:0:0:0:
140,176,5693,2,0,P|68:161|13:233,1,160,0|2,0:0|0:0,0:0:0:0:
72,276,6456,1,0,0:0:0:0:
148,308,6710,6,0,L|234:302,1,80
328,288,7218,2,0,L|407:282,1,80,2|0,0:0|0:0,0:0:0:0:
304,172,7727,2,0,P|232:57|176:171,1,320,2|0,0:0|0:0,0:0:0:0:
244,340,9252,5,0,0:0:0:0:
328,320,9761,2,0,P|366:297|405:297,1,80,2|0,0:0|0:0,0:0:0:0:
412,212,10269,2,0,P|452:240|489:235,1,80,2|0,0:0|0:0,0:0:0:0:
348,128,10778,6,0,P|426:92|437:17,1,160,2|0,0:0|0:0,0:0:0:0:
440,24,11541,1,0,0:0:0:0:
316,48,11795,2,0,P|282:27|235:27,1,80,2|0,0:0|0:0,0:0:0:0:
148,72,12304,2,0,P|151:113|172:152,1,80,2|0,0:0|0:0,0:0:0:0:
332,140,12812,6,0,P|380:202|324:249,1,160,2|0,0:0|0:0,0:0:0:0:
252,200,13575,1,0,0:0:0:0:
164,248,13829,2,0,P|115:201|163:139,1,160,2|0,0:0|0:0,0:0:0:0:
280,148,14592,1,0,0:0:0:0:
348,76,14846,6,0,P|274:38|200:53,1,160,2|0,0:0|0:0,0:0:0:0:
112,88,15609,1,0,0:0:0:0:
80,184,15863,2,0,P|40:177|2:142,2,80,2|0|2,0:0|0:0|0:0,0:0:0:0:
228,184,16880,6,0,B|286:218|319:146|381:184,1,160,2|2,0:0|0:0,0:0:0:0:
340,288,17897,2,0,B|282:322|249:250|187:288,1,160,2|2,0:0|0:0,0:0:0:0:
96,212,18660,2,0,P|123:180|134:139,1,80,0|2,0:0|0:0,0:0:0:0:
235,111,19423,6,0,P|260:43|328:68,1,160,0|2,0:0|0:0,0:0:0:0:
404,116,20186,2,0,P|416:155|408:198,1,80,0|2,0:0|0:0,0:0:0:0:
296,240,20694,1,0,0:0:0:0:
196,160,20949,6,0,P|125:142|104:219,1,160,2|0,0:0|0:0,0:0:0:0:
152,316,21711,1,0,0:0:0:0:
152,316,21966,2,0,P|112:325|68:302,2,80,2|0|2,0:0|0:0|0:0,0:0:0:0:
240,264,22728,1,0,0:0:0:0:
336,252,22983,6,0,P|347:288|343:338,2,80,0|2|0,0:0|0:0|0:0,0:0:0:0:
424,276,24000,1,2,0:0:0:0:
392,212,24254,1,0,0:0:0:0:
392,212,24508,2,0,P|422:198|470:201,2,80,2|0|0,0:0|0:0|0:0,0:0:0:0:
316,192,25525,6,0,L|302:278,1,80,2|0,0:0|0:0,0:0:0:0:
208,260,26034,2,0,L|220:181,1,80,2|0,0:0|0:0,0:0:0:0:
140,200,26542,1,2,0:0:0:0:
208,120,26797,1,0,0:0:0:0:
288,64,27051,6,0,P|352:107|453:104,1,160,2|0,0:0|0:0,0:0:0:0:
416,216,28068,2,0,P|451:196|497:197,1,80,2|0,0:0|0:0,0:0:0:0:
456,92,28576,2,0,P|421:112|375:111,1,80,2|0,0:0|0:0,0:0:0:0:
340,180,29085,6,0,P|305:258|223:242,1,160,2|0,0:0|0:0,0:0:0:0:
168,188,29848,1,0,0:0:0:0:
76,200,30102,2,0,B|114:138|42:105|76:47,1,160,2|0,0:0|0:0,0:0:0:0:
160,64,30865,1,0,0:0:0:0:
240,76,31119,6,0,L|313:111,1,80,0|2,0:0|0:0,0:0:0:0:
252,160,31628,2,0,L|333:199,1,80,0|0,0:0|0:0,0:0:0:0:
120,188,32136,2,0,P|98:265|180:308,1,160,0|2,0:0|0:0,0:0:0:0:
232,280,32899,1,0,0:0:0:0:
308,216,33153,6,0,P|384:253|472:270,1,160,0|2,0:0|0:0,0:0:0:0:
456,268,33916,1,0,0:0:0:0:
472,156,34170,2,0,P|398:140|321:99,1,160,0|2,0:0|0:0,0:0:0:0:
204,152,34933,1,0,0:0:0:0:
204,152,35187,6,0,P|164:155|125:180,2,80,2|0|2,0:0|0:0|0:0,0:0:0:0:
276,216,35950,1,0,0:0:0:0:
360,184,36204,2,0,P|406:243|510:242,1,160,2|2,0:0|0:0,0:0:0:0:
488,252,36967,1,0,0:0:0:0:
320,276,37221,6,0,P|338:312|375:336,2,80,2|0|2,0:0|0:0|0:0,0:0:0:0:
320,276,37984,1,0,0:0:0:0:
320,196,38238,1,2,0:0:0:0:
320,136,38747,6,0,P|319:96|306:59,1,80,2|0,0:0|0:0,0:0:0:0:
136,152,39255,2,0,P|122:112|121:74,1,80,0|0,0:0|0:0,0:0:0:0:
160,240,39764,2,0,P|84:235|46:301,1,160,2|0,0:0|0:0,0:0:0:0:
256,240,40527,1,0,0:0:0:0:
360,232,40781,2,0,P|433:226|474:294,1,160,2|0,0:0|0:0,0:0:0:0:
476,292,41798,5,0,0:0:0:0:
256,328,42307,1,2,0:0:0:0:
72,296,42815,1,0,0:0:0:0:
72,280,43069,1,0,0:0:0:0:
120,192,43324,6,0,P|184:147|282:162,1,160,2|0,0:0|0:0,0:0:0:0:
340,212,44086,1,0,0:0:0:0:
408,288,44341,1,2,0:0:0:0:
408,288,44595,2,0,P|441:315|489:329,2,80,0|2|0,0:0|0:0|0:0,0:0:0:0:
456,208,45358,6,0,P|455:131|392:88,1,160,2|0,0:0|0:0,0:0:0:0:
308,88,46121,1,0,0:0:0:0:
212,92,46375,2,0,P|182:117|138:122,1,80,2|0,0:0|0:0,0:0:0:0:
196,208,46883,2,0,P|226:183|266:178,1,80,2|0,0:0|0:0,0:0:0:0:
388,256,47392,6,0,L|300:236,2,80,0|2|0,0:0|0:0|0:0,0:0:0:0:
384,192,48155,1,0,0:0:0:0:
376,136,48409,2,0,P|433:78|532:78,1,160,2|0,0:0|0:0,0:0:0:0:
484,180,49172,1,0,0:0:0:0:
480,260,49426,1,2,0:0:0:0:
256,192,49807,12,0,53493,0:0:0:0:
