osu file format v12

[General]
AudioFilename: A Twinkle In The Sky.mp3
AudioLeadIn: 0
PreviewTime: -1
Countdown: 0
SampleSet: Soft
StackLeniency: 0.7
Mode: 0
LetterboxInBreaks: 0
WidescreenStoryboard: 0

[Editor]
Bookmarks: 301
DistanceSpacing: 1.1
BeatDivisor: 4
GridSize: 4

[Metadata]
Title:A Twinkle in the Sky
TitleUnicode:A Twinkle in the Sky
Artist:Yoko Shimomura
ArtistUnicode:Yoko Shimomura
Creator:balter 666
Version:Easy
Source:Kingdom hearts II
Tags:
BeatmapID:234831
BeatmapSetID:85443

[Difficulty]
HPDrainRate:2
CircleSize:3
OverallDifficulty:2
ApproachRate:2
SliderMultiplier:0.9
SliderTickRate:1

[Events]
//Background and Video events
0,0,"KH.jpg",0,0
//Break Periods
//Storyboard Layer 0 (Background)
//Storyboard Layer 1 (Fail)
//Storyboard Layer 2 (Pass)
//Storyboard Layer 3 (Foreground)
//Storyboard Sound Samples
//Background Colour Transformations
3,100,163,162,255

[TimingPoints]
608,508.517670989067,4,2,0,35,1,0

[Colours]
Combo1 : 0,128,64
Combo2 : 56,147,245
Combo3 : 255,219,144
Combo4 : 104,213,249

[HitObjects]
168,120,608,2,0,P|140:203|184:278,1,180,2|2,0:0|0:0,0:0:0:0:
260,288,2133,1,0,0:0:0:0:
296,215,2642,2,0,P|376:180|456:216,1,180,2|2,0:0|0:0,0:0:0:0:
240,116,4167,1,0,0:0:0:0:
108,144,4676,6,0,P|120:188|160:232,1,90,2|0,0:0|0:0,0:0:0:0:
244,192,5693,2,0,P|284:212|348:212,2,90,2|0|2,0:0|0:0|0:0,0:0:0:0:
260,100,7218,1,0,0:0:0:0:
332,136,7727,2,0,P|424:124|472:56,1,180,2|2,0:0|0:0,0:0:0:0:
328,260,9252,6,0,L|280:180,1,90,0|2,0:0|0:0,0:0:0:0:
280,184,10269,2,0,P|264:212|248:232,2,45,2|0|2,0:0|0:0|0:0,0:0:0:0:
264,260,11287,1,0,0:0:0:0:
324,316,11795,1,2,0:0:0:0:
392,288,12304,6,0,P|408:268|424:236,2,45,2|0|2,0:0|0:0|0:0,0:0:0:0:
272,240,13321,1,0,0:0:0:0:
216,308,13829,2,0,P|172:292|132:264,1,90,2|0,0:0|0:0,0:0:0:0:
300,148,14846,2,0,P|344:164|384:192,1,90,2|0,0:0|0:0,0:0:0:0:
396,272,15863,2,0,P|468:216|504:132,1,180,2|2,0:0|0:0,0:0:0:0:
328,92,17897,6,0,P|256:148|220:232,1,180,2|2,0:0|0:0,0:0:0:0:
128,224,19423,2,0,P|96:264|56:288,1,90,0|2,0:0|0:0,0:0:0:0:
56,160,20440,2,0,P|28:188|20:208,2,45,2|0|2,0:0|0:0|0:0,0:0:0:0:
168,136,21457,5,0,0:0:0:0:
256,76,21966,1,2,0:0:0:0:
384,96,22474,1,0,0:0:0:0:
420,180,22983,2,0,P|444:220|460:272,1,90,2|0,0:0|0:0,0:0:0:0:
332,272,24000,2,0,P|308:232|292:180,1,90,2|0,0:0|0:0,0:0:0:0:
268,116,25017,6,0,P|240:152|220:196,1,90,2|0,0:0|0:0,0:0:0:0:
192,280,26034,1,2,0:0:0:0:
276,296,26542,2,0,L|252:336,2,45,2|0|2,0:0|0:0|0:0,0:0:0:0:
368,264,27559,2,0,P|392:220|392:172,1,90,0|2,0:0|0:0,0:0:0:0:
308,124,28576,2,0,L|332:84,2,45,2|0|2,0:0|0:0|0:0,0:0:0:0:
332,224,29593,6,0,B|336:216|336:216|312:184|276:148,1,90,0|2,0:0|0:0,0:0:0:0:
208,192,30611,2,0,B|220:196|220:196|228:232|264:268,1,90,0|2,0:0|0:0,0:0:0:0:
156,316,31628,1,0,0:0:0:0:
248,324,32136,1,2,0:0:0:0:
320,256,32645,1,0,0:0:0:0:
312,176,33153,6,0,B|260:180|232:212|232:212|204:180|152:176,1,180,2|2,0:0|0:0,0:0:0:0:
64,252,34679,2,0,L|8:252,2,45,2|0|2,0:0|0:0|0:0,0:0:0:0:
204,272,35696,1,0,0:0:0:0:
304,272,36204,1,2,0:0:0:0:
384,180,36713,6,0,L|444:180,2,45,2|0|2,0:0|0:0|0:0,0:0:0:0:
268,180,37730,1,0,0:0:0:0:
192,272,38238,2,0,P|152:260|108:232,1,90,2|0,0:0|0:0,0:0:0:0:
104,128,39255,2,0,P|144:140|188:168,1,90,2|0,0:0|0:0,0:0:0:0:
376,140,40273,2,0,B|321:180|345:268|345:268|305:268,1,180,2|2,0:0|0:0,0:0:0:0:
120,192,41797,1,0,0:0:0:0:
220,280,42307,1,2,0:0:0:0:
240,144,42815,2,0,L|268:204,2,45,2|0|2,0:0|0:0|0:0,0:0:0:0:
304,72,43832,1,0,0:0:0:0:
380,120,44341,1,2,0:0:0:0:
420,216,44849,6,0,L|364:216,2,45,2|0|2,0:0|0:0|0:0,0:0:0:0:
312,280,45866,1,0,0:0:0:0:
296,192,46375,2,0,P|251:190|209:175,1,90,2|0,0:0|0:0,0:0:0:0:
320,112,47392,2,0,P|276:96|228:96,1,90,2|0,0:0|0:0,0:0:0:0:
72,160,48409,2,0,P|84:88|174:42,1,180,2|2,0:0|0:0,0:0:0:0:
256,192,49680,12,2,52477,0:0:0:0:
