osu file format v4

[General]
AudioFilename: 05 - Fields.mp3
AudioLeadIn: 0
AudioHash: b0594e74f93fffc4df9fb7fb336f027e
PreviewTime: -1
SampleSet: Soft

[Metadata]
Title:Crystalis House Leaves (Fields)
Artist:Yoko O.
Creator:546871
Version:NormalHard

[Difficulty]
HPDrainRate:3
CircleSize:7
OverallDifficulty:7
SliderMultiplier: 1.4
SliderTickRate: 1

[Events]
0,0,"CrystalisWallpaper.jpg"
3,0,163,162,255

[TimingPoints]
131,668.603318282882,4,2,0

[HitObjects]
256,128,4986,5,2,
256,128,5306,1,2,
256,128,5626,1,2,
320,128,6586,1,2,
320,128,7226,1,2,
320,96,8186,1,2,
320,96,8506,1,2,
320,96,8826,1,2,
256,96,9466,1,2,
256,96,10426,1,2,
256,96,11386,1,2,
256,96,11706,1,2,
256,96,12026,1,2,
256,128,12986,1,2,
352,96,13306,1,2,
288,96,14586,1,2,
288,160,16185,1,2,
256,160,16505,1,2,
256,128,17785,1,2,
256,96,18105,1,2,
288,128,18425,1,2,
320,64,18745,1,2,
320,96,19065,1,2,
288,96,20665,1,2,
256,96,22585,1,2,
256,96,22905,1,2,
160,96,24185,1,2,
160,96,24505,1,2,
160,128,25785,1,2,
224,128,26425,1,2,
288,128,27385,1,2,
288,96,28025,1,2,
352,64,28665,1,2,
384,96,29625,1,2,
352,160,30265,1,2,
352,160,30904,1,2,
352,160,31224,1,2,
352,160,31544,1,2,
192,128,32504,1,2,
224,96,33464,1,2,
288,96,34104,1,2,
288,128,34744,1,2,
416,96,36984,5,0,
384,128,37624,1,0,
288,96,38584,1,0,
320,64,39864,1,0,
320,64,40184,1,0,
416,160,41464,1,4,
128,96,43064,1,4,
320,192,44344,1,4,
256,192,44927,12,4,74345
128,128,78357,1,4,
224,128,79026,1,4,
288,128,79694,1,4,
352,160,81700,1,2,
288,192,83706,1,2,
288,192,84375,1,2,
288,192,85043,1,2,
288,192,85712,1,2,
416,96,87049,1,2,
128,128,87718,1,2,
128,128,88386,1,2,
288,160,89723,1,2,
320,160,90392,1,2,
192,96,91729,1,2,
192,96,93735,1,2,
320,128,94404,1,2,
160,224,95072,1,2,
256,192,96409,12,2,97747
