osu file format v5

[General]
AudioFilename: GitS - SAC 2nd Gig OP v2.mp3
AudioLeadIn: 0
PreviewTime: -1
Countdown: 1
SampleSet: Soft
StackLeniency: 0.7
Mode: 0
LetterboxInBreaks: 1
EditorBookmarks: 7121,10408,13696,20271,23559,26847,32600,39176,45957,47189,50477,53765,55409,57053,60546,63628,66916,68560,70203

[Metadata]
Title:Rise
Artist:Yoko Kanno, Origa
Creator:AgentSieg
Version:Laughing Man
Source:Ghost In The Shell: S.A.C. 2nd GIG
Tags:Ghost In The Shell, Yoko Kanno, Origa, GitS

[Difficulty]
HPDrainRate:6
CircleSize:6
OverallDifficulty:6
SliderMultiplier:1.4
SliderTickRate:1

[Events]
//Background and Video events
0,0,"1213642400549.jpg"
1,0,"GitS - SAC 2nd Gig OP v2.avi"
//Break Periods
//Storyboard Layer 0 (Background)
//Storyboard Layer 1 (Failing)
//Storyboard Layer 2 (Passing)
//Storyboard Layer 3 (Foreground)
//Storyboard Sound Samples
//Background Colour Transformations
3,100,163,162,255

[TimingPoints]
7141,410.963265306123,4,2,0,100,1

[HitObjects]
88,112,7141,5,0
88,224,7551,1,0
88,280,7757,2,2,B|124:368|171:226|176:381|227:240|215:364|208:304,1,140
296,312,8579,1,0
408,304,8990,1,0
296,312,9401,2,2,B|238:251|304:168,1,140
128,160,10428,5,0
128,272,10839,1,0
128,216,11045,2,2,B|164:304|211:162|216:317|267:176|255:300|248:240,1,140
176,168,11867,1,0
288,168,12278,1,0
400,168,12689,2,2,B|351:124|334:176|347:234|272:152,1,140
136,96,13716,5,0
136,208,14127,1,0
136,152,14332,2,2,B|48:104|32:200,1,140
88,288,15154,1,0
256,288,15771,1,0
200,288,15976,1,8
312,288,16387,1,8
256,192,16798,12,2,18647
440,352,20291,5,2
440,240,20702,1,2
440,296,20908,2,0,B|368:264|296:272,1,140
192,272,21730,1,2
304,272,22141,1,2
192,272,22552,2,0,B|120:208|48:264,1,140
80,88,23579,5,2
192,88,23990,1,2
248,88,24195,2,0,B|288:88|336:112|384:64,1,140
352,176,25017,1,2
464,176,25428,1,2
352,175,25839,2,0,B|392:248|456:120|464:176,1,140
312,248,26867,5,2
200,248,27278,1,2
144,248,27483,2,0,B|120:120|32:208,1,140
40,72,28305,1,2
40,240,28922,1,2
40,184,29127,1,8
40,72,29538,1,2
256,192,29743,12,0,32004
56,88,32620,6,0,B|104:136|24:168|72:240,2,140,0|2|0
144,232,34059,1,2
32,232,34470,1,0
88,232,34675,2,0,B|88:176|24:144|16:112|96:80|168:128|200:200,1,280,2|0
144,288,35908,1,2
144,176,36319,1,8
256,192,36524,12,4,38579
88,96,39196,5,0
96,208,39607,2,0,B|128:288|240:312|304:280,1,210,2|0
328,288,40429,2,0,B|392:280|456:272|440:200,1,140,2|0
424,112,41250,2,0,B|352:96|352:216,1,140,2|0
248,248,42072,1,0
136,248,42483,1,0
56,168,42894,2,0,B|24:56|96:40|128:176|104:176|96:224,1,210,2|0
56,232,43716,2,0,B|32:184|40:96|32:24|120:16|208:24|288:16|464:40|488:152,1,630,2|0
424,232,45977,5,0
384,272,46182,1,0
424,232,46387,1,0
384,192,46593,1,0
320,344,47209,5,0
264,344,47415,1,2
208,344,47620,1,0
264,344,47826,1,2
208,344,48031,2,0,B|144:328|88:352|16:272,1,210
32,160,49059,1,0
32,104,49264,1,2
32,48,49470,1,0
32,104,49675,1,2
32,160,49881,2,0,B|32:248,1,70,0|2
104,312,50497,5,0
216,312,50908,1,0
328,312,51319,1,0
440,312,51730,1,0
400,272,51935,1,2
360,232,52141,1,0
320,272,52346,1,2
280,312,52552,1,0
168,312,52963,1,0
392,312,53785,5,0
392,200,54196,1,8
504,192,54607,1,0
280,200,55429,5,8
168,200,55840,1,0
168,312,56251,1,8
392,312,57073,5,0
504,312,57483,1,0
392,312,57894,2,0,B|296:256|296:256|384:192,1,210,0|2
464,192,58716,1,0
464,136,58922,1,2
416,160,59127,1,0
368,128,59333,1,2
368,184,59538,2,0,B|416:240|416:240|472:184,1,140
352,64,60566,5,2
408,64,60771,1,0
464,64,60977,1,2
408,64,61182,1,0
352,64,61388,2,2,B|416:136|416:136|368:192,1,140
344,208,62004,1,0
312,256,62210,1,2
312,312,62415,1,0
360,280,62621,1,2
384,232,62826,1,0
360,280,63032,1,2
384,328,63237,2,0,B|464:328,1,70,0|2
456,272,63648,5,0
456,160,64059,1,0
456,48,64470,1,0
344,48,64881,1,0
384,88,65086,1,2
336,120,65292,1,0
296,80,65497,1,2
256,40,65703,1,0
208,72,65908,1,2
168,32,66114,1,0
384,80,66936,5,8
384,192,67347,1,0
496,192,67758,1,8
272,184,68580,5,0
160,184,68990,1,8
160,72,69401,1,0
352,184,70223,5,0
464,184,70634,1,0
464,296,71045,1,0
352,296,71456,1,0
408,296,71662,1,2
464,296,71867,1,0
464,240,72073,1,2
464,184,72278,1,0
256,192,72484,12,0,74538
104,200,74949,5,8
104,256,75155,1,0
216,256,75566,1,0
328,256,75977,1,4
