osu file format v14

[General]
AudioFilename: Terror in Resonance OST 01 - lolol.mp3
AudioLeadIn: 0
PreviewTime: 3868
Countdown: 0
SampleSet: Normal
StackLeniency: 0.7
Mode: 0
LetterboxInBreaks: 1
WidescreenStoryboard: 0

[Editor]
Bookmarks: 45990,94475
DistanceSpacing: 1.2
BeatDivisor: 4
GridSize: 8
TimelineZoom: 1

[Metadata]
Title:lolol
TitleUnicode:lolol
Artist:Yoko Kanno
ArtistUnicode:Yoko Kanno
Creator:figs60
Version:Hard
Source:Zankyou no Terror
Tags:Zankyou no Terror in Resonance Kiloechovin
BeatmapID:771142
BeatmapSetID:349300

[Difficulty]
HPDrainRate:6
CircleSize:4
OverallDifficulty:6
ApproachRate:6
SliderMultiplier:1.4
SliderTickRate:1

[Events]
//Background and Video events
0,0,"terror.jpg",0,0
//Break Periods
//Storyboard Layer 0 (Background)
//Storyboard Layer 1 (Fail)
//Storyboard Layer 2 (Pass)
//Storyboard Layer 3 (Foreground)
//Storyboard Sound Samples

[TimingPoints]
3970,404.040404040404,4,1,0,50,1,0
75081,-83.3333333333333,4,1,0,50,0,0
75687,-100,4,1,0,50,0,0
75889,-111.111111111111,4,1,0,50,0,0
77909,-100,4,1,0,50,0,0

[HitObjects]
224,336,3969,6,0,L|152:288,1,70
96,248,4374,2,0,L|160:208,1,70
224,168,4778,2,0,L|152:120,1,70
96,80,5182,2,0,L|168:48,1,70
352,51,5586,6,0,L|416:80,1,70
346,129,5990,2,0,L|288:168,1,70
356,210,6394,2,0,L|416:248,1,70
346,297,6799,2,0,L|288:336,1,70
256,280,7202,6,0,L|256:208,1,70
224,152,7606,2,0,L|176:88,1,70
288,152,8010,2,0,L|336:88,1,70
256,64,8414,2,0,L|256:-8,1,70
208,64,8818,6,0,P|200:104|240:96,1,70
304,136,9222,2,0,P|312:176|272:168,1,70
208,200,9626,2,0,P|200:240|240:232,1,70
304,264,10030,2,0,P|312:304|272:296,1,70
216,312,10434,5,0,0:0:0:0:
152,376,10636,1,0,0:0:0:0:
96,312,10838,1,0,0:0:0:0:
152,256,11040,1,0,0:0:0:0:
152,176,11242,5,0,0:0:0:0:
96,112,11444,1,0,0:0:0:0:
152,56,11646,1,0,0:0:0:0:
216,112,11848,1,0,0:0:0:0:
296,112,12050,5,0,0:0:0:0:
360,56,12252,1,0,0:0:0:0:
416,112,12454,1,0,0:0:0:0:
360,176,12656,1,0,0:0:0:0:
360,256,12858,5,0,0:0:0:0:
416,312,13060,1,0,0:0:0:0:
360,376,13262,1,0,0:0:0:0:
296,312,13464,1,0,0:0:0:0:
256,344,13666,6,0,L|256:304,2,35
256,256,14071,2,0,L|256:216,2,35
256,176,14475,2,0,L|256:136,2,35
256,96,14879,2,0,L|256:56,2,35
168,88,15283,6,0,L|136:136,2,35
232,88,15687,2,0,L|216:128,2,35
280,88,16091,2,0,L|292:120,2,35
344,88,16495,2,0,L|363:117,2,35
488,192,16899,5,0,0:0:0:0:
256,352,17303,1,0,0:0:0:0:
32,192,17707,1,0,0:0:0:0:
256,32,18111,1,0,0:0:0:0:
328,128,18515,1,0,0:0:0:0:
328,256,18919,1,0,0:0:0:0:
184,256,19323,1,0,0:0:0:0:
184,128,19727,1,0,0:0:0:0:
16,128,20131,5,0,0:0:0:0:
48,96,20232,1,0,0:0:0:0:
80,128,20333,1,0,0:0:0:0:
160,128,20535,5,0,0:0:0:0:
192,96,20636,1,0,0:0:0:0:
224,128,20737,1,0,0:0:0:0:
304,128,20939,5,0,0:0:0:0:
336,96,21040,1,0,0:0:0:0:
368,128,21141,1,0,0:0:0:0:
448,128,21343,5,0,0:0:0:0:
448,128,21444,1,0,0:0:0:0:
448,128,21545,1,0,0:0:0:0:
448,208,21747,6,0,L|448:280,1,70
392,352,22151,2,0,L|392:280,1,70
336,208,22555,2,0,L|336:280,1,70
280,208,22959,2,0,L|280:288,1,70
232,208,23363,5,0,0:0:0:0:
232,40,23767,1,0,0:0:0:0:
232,120,24172,1,0,0:0:0:0:
400,120,24576,1,0,0:0:0:0:
400,288,24980,1,0,0:0:0:0:
400,200,25384,1,0,0:0:0:0:
400,368,25788,1,0,0:0:0:0:
400,200,26192,1,0,0:0:0:0:
400,32,26596,6,0,L|328:32,1,70
330,32,27000,2,0,L|256:32,1,70
260,32,27404,2,0,L|184:32,1,70
190,32,27808,2,0,L|120:32,1,70
88,112,28212,2,0,P|20:178|84:248,1,210
160,248,29020,2,0,P|224:176|144:112,1,210
256,192,29828,5,0,0:0:0:0:
256,24,30232,1,0,0:0:0:0:
256,192,30636,1,0,0:0:0:0:
424,192,31040,1,0,0:0:0:0:
256,192,31444,1,0,0:0:0:0:
256,360,31848,1,0,0:0:0:0:
256,192,32252,1,0,0:0:0:0:
88,192,32656,1,0,0:0:0:0:
128,32,33060,6,0,L|72:88,1,70
240,128,33464,2,0,L|184:184,1,70
136,128,33868,2,0,L|186:79,1,70
256,232,34273,2,0,L|305:182,1,70
304,182,34677,2,0,L|256:232,1,70
184,80,35081,2,0,L|128:136,1,70
192,176,35485,2,0,L|248:120,1,70
72,80,35889,2,0,L|128:24,1,70
208,40,36293,5,0,0:0:0:0:
376,40,36697,1,0,0:0:0:0:
208,96,37101,1,0,0:0:0:0:
376,96,37505,1,0,0:0:0:0:
208,152,37909,1,0,0:0:0:0:
376,152,38313,1,0,0:0:0:0:
208,208,38717,1,0,0:0:0:0:
376,208,39121,1,0,0:0:0:0:
256,88,39525,6,0,L|184:88,1,70
240,152,39929,2,0,L|312:152,1,70
256,216,40333,2,0,L|184:216,1,70
240,280,40737,2,0,L|312:280,1,70
392,280,41141,2,0,P|424:248|408:224,1,70
400,152,41545,2,0,P|376:184|344:176,1,70
304,104,41949,2,0,P|288:64|248:80,1,70
232,144,42353,2,0,P|200:176|168:160,1,70
168,88,42757,5,0,0:0:0:0:
88,88,42959,1,0,0:0:0:0:
24,144,43161,1,0,0:0:0:0:
24,224,43363,1,0,0:0:0:0:
88,280,43565,1,0,0:0:0:0:
168,280,43767,1,0,0:0:0:0:
240,232,43969,1,0,0:0:0:0:
240,144,44172,1,0,0:0:0:0:
344,88,44374,5,0,0:0:0:0:
424,88,44576,1,0,0:0:0:0:
488,144,44778,1,0,0:0:0:0:
488,224,44980,1,0,0:0:0:0:
424,280,45182,1,0,0:0:0:0:
344,280,45384,1,0,0:0:0:0:
272,232,45586,1,0,0:0:0:0:
272,144,45789,1,0,0:0:0:0:
344,88,45990,6,0,L|256:88,1,70
232,88,46293,1,0,0:0:0:0:
192,88,46394,2,0,L|192:184,1,70
192,200,46697,1,0,0:0:0:0:
232,200,46798,2,0,L|312:200,1,70
344,200,47101,1,0,0:0:0:0:
344,158,47202,2,0,L|344:69,1,70
344,48,47505,1,0,0:0:0:0:
304,48,47606,5,0,0:0:0:0:
304,48,47808,1,0,0:0:0:0:
224,48,48010,1,0,0:0:0:0:
224,48,48212,1,0,0:0:0:0:
144,48,48414,1,0,0:0:0:0:
144,48,48616,1,0,0:0:0:0:
64,48,48818,1,0,0:0:0:0:
64,48,49020,1,0,0:0:0:0:
16,120,49222,5,0,0:0:0:0:
184,120,49626,1,0,0:0:0:0:
16,120,50030,1,0,0:0:0:0:
344,120,50434,1,0,0:0:0:0:
344,288,50838,6,0,L|344:216,1,70
274,218,51242,2,0,L|346:218,1,70
344,144,51646,2,0,L|344:216,1,70
416,216,52050,2,0,L|336:216,1,70
344,296,52454,5,0,0:0:0:0:
264,296,52656,1,0,0:0:0:0:
264,216,52858,1,0,0:0:0:0:
184,216,53060,1,0,0:0:0:0:
184,136,53262,1,0,0:0:0:0:
104,136,53464,1,0,0:0:0:0:
104,56,53666,1,0,0:0:0:0:
104,136,53868,1,0,0:0:0:0:
104,56,54071,6,0,L|176:56,1,70
176,136,54475,1,0,0:0:0:0:
256,136,54677,1,0,0:0:0:0:
256,216,54879,1,0,0:0:0:0:
336,216,55081,1,0,0:0:0:0:
336,296,55283,2,0,L|264:296,1,70
184,296,55687,6,0,L|128:248,1,70
184,192,56091,2,0,L|256:256,1,70
184,296,56495,1,0,0:0:0:0:
128,248,56697,1,0,0:0:0:0:
184,192,56899,1,0,0:0:0:0:
236,238,57101,1,0,0:0:0:0:
304,304,57303,6,0,P|448:192|296:40,1,420
256,192,58919,12,0,61747,0:0:0:0:
351,18,62151,6,0,B|117:18|117:18|117:165|117:165|336:195|429:278|394:400|80:368,1,980
256,192,65384,12,0,68212,0:0:0:0:
332,158,68616,6,0,B|146:278|-144:96|244:-159|662:-137|332:290|160:376,1,980
256,192,71848,12,0,74677,0:0:0:0:
134,56,75081,6,0,L|136:328,1,251.999992309571
234,120,75889,2,0,B|227:0|547:6|227:298|227:298|405:298,1,630
256,192,78313,12,0,81141,0:0:0:0:
104,216,81545,5,0,0:0:0:0:
184,216,81747,1,0,0:0:0:0:
144,288,81949,1,0,0:0:0:0:
64,288,82151,1,0,0:0:0:0:
24,216,82353,1,0,0:0:0:0:
64,144,82555,1,0,0:0:0:0:
144,144,82757,1,0,0:0:0:0:
224,144,82959,1,0,0:0:0:0:
264,72,83161,5,0,0:0:0:0:
344,72,83363,1,0,0:0:0:0:
424,72,83565,1,0,0:0:0:0:
464,144,83767,1,0,0:0:0:0:
424,216,83969,1,0,0:0:0:0:
344,216,84171,1,0,0:0:0:0:
304,144,84373,1,0,0:0:0:0:
384,144,84575,1,0,0:0:0:0:
384,304,84778,6,0,L|136:304,1,245
72,304,85586,1,0,0:0:0:0:
72,240,85687,2,0,L|72:64,1,175
136,64,86394,6,0,L|384:64,1,245
448,64,87202,1,0,0:0:0:0:
448,128,87303,2,0,L|448:304,1,175
320,224,88010,5,0,0:0:0:0:
288,248,88111,1,0,0:0:0:0:
248,224,88212,1,0,0:0:0:0:
216,248,88313,1,0,0:0:0:0:
176,224,88414,1,0,0:0:0:0:
144,248,88515,1,0,0:0:0:0:
112,216,88616,1,0,0:0:0:0:
80,248,88717,1,0,0:0:0:0:
48,216,88818,2,0,B|128:136|128:136|64:64,1,210
144,64,89626,6,0,B|192:64|192:64|264:136|264:136|328:136,1,210
328,64,90434,2,0,B|264:64|264:64|192:136|192:136|144:136,1,210
144,216,91242,5,0,0:0:0:0:
144,216,91444,1,0,0:0:0:0:
216,168,91646,1,0,0:0:0:0:
216,168,91848,1,0,0:0:0:0:
288,120,92050,1,0,0:0:0:0:
288,120,92252,1,0,0:0:0:0:
360,72,92454,1,0,0:0:0:0:
360,72,92656,1,0,0:0:0:0:
360,152,92858,5,0,0:0:0:0:
288,200,93060,1,0,0:0:0:0:
216,248,93262,1,0,0:0:0:0:
144,296,93464,1,0,0:0:0:0:
144,296,93666,5,0,0:0:0:0:
216,248,93868,1,0,0:0:0:0:
288,200,94071,1,0,0:0:0:0:
360,152,94273,1,0,0:0:0:0:
