osu file format v5

[General]
AudioFilename: Katamari Damacy - Lonely Rolling Star.mp3
AudioLeadIn: 0
PreviewTime: 84924
Countdown: 1
SampleSet: Normal
StackLeniency: 0.7
Mode: 0
LetterboxInBreaks: 1
EditorBookmarks: 23528,119528

[Metadata]
Title:LONELY ROLLING STAR
Artist:Yohihito Yano, Saki Kabata
Creator:MetalMario201
Version:Normal
Source:Katamari Damacy
Tags:

[Difficulty]
HPDrainRate:5
CircleSize:5
OverallDifficulty:4
SliderMultiplier:1
SliderTickRate:1

[Events]
//Background and Video events
0,0,"wp_yuruyuru_l.jpg"
//Break Periods
2,67316,75855
2,111257,119090
2,142669,152796
//Storyboard Layer 0 (Background)
//Storyboard Layer 1 (Failing)
//Storyboard Layer 2 (Passing)
//Storyboard Layer 3 (Foreground)
//Storyboard Sound Samples
//Background Colour Transformations
3,100,163,162,255

[TimingPoints]
940,352.941176470588,4,1,0,100,1
131175,352.941176470588,4,2,0,100,0
139645,352.941176470588,4,1,0,70,0
170351,352.941176470588,4,1,0,100,0

[Colours]
Combo1 : 250,224,85
Combo2 : 116,222,74
Combo3 : 26,200,255
Combo4 : 250,94,115

[HitObjects]
256,192,23528,5,2
184,96,24234,2,8,B|256:60|331:97,1,150
328,288,27057,2,8,B|256:324|181:287,1,150
96,264,29881,6,8,B|60:192|97:117,1,150
416,120,32704,2,8,B|452:192|415:267,1,150
328,96,35528,6,8,B|256:60|181:97,1,150,10|10
224,144,36410,1,0
288,144,36763,1,2
304,224,37292,2,2,B|255:199|206:226,1,100
160,120,38351,6,8,B|124:192|161:267,1,150,10|10
208,224,39234,1,0
208,160,39587,1,2
288,144,40116,2,2,B|263:193|290:242,1,100
184,288,41175,6,8,B|256:324|331:287,1,150,10|10
288,240,42057,1,0
224,240,42410,1,2
208,160,42940,2,2,B|257:185|306:158,1,100
352,264,43822,5,0
352,264,43998,2,8,B|388:192|351:117,1,150,10|10
304,160,44881,1,0
304,224,45234,1,2
224,240,45763,2,2,B|249:191|222:142,1,100
152,72,46822,6,8,B|90:136|214:136|151:202,1,150
120,256,47704,1,0
192,256,48057,1,2
288,256,48587,1,0
424,88,49645,6,8,B|360:26|360:150|294:87,1,150
240,128,50528,1,0
240,192,50881,1,2
240,288,51410,1,0
360,312,52469,6,8,B|422:248|298:248|361:182,1,150
392,128,53351,1,0
328,128,53704,1,2
224,128,54234,1,0
88,296,55292,6,8,B|176:372|176:221|269:299,1,200
288,232,56351,1,0
288,232,56528,1,0
232,192,56881,1,0
232,192,57057,1,2
256,128,57410,1,2
416,118,58116,6,0,B|416:270,1,150
352,264,58998,2,8,B|316:192|353:117,2,150
256,336,60940,5,0
256,336,61116,1,0
256,336,61292,1,0
256,336,61469,1,0
320,304,61822,2,8,B|288:259|224:259|189:308,2,150
96,266,63763,6,0,B|96:114,1,150
160,120,64645,2,8,B|196:192|159:267,2,150
232,48,66587,6,0,B|304:48,3,50
256,72,77175,5,0
184,168,77881,2,8,B|256:205|334:166,1,150
280,248,78940,1,0
192,248,79469,2,0,B|129:259|90:225,1,100
112,192,79998,6,8,B|112:64|288:64,3,200
352,128,82822,2,2,B|352:336|256:336|160:336|160:192,1,400,2|10
160,104,84763,2,0,B|174:29|269:45|283:132|217:155,1,200
192,160,85645,6,0,B|144:256|207:320|384:320,1,300,8|0
400,264,87057,2,0,B|432:232|421:113|320:72,2,200
312,248,88998,2,0,B|313:116|165:50,1,250,8|0
104,104,90410,2,2,B|40:168|58:249,1,150
112,272,91292,6,0,B|224:256|224:144|224:80|304:64,1,300,8|0
320,128,92704,2,0,B|438:80|449:233,1,200
384,208,93763,1,0
320,192,94116,2,0,B|326:287|209:313,2,150
168,176,95881,1,8
224,208,96234,1,8
320,160,96940,6,0,B|368:256|305:320|128:320,1,300,8|0
112,264,98351,2,0,B|80:232|91:113|192:72,2,200
200,248,100292,2,0,B|199:116|347:50,1,250,8|0
408,88,101704,2,2,B|472:152|454:233,1,150,2|2
400,256,102587,6,0,B|288:235|288:142|288:76|186:64,1,300,8|0
128,64,103998,2,0,B|128:173|208:194,2,150
64,64,105410,2,0,B|16:251|173:327,1,300
176,256,106822,2,0,B|250:281|215:333|274:324|427:333|464:288,1,300
256,192,108234,12,0,111057
80,192,120410,6,0,B|128:168|179:193,1,100,8|2
216,112,121292,1,0
272,72,121645,2,2,B|403:37|336:181,1,150
464,216,123234,6,0,B|416:240|365:215,1,100,8|2
296,272,124116,1,0
240,312,124469,2,2,B|109:347|176:203,1,150
208,80,126057,6,0,B|256:56|307:81,1,100,8|2
256,160,126940,1,0
192,152,127292,1,0
144,224,127822,2,0,B|174:317|304:338|355:310,1,250
416,224,129410,2,2,B|412:138|291:138|288:229,2,200
112,64,131528,6,8,B|65:89|84:148|144:152|161:102,1,150
400,320,132940,2,0,B|447:295|428:236|368:232|351:282,1,150
400,64,134351,6,8,B|447:89|428:148|368:152|351:102,1,150
112,320,135763,2,0,B|65:295|84:236|144:232|161:282,1,150
216,56,137175,6,2,B|153:120|279:120|214:186,1,150,2|10
296,328,138587,2,0,B|359:264|233:264|298:198,1,150
160,192,139998,6,0,B|196:224|231:240|256:125|280:240|316:224|346:190,1,200,0|2
432,200,141234,1,2
440,136,141587,1,2
384,104,141940,2,2,B|384:40|240:40,1,150
408,192,154116,5,8
408,192,154292,1,8
344,192,154645,2,8,B|256:107|166:194,1,200
72,192,155881,1,0
88,256,156234,2,0,B|119:354|213:284|286:217|356:282,1,300,8|0
400,232,157645,2,8,B|413:136|240:136,2,200
336,216,159410,1,8
272,200,159763,1,8
216,232,160116,1,8
160,192,160469,2,2,B|135:90|234:96,2,150,10|2|10
96,184,161881,5,0
56,288,162587,2,0,B|112:346|202:336,1,150
232,248,163645,1,0
320,248,164175,2,0,B|383:259|422:225,1,100
400,192,164704,6,8,B|400:64|224:64,3,200
160,128,167528,2,2,B|160:336|256:336|352:336|352:192,1,400,2|10
352,104,169469,2,0,B|338:29|243:45|229:132|295:155,1,200
320,160,170351,6,0,B|368:256|305:320|128:320,1,300,8|0
112,264,171763,2,0,B|80:232|91:113|192:72,2,200
200,248,173704,2,0,B|199:116|347:50,1,250,8|0
408,104,175116,2,2,B|472:168|454:249,1,150
400,272,175998,6,0,B|288:256|288:144|288:80|208:64,1,300,8|0
192,128,177410,2,0,B|74:80|63:233,1,200
128,208,178469,1,0
192,192,178822,2,0,B|186:287|303:313,2,150
344,176,180587,1,8
288,208,180940,1,8
192,160,181645,6,0,B|144:256|207:320|384:320,1,300,8|0
400,256,183057,2,0,B|432:224|421:105|320:64,2,200
312,248,184998,2,0,B|313:116|165:50,1,250,8|0
104,88,186410,2,2,B|40:152|58:233,1,150,2|2
112,256,187292,6,0,B|224:235|224:142|224:76|326:64,1,300,8|0
384,64,188704,2,0,B|384:173|304:194,2,150
448,64,190116,2,0,B|496:251|339:327,1,300
320,264,191528,2,0,B|255:289|323:368|188:345|161:275,1,200
64,192,192940,6,0,B|43:27|189:24|271:52,1,300,8|0
224,104,194351,2,0,B|125:176|200:294,2,200
320,128,196292,2,0,B|464:128|449:261|336:305,1,250,8|0
288,256,197704,2,2,B|240:256|248:328|160:312|168:264,1,150
192,208,198587,6,0,B|29:228|40:59|212:41,1,300,8|0
240,48,199998,1,2
296,80,200351,1,8
248,128,200704,1,2
304,160,201057,1,8
368,160,201410,2,0,B|392:215|336:274|272:242,1,150
208,192,202469,2,2,B|152:296,1,100
112,240,203175,2,2,B|56:344,2,100,10|2|10
48,224,204234,6,0,B|21:35|240:48,1,300,8|0
272,96,205645,2,0,B|301:206|180:243,2,150
336,96,207057,1,8
408,160,207587,2,0,B|496:153|511:299|368:313,1,250,8|0
280,328,208998,2,2,B|224:360|160:296|200:248,1,150
256,240,209881,6,0,B|335:95|218:17|97:97,1,300,8|0
80,128,211292,2,0,B|44:200|85:282,2,150
144,144,212704,2,0,B|172:295|397:253,1,300
384,192,214116,2,0,B|175:235|186:109|237:24,1,300
256,192,215528,12,0,221175
