osu file format v5

[General]
AudioFilename: Katamari Damacy - Lonely Rolling Star.mp3
AudioLeadIn: 0
PreviewTime: 84924
Countdown: 1
SampleSet: Normal
StackLeniency: 0.7
Mode: 0
LetterboxInBreaks: 1
EditorBookmarks: 23528,119528

[Metadata]
Title:LONELY ROLLING STAR
Artist:Yohihito Yano, Saki Kabata
Creator:MetalMario201
Version:Easy
Source:Katamari Damacy
Tags:

[Difficulty]
HPDrainRate:3
CircleSize:4
OverallDifficulty:2
SliderMultiplier:1
SliderTickRate:1

[Events]
//Background and Video events
0,0,"wp_yuruyuru_l.jpg"
//Break Periods
2,67316,75615
2,111257,118850
2,142669,152556
//Storyboard Layer 0 (Background)
//Storyboard Layer 1 (Failing)
//Storyboard Layer 2 (Passing)
//Storyboard Layer 3 (Foreground)
//Storyboard Sound Samples
//Background Colour Transformations
3,100,163,162,255

[TimingPoints]
940,352.941176470588,4,1,0,100,1
131175,352.941176470588,4,2,0,100,0
139645,352.941176470588,4,1,0,70,0
170351,352.941176470588,4,1,0,100,0

[Colours]
Combo1 : 250,224,85
Combo2 : 116,222,74
Combo3 : 26,200,255
Combo4 : 250,94,115

[HitObjects]
256,192,23528,5,2
181,96,24234,2,8,B|333:96,1,150
331,288,27057,2,8,B|179:288,1,150
96,267,29881,6,8,B|96:115,1,150
416,117,32704,2,8,B|416:269,1,150
331,96,35528,6,0,B|179:96,1,150,2|2
296,168,36763,1,0
296,168,37292,1,2
181,288,38351,2,0,B|333:288,1,150,2|2
216,216,39587,1,0
216,216,40116,1,2
416,267,41175,6,0,B|416:115,1,150,2|2
296,192,42410,1,0
296,192,42940,1,2
96,117,43998,2,0,B|96:269,1,150,2|2
216,192,45234,1,0
216,192,45763,1,2
288,192,46116,1,8
152,72,46822,6,8,B|90:136|214:136|151:202,1,150
280,264,48057,1,2
352,264,48410,1,0
352,264,48587,1,0
424,88,49645,6,8,B|360:26|360:150|294:87,1,150
200,192,50881,1,2
200,264,51234,1,0
200,264,51410,1,0
360,312,52469,6,8,B|422:248|298:248|361:182,1,150
232,120,53704,1,2
160,120,54057,1,0
160,120,54234,1,0
88,296,55292,6,8,B|176:372|176:221|269:299,1,200
368,296,56528,2,2,B|361:197|272:192,1,150
208,192,57410,1,10
184,48,58116,5,2
256,48,58469,1,0
328,48,58822,1,0
376,120,59175,2,0,B|320:120,1,50,0|8
256,120,59704,2,0,B|200:120,1,50,0|8
136,120,60234,1,8
184,248,60940,5,2
256,248,61292,1,0
328,248,61645,1,0
376,320,61998,2,0,B|320:320,1,50,0|8
256,320,62528,2,0,B|200:320,1,50,0|8
136,320,63057,1,8
184,192,63763,5,2
256,192,64116,1,0
328,192,64469,1,0
376,120,64822,2,0,B|320:120,1,50,0|8
256,120,65351,2,0,B|200:120,1,50,0|8
136,120,65881,1,8
224,248,66587,6,8,B|199:288|256:337|312:287|287:246,1,150
256,72,77175,5,2
184,168,77881,2,8,B|256:205|334:166,1,150
280,256,78940,1,0
136,232,79645,1,8
72,184,79998,5,8
136,56,80704,1,8
192,184,81410,1,8
256,56,82116,1,8
352,128,82822,2,2,B|352:336|256:336|160:336|160:192,1,400,2|10
256,96,84940,1,8
256,168,85292,1,8
184,152,85645,5,8
440,264,87057,1,0
440,120,87763,1,0
336,216,88469,2,8,B|296:149|218:118,1,150
64,192,89881,2,2,B|60:92|116:54,2,150
104,256,91292,5,8
352,120,92704,1,0
440,232,93410,1,0
296,224,94116,2,0,B|302:319|185:345,2,150
192,128,95881,1,8
192,128,96234,1,8
328,152,96940,5,8
72,264,98351,1,0
72,120,99057,1,0
176,216,99763,2,8,B|216:149|294:118,1,150
448,192,101175,2,2,B|452:92|396:54,2,150
408,256,102587,5,8
160,120,103998,1,0
88,192,104528,1,0
160,264,105057,1,0
216,208,105410,2,0,B|230:323|397:301|414:164|357:90|254:88,1,400
256,192,108234,12,0,111057
224,48,120410,5,8
296,48,120763,1,2
368,120,121292,1,2
296,120,121645,2,2,B|144:120,1,150,2|10
288,264,123234,5,8
216,264,123587,1,2
144,336,124116,1,2
216,336,124469,2,2,B|368:336,1,150,2|10
208,192,126057,5,8
280,192,126410,1,2
384,192,126940,1,2
456,192,127292,2,2,B|453:174|453:174|431:106|341:122,1,150
168,120,128704,1,0
204,56,129057,1,0
240,120,129410,2,0,B|240:328,2,200,0|0|8
104,96,131528,6,8,B|209:239,1,150
408,288,132940,2,0,B|303:145,1,150
104,288,134351,6,8,B|209:145,1,150
408,96,135763,2,0,B|303:239,1,150
216,56,137175,6,2,B|216:208,1,150,2|10
296,328,138587,2,0,B|296:176,1,150
160,120,139998,6,0,B|196:88|231:72|256:187|280:72|316:88|346:122,1,200,0|2
368,224,141234,1,2
432,184,141587,1,2
448,112,141940,1,8
368,48,142469,1,2
256,48,154116,5,0
184,128,154645,1,8
256,152,154998,1,8
328,176,155351,1,8
256,256,155881,1,0
184,256,156234,1,8
416,232,157645,2,8,B|440:119|311:78,2,200
280,208,159763,1,8
216,248,160116,1,8
168,192,160469,2,2,B|141:103|189:43,2,150,10|2|10
96,184,161881,5,0
48,304,162587,2,0,B|120:344|210:336,1,150
240,240,163645,1,0
376,232,164351,1,8
440,184,164704,5,8
376,56,165410,1,8
320,184,166116,1,8
256,56,166822,1,8
160,128,167528,2,2,B|160:336|256:336|352:336|352:192,1,400,2|10
256,96,169645,1,8
256,168,169998,1,8
328,152,170351,5,8
72,264,171763,1,0
72,120,172469,1,0
176,216,173175,2,8,B|216:149|294:118,1,150
448,192,174587,2,2,B|452:92|396:54,2,150
408,256,175998,5,8
160,120,177410,1,0
72,232,178116,1,0
216,224,178822,2,0,B|210:319|327:345,2,150
320,128,180587,1,8
320,128,180940,1,8
184,152,181645,5,8
440,264,183057,1,0
440,120,183763,1,0
336,216,184469,2,8,B|296:149|218:118,1,150
64,192,185881,2,2,B|60:92|116:54,2,150
64,264,187292,5,8
304,128,188704,1,0
376,200,189234,1,0
304,272,189763,1,0
248,216,190116,2,0,B|234:331|67:309|50:172|107:98|210:96,1,400
312,184,192234,1,0
448,192,192940,6,8,B|493:27|302:24|154:75,1,400,8|8
288,128,195057,1,0
192,232,195763,1,0
160,128,196292,2,0,B|16:128|31:261|144:305,1,250,8|0
208,328,197704,2,2,B|261:355|311:348|320:276,1,150
320,208,198587,6,0,B|483:228|472:59|300:41,1,300,8|0
264,48,199998,1,2
232,184,200704,1,2
96,208,201410,2,0,B|72:263|128:322|192:290,1,150
344,184,203175,1,8
320,256,203528,1,8
464,224,204234,6,8,B|501:79|378:19|189:49,1,400,8|8
192,184,206351,1,0
120,64,207057,1,0
104,160,207587,2,0,B|16:153|1:299|144:313,1,250,8|0
232,328,208998,2,2,B|288:360|352:296|312:248,1,150
248,240,209881,6,0,B|72:234|119:24|221:13|316:83,1,400,8|0
408,48,211822,1,0
440,144,212351,1,0
368,144,212704,2,0,B|340:295|115:253,1,300
120,184,214116,2,0,B|333:229|316:111|277:44,1,300
256,192,215528,12,0,221175
