osu file format v12

[General]
AudioFilename: whatdoesfox.mp3
AudioLeadIn: 0
PreviewTime: 115071
Countdown: 0
SampleSet: Normal
StackLeniency: 0.7
Mode: 0
LetterboxInBreaks: 0
WidescreenStoryboard: 1

[Editor]
Bookmarks: 161893
DistanceSpacing: 1
BeatDivisor: 4
GridSize: 4

[Metadata]
Title:The Fox
TitleUnicode:The Fox
Artist:Ylvis
ArtistUnicode:Ylvis
Creator:W h i t e
Version:Normal
Source:
Tags:I KVELD MED YLVIS what does the fox say
BeatmapID:310670
BeatmapSetID:119980

[Difficulty]
HPDrainRate:4
CircleSize:3
OverallDifficulty:4
ApproachRate:4
SliderMultiplier:1.1
SliderTickRate:2

[Events]
//Background and Video events
0,0,"bg.jpg",0,0
Video,0,"video.avi"
//Break Periods
2,148768,160573
//Storyboard Layer 0 (Background)
//Storyboard Layer 1 (Fail)
//Storyboard Layer 2 (Pass)
//Storyboard Layer 3 (Foreground)
//Storyboard Sound Samples
//Background Colour Transformations
3,100,163,162,255

[TimingPoints]
4443,468.75,4,2,1,70,1,0
24950,-100,4,2,2,40,0,0
25185,-100,4,2,1,70,0,0
40068,-100,4,1,1,30,0,0
41005,-100,4,2,1,70,0,0
41474,-100,4,2,1,70,0,0
41943,-100,4,2,1,40,0,1
42177,-100,4,2,1,70,0,1
42880,-100,4,2,1,40,0,1
42939,-100,4,2,1,70,0,1
43818,-100,4,2,1,40,0,1
43876,-100,4,2,1,70,0,1
44755,-100,4,2,1,40,0,1
44814,-100,4,2,1,70,0,1
45693,-100,4,2,1,40,0,1
45751,-100,4,2,1,70,0,1
46630,-100,4,2,1,40,0,1
46689,-100,4,2,1,70,0,1
46982,-100,4,2,2,40,0,1
47216,-100,4,2,1,70,0,1
47568,-100,4,2,1,40,0,1
47626,-100,4,2,1,70,0,1
48505,-100,4,2,1,40,0,1
48564,-100,4,2,1,70,0,1
49443,-100,4,2,1,40,0,1
49501,-100,4,2,1,70,0,1
50380,-100,4,2,1,40,0,1
50439,-100,4,2,1,70,0,1
51318,-100,4,2,1,40,0,1
51376,-100,4,2,1,70,0,1
52255,-100,4,2,1,40,0,1
52314,-100,4,2,1,70,0,1
53193,-100,4,2,1,40,0,1
53251,-100,4,2,1,70,0,1
54130,-100,4,2,1,40,0,1
54189,-100,4,2,1,70,0,1
54482,-100,4,2,2,40,0,1
54716,-100,4,2,1,70,0,1
55068,-100,4,2,1,40,0,1
55126,-100,4,2,1,70,0,1
56005,-100,4,2,1,40,0,1
56064,-100,4,2,1,70,0,1
56474,-100,4,2,1,70,0,0
56943,-100,4,2,1,40,0,1
57001,-100,4,2,1,70,0,1
57880,-100,4,2,1,40,0,1
57939,-100,4,2,1,70,0,1
58818,-100,4,2,1,40,0,1
58876,-100,4,2,1,70,0,1
59755,-100,4,2,1,40,0,1
59814,-100,4,2,1,70,0,1
60693,-100,4,2,1,40,0,1
60751,-100,4,2,1,70,0,1
61630,-100,4,2,1,40,0,1
61689,-100,4,2,1,70,0,1
61982,-100,4,2,2,40,0,1
62216,-100,4,2,1,70,0,1
62568,-100,4,2,1,40,0,1
62626,-100,4,2,1,70,0,1
63505,-100,4,2,1,40,0,1
63564,-100,4,2,1,70,0,1
64443,-100,4,2,1,40,0,1
64501,-100,4,2,1,70,0,1
65380,-100,4,2,1,40,0,1
65439,-100,4,2,1,70,0,1
66156,-100,4,2,1,70,0,1
66318,-100,4,2,1,40,0,1
66376,-100,4,2,1,70,0,1
67255,-100,4,2,1,40,0,1
67314,-100,4,2,1,70,0,1
68193,-100,4,2,1,40,0,1
68251,-100,4,2,1,70,0,1
69130,-100,4,2,1,40,0,1
69189,-100,4,2,1,70,0,1
69482,-100,4,2,2,40,0,1
69716,-100,4,2,1,70,0,1
70068,-100,4,2,1,40,0,1
70126,-100,4,2,1,70,0,1
71005,-100,4,2,1,40,0,1
71064,-100,4,2,1,70,0,1
71943,-100,4,2,1,70,0,0
84950,-100,4,2,2,40,0,0
85185,-100,4,2,1,70,0,0
102294,-100,4,2,2,40,0,0
102528,-100,4,2,1,70,0,0
104169,-100,4,2,2,40,0,0
104403,-100,4,2,1,70,0,0
106044,-100,4,2,2,40,0,0
106278,-100,4,2,1,70,0,0
109443,-100,4,2,1,70,0,0
115068,-100,4,1,1,30,0,0
116005,-100,4,2,1,70,0,0
116474,-100,4,2,1,70,0,0
116943,-100,4,2,1,40,0,1
117001,-100,4,2,1,70,0,1
117880,-100,4,2,1,40,0,1
117939,-100,4,2,1,70,0,1
118818,-100,4,2,1,40,0,1
118876,-100,4,2,1,70,0,1
119755,-100,4,2,1,40,0,1
119814,-100,4,2,1,70,0,1
120693,-100,4,2,1,40,0,1
120751,-100,4,2,1,70,0,1
121630,-100,4,2,1,40,0,1
121689,-100,4,2,1,70,0,1
121982,-100,4,2,2,40,0,1
122216,-100,4,2,1,70,0,1
122568,-100,4,2,1,40,0,1
122626,-100,4,2,1,70,0,1
123505,-100,4,2,1,40,0,1
123564,-100,4,2,1,70,0,1
124443,-100,4,2,1,40,0,1
124501,-100,4,2,1,70,0,1
125380,-100,4,2,1,40,0,1
125439,-100,4,2,1,70,0,1
126318,-100,4,2,1,40,0,1
126376,-100,4,2,1,70,0,1
127255,-100,4,2,1,40,0,1
127314,-100,4,2,1,70,0,1
128193,-100,4,2,1,40,0,1
128251,-100,4,2,1,70,0,1
129130,-100,4,2,1,40,0,1
129189,-100,4,2,1,70,0,1
129482,-100,4,2,2,40,0,1
129716,-100,4,2,1,70,0,1
130068,-100,4,2,1,40,0,1
130126,-100,4,2,1,70,0,1
131005,-100,4,2,1,40,0,1
131064,-100,4,2,1,70,0,1
131474,-100,4,2,1,70,0,0
131943,-100,4,2,1,40,0,1
132001,-100,4,2,1,70,0,1
132880,-100,4,2,1,40,0,1
132939,-100,4,2,1,70,0,1
133818,-100,4,2,1,40,0,1
133876,-100,4,2,1,70,0,1
134755,-100,4,2,1,40,0,1
134814,-100,4,2,1,70,0,1
135693,-100,4,2,1,40,0,1
135751,-100,4,2,1,70,0,1
136630,-100,4,2,1,40,0,1
136689,-100,4,2,1,70,0,1
136982,-100,4,2,2,40,0,1
137216,-100,4,2,1,70,0,1
137568,-100,4,2,1,40,0,1
137626,-100,4,2,1,70,0,1
138505,-100,4,2,1,40,0,1
138564,-100,4,2,1,70,0,1
139443,-100,4,2,1,40,0,1
139501,-100,4,2,1,70,0,1
139794,-100,4,2,2,40,0,1
140028,-100,4,2,1,70,0,1
140380,-100,4,2,1,40,0,1
140439,-100,4,2,1,70,0,1
141318,-100,4,2,1,40,0,1
141376,-100,4,2,1,70,0,1
141669,-100,4,2,2,40,0,1
141903,-100,4,2,1,70,0,1
142255,-100,4,2,1,40,0,1
142314,-100,4,2,1,70,0,1
143193,-100,4,2,1,40,0,1
143251,-100,4,2,1,70,0,1
143544,-100,4,2,2,40,0,1
143778,-100,4,2,1,70,0,1
144130,-100,4,2,1,40,0,1
144189,-100,4,2,1,70,0,1
145068,-100,4,2,1,40,0,1
145126,-100,4,2,1,70,0,1
146005,-100,4,2,1,70,0,1
146893,468.75,4,1,1,40,1,0
161893,-100,4,1,1,20,0,0
164119,-100,4,2,2,20,0,0
164353,-100,4,1,1,20,0,0
165643,-100,4,1,1,25,0,0
167869,-100,4,2,2,25,0,0
168103,-100,4,1,1,25,0,0
169393,-100,4,1,1,30,0,0
171619,-100,4,2,2,30,0,0
171853,-100,4,1,1,30,0,0
173143,-100,4,1,1,35,0,0
176893,-100,4,1,1,40,0,1
191424,-100,4,1,1,40,0,0
191893,-100,4,1,1,40,0,1
206893,-100,4,1,1,40,0,0
207010,-100,4,2,1,5,0,0

[Colours]
Combo1 : 150,118,203
Combo2 : 255,128,64
Combo3 : 181,217,38
Combo4 : 120,133,248

[HitObjects]
204,128,11943,2,0,P|256:112|308:128,2,110,2|8|2,0:0|0:0|0:0,0:0:0:0:
112,192,13349,1,8,0:0:0:0:
204,256,13818,2,0,P|256:272|308:256,1,110,2|8,0:0|0:0,0:0:0:0:
396,192,14755,2,0,L|400:80,2,110,2|8|2,0:0|0:0|0:0,0:0:0:0:
308,256,16161,1,8,0:0:0:0:
276,152,16630,6,0,P|224:140|168:152,1,110,2|8,0:0|0:0,0:0:0:0:
108,244,17568,2,0,P|147:280|201:298,1,110,2|8,0:0|0:0,0:0:0:0:
256,300,18271,1,0,0:0:0:0:
311,297,18505,2,0,P|363:281|404:244,2,110,2|8|2,0:0|0:0|0:0,0:0:0:0:
308,188,19911,1,8,0:0:0:0:
400,128,20380,6,0,P|360:90|307:77,1,110,2|8,0:0|0:0,0:0:0:0:
212,132,21318,1,2,0:0:0:0:
308,188,21786,1,8,0:0:0:0:
212,244,22255,2,0,P|159:231|119:193,1,110,2|8,0:0|0:0,0:0:0:0:
120,84,23193,6,0,L|8:80,2,110,2|8|2,0:0|0:0|0:0,0:0:0:0:
228,88,24599,1,8,0:0:0:0:
280,68,24833,2,0,P|336:64|384:84,1,110
432,116,25536,1,8,0:0:0:0:
468,156,25771,2,0,L|484:44,2,110
492,208,26943,5,2,0:0:0:0:
436,300,27411,1,2,0:0:0:0:
328,316,27880,2,0,L|272:320,2,55,2|0|2,0:0|0:0|0:0,0:0:0:0:
332,208,28818,5,2,0:0:0:0:
256,128,29286,1,2,0:0:0:0:
180,208,29755,2,0,L|124:208,2,55,2|0|2,0:0|0:0|0:0,0:0:0:0:
148,104,30693,6,0,L|36:104,2,110,2|2|2,0:0|0:0|0:0,0:0:0:0:
256,128,32099,1,2,0:0:0:0:
364,104,32568,2,0,P|416:92|472:104,1,110,2|2,0:0|0:0,0:0:0:0:
420,200,33505,2,0,L|416:312,1,110,2|2,0:0|0:0,0:0:0:0:
312,344,34443,5,2,0:0:0:0:
204,324,34911,1,2,0:0:0:0:
124,248,35380,1,2,0:0:0:0:
88,144,35849,1,2,0:0:0:0:
196,164,36318,6,0,P|192:108|156:56,2,110,2|2|2,0:0|0:0|0:0,0:0:0:0:
124,248,37724,1,2,0:0:0:0:
232,272,38193,2,0,L|344:276,1,110,2|2,0:0|0:0,0:0:0:0:
440,324,39130,2,0,P|448:300|432:216,1,110,2|2,0:0|0:0,0:0:0:0:
352,144,40068,6,0,P|244:152|148:100,1,220
88,8,41474,1,0,0:0:0:0:
40,108,41943,6,0,L|48:220,1,110,0|2,1:0|0:0,0:0:0:0:
16,324,42880,2,0,P|72:328|124:296,1,110,0|2,1:0|0:0,0:0:0:0:
156,200,43818,5,0,1:0:0:0:
232,280,44286,1,2,0:0:0:0:
340,276,44755,2,0,L|452:272,1,110,0|2,1:0|0:0,0:0:0:0:
480,164,45693,5,0,1:0:0:0:
404,84,46161,1,2,0:0:0:0:
304,128,46630,2,0,P|236:100|100:136,1,220,0|0,1:0|1:0,0:0:0:0:
72,244,48036,6,0,L|60:300,2,55,2|0|0,0:0|0:0|1:0,0:0:0:0:
100,136,48974,1,2,0:0:0:0:
180,212,49443,6,0,P|232:200|288:208,1,110,0|2,1:0|0:0,0:0:0:0:
384,260,50380,1,0,1:0:0:0:
476,200,50849,1,2,0:0:0:0:
380,152,51318,6,0,P|392:112|380:40,1,110,0|2,1:0|0:0,0:0:0:0:
288,96,52255,1,0,1:0:0:0:
180,100,52724,1,2,0:0:0:0:
76,68,53193,6,0,L|68:180,1,110,0|2,1:0|0:0,0:0:0:0:
52,288,54130,2,0,B|112:292|152:252|152:252|208:236|260:264,1,220,0|0,1:0|1:0,0:0:0:0:
356,312,55536,6,0,L|352:368,2,55,2|0|2,0:0|0:0|0:0,0:0:0:0:
344,204,56474,1,2,0:0:0:0:
444,248,56943,5,0,1:0:0:0:
432,140,57411,1,2,0:0:0:0:
336,88,57880,2,0,P|280:92|228:80,1,110,0|2,1:0|0:0,0:0:0:0:
128,28,58818,5,0,1:0:0:0:
124,136,59286,1,2,0:0:0:0:
220,192,59755,2,0,L|344:204,1,110,0|2,1:0|0:0,0:0:0:0:
440,212,60693,5,0,1:0:0:0:
380,300,61161,1,2,0:0:0:0:
272,300,61630,2,0,P|192:300|96:200,1,220,0|0,1:0|1:0,0:0:0:0:
92,96,63036,6,0,L|36:100,2,55,2|0|0,0:0|0:0|1:0,0:0:0:0:
204,88,63974,1,2,0:0:0:0:
304,132,64443,6,0,P|357:139|407:117,2,110,0|2|0,1:0|0:0|1:0,0:0:0:0:
204,88,65849,1,2,0:0:0:0:
212,196,66318,5,0,1:0:0:0:
112,148,66786,2,0,P|100:200|120:260,1,110,2|0,0:0|1:0,0:0:0:0:
212,304,67724,1,2,0:0:0:0:
308,248,68193,6,0,L|420:256,1,110,0|2,1:0|0:0,0:0:0:0:
480,164,69130,2,0,L|260:148,1,220,0|0,1:0|1:0,0:0:0:0:
152,140,70536,6,0,L|96:136,2,55,2|0|2,0:0|0:0|0:0,0:0:0:0:
257,162,71474,1,0,0:0:0:0:
308,256,71943,6,0,P|256:272|204:256,2,110,2|8|2,0:0|0:0|0:0,0:0:0:0:
400,192,73349,1,8,0:0:0:0:
308,128,73818,2,0,P|256:112|204:128,1,110,2|8,0:0|0:0,0:0:0:0:
116,192,74755,2,0,L|112:304,2,110,2|8|2,0:0|0:0|0:0,0:0:0:0:
204,128,76161,1,8,0:0:0:0:
236,232,76630,6,0,P|288:244|344:232,1,110,2|8,0:0|0:0,0:0:0:0:
404,140,77568,2,0,P|365:104|311:86,1,110,2|8,0:0|0:0,0:0:0:0:
256,84,78271,1,0,0:0:0:0:
201,87,78505,2,0,P|149:103|108:140,2,110,2|8|2,0:0|0:0|0:0,0:0:0:0:
204,196,79911,1,8,0:0:0:0:
112,256,80380,6,0,P|152:294|205:307,1,110,2|8,0:0|0:0,0:0:0:0:
300,252,81318,1,2,0:0:0:0:
204,196,81786,1,8,0:0:0:0:
300,140,82255,2,0,P|353:153|393:191,1,110,2|8,0:0|0:0,0:0:0:0:
392,300,83193,6,0,L|504:304,2,110,2|8|2,0:0|0:0|0:0,0:0:0:0:
284,296,84599,1,8,0:0:0:0:
232,316,84833,2,0,P|176:320|128:300,1,110
80,268,85536,1,8,0:0:0:0:
44,228,85771,2,0,L|28:340,2,110
20,176,86943,5,2,0:0:0:0:
256,84,87880,6,0,P|360:48|460:84,1,220,0|2,0:0|0:0,0:0:0:0:
459,300,89755,2,0,P|357:336|256:300,1,220,0|2,0:0|0:0,0:0:0:0:
84,84,91864,6,0,L|80:28,2,55
28,180,92802,1,0,0:0:0:0:
100,264,93271,1,0,0:0:0:0:
200,220,93739,1,0,0:0:0:0:
192,112,94208,2,0,L|188:56,1,55,0|2,0:0|0:0,0:0:0:0:
296,76,94911,5,2,0:0:0:0:
396,28,95380,2,0,P|404:104|388:140,1,110,2|2,0:0|0:0,0:0:0:0:
308,208,96318,1,2,0:0:0:0:
200,220,96786,1,2,0:0:0:0:
100,172,97255,6,0,P|92:248|108:284,1,110,2|2,0:0|0:0,0:0:0:0:
204,328,98193,2,0,L|316:320,1,110,2|2,0:0|0:0,0:0:0:0:
412,368,99130,2,0,P|420:344|404:260,1,110,2|2,0:0|0:0,0:0:0:0:
344,172,100068,6,0,L|456:168,2,110,2|2|2,0:0|0:0|0:0,0:0:0:0:
236,176,101474,1,2,0:0:0:0:
148,244,101943,6,0,P|128:152|224:64,1,220,2|2,0:0|0:0,0:0:0:0:
316,52,103349,1,2,0:0:0:0:
424,64,103818,6,0,L|412:284,1,220,2|2,0:0|0:0,0:0:0:0:
320,344,105224,1,2,0:0:0:0:
256,256,105693,6,0,P|168:252|68:172,1,220,2|2,0:0|0:0,0:0:0:0:
40,64,107099,1,2,0:0:0:0:
148,40,107568,6,0,L|260:36,1,110,2|2,0:0|0:0,0:0:0:0:
308,136,108505,2,0,L|196:140,1,110,2|2,0:0|0:0,0:0:0:0:
88,148,109443,5,2,0:0:0:0:
148,240,109911,1,2,0:0:0:0:
256,268,110380,1,2,0:0:0:0:
364,240,110849,1,2,0:0:0:0:
424,148,111318,6,0,P|432:128|420:36,1,110,2|2,0:0|0:0,0:0:0:0:
328,96,112255,2,0,L|216:92,1,110,2|2,0:0|0:0,0:0:0:0:
108,88,113193,5,2,0:0:0:0:
44,180,113661,1,2,0:0:0:0:
156,188,114130,2,0,P|144:240|156:296,1,110,2|2,0:0|0:0,0:0:0:0:
248,236,115068,6,0,P|324:252|440:176,1,220
456,72,116474,1,0,0:0:0:0:
352,112,116943,6,0,L|240:116,1,110,0|2,1:0|0:0,0:0:0:0:
148,60,117880,2,0,P|132:112|144:168,1,110,0|2,1:0|0:0,0:0:0:0:
204,256,118818,5,0,1:0:0:0:
312,276,119286,1,2,0:0:0:0:
240,360,119755,2,0,P|188:364|132:336,1,110,0|2,1:0|0:0,0:0:0:0:
100,236,120693,5,0,1:0:0:0:
64,132,121161,1,2,0:0:0:0:
172,152,121630,2,0,B|248:168|248:168|308:128|384:148,1,220,0|0,1:0|1:0,0:0:0:0:
444,240,123036,6,0,P|456:264|464:296,2,55,2|0|0,0:0|0:0|1:0,0:0:0:0:
336,252,123974,1,2,0:0:0:0:
240,304,124443,6,0,P|192:312|128:292,2,110,0|2|0,1:0|0:0|1:0,0:0:0:0:
196,204,125849,1,2,0:0:0:0:
248,108,126318,6,0,L|360:104,2,110,0|2|0,1:0|0:0|1:0,0:0:0:0:
136,112,127724,1,2,0:0:0:0:
196,204,128193,6,0,P|144:220|88:212,1,110,0|2,1:0|0:0,0:0:0:0:
48,316,129130,2,0,P|156:324|260:288,1,220,0|0,1:0|1:0,0:0:0:0:
300,184,130536,6,0,L|304:128,2,55,2|0|2,0:0|0:0|0:0,0:0:0:0:
372,268,131474,1,2,0:0:0:0:
412,164,131943,6,0,L|420:52,1,110,0|2,1:0|0:0,0:0:0:0:
312,40,132880,1,0,1:0:0:0:
208,72,133349,1,2,0:0:0:0:
128,148,133818,6,0,P|112:200|124:256,1,110,0|2,1:0|0:0,0:0:0:0:
192,336,134755,1,0,1:0:0:0:
300,344,135224,1,2,0:0:0:0:
396,288,135693,6,0,L|388:176,1,110,0|2,1:0|0:0,0:0:0:0:
404,68,136630,2,0,B|344:64|304:104|304:104|248:120|196:92,1,220,0|0,1:0|1:0,0:0:0:0:
100,44,138036,6,0,L|44:48,2,55,2|0|0,0:0|0:0|1:0,0:0:0:0:
104,156,138974,1,2,0:0:0:0:
52,252,139443,6,0,P|120:276|256:228,1,220,0|0,1:0|1:0,0:0:0:0:
316,140,140849,1,2,0:0:0:0:
404,76,141318,2,0,B|440:128|416:188|416:188|448:228|436:284,1,220,0|0,1:0|1:0,0:0:0:0:
328,256,142724,1,2,0:0:0:0:
352,364,143193,6,0,P|280:356|228:212,1,220,0|0,1:0|1:0,0:0:0:0:
256,128,144599,1,2,0:0:0:0:
148,148,145068,1,0,1:0:0:0:
112,252,145536,2,0,L|112:308,2,55,2|0|2,0:0|0:0|0:0,0:0:0:0:
40,168,146474,1,0,0:0:0:0:
80,64,146893,5,0,0:0:0:0:
120,136,161893,6,0,L|65:121,2,55,0|0|2,0:0|0:0|0:0,0:0:0:0:
120,248,162830,2,0,L|65:262,2,55,0|0|2,0:0|0:0|0:0,0:0:0:0:
200,324,163768,2,0,P|284:192|200:60,1,330,0|2,0:0|0:0,0:0:0:0:
196,172,165643,6,0,P|184:152|156:132,2,55,0|0|2,0:0|0:0|0:0,0:0:0:0:
316,172,166580,2,0,P|328:152|356:132,2,55,0|0|2,0:0|0:0|0:0,0:0:0:0:
392,252,167518,2,0,P|324:316|120:252,1,330,0|2,0:0|0:0,0:0:0:0:
56,164,169393,6,0,P|104:148|164:156,1,110,0|2,0:0|0:0,0:0:0:0:
272,164,170330,2,0,P|326:171|378:155,1,110,0|2,0:0|0:0,0:0:0:0:
448,68,171268,2,0,P|480:112|468:220,1,165
432,256,172205,2,0,L|324:280,1,110,0|2,0:0|0:0,0:0:0:0:
216,292,173143,5,0,0:0:0:0:
112,256,173611,1,2,0:0:0:0:
60,160,174080,1,0,0:0:0:0:
72,52,174549,1,2,0:0:0:0:
164,112,175018,6,0,P|220:116|268:96,1,110,0|2,0:0|0:0,0:0:0:0:
308,56,175721,2,0,P|388:40|468:64,1,165,0|2,0:0|0:0,0:0:0:0:
384,136,176893,6,0,P|400:188|392:244,1,110,4|8,0:0|0:0,0:0:0:0:
360,348,177830,2,0,L|416:352,2,55,0|0|8,0:0|0:0|0:0,0:0:0:0:
284,268,178768,5,0,0:0:0:0:
180,296,179236,1,8,0:0:0:0:
92,232,179705,2,0,P|76:180|84:124,1,110,0|8,0:0|0:0,0:0:0:0:
148,36,180643,5,0,0:0:0:0:
256,64,181111,1,8,0:0:0:0:
364,36,181580,2,0,L|420:32,2,55,0|0|8,0:0|0:0|0:0,0:0:0:0:
340,144,182518,6,0,P|368:188|364:244,1,110,0|8,0:0|0:0,0:0:0:0:
336,292,183221,2,0,L|172:320,1,165,0|8,0:0|0:0,0:0:0:0:
64,344,184393,5,0,0:0:0:0:
96,240,184861,1,8,0:0:0:0:
68,132,185330,2,0,L|12:128,2,55,0|0|8,0:0|0:0|0:0,0:0:0:0:
176,160,186268,6,0,P|232:164|284:140,1,110,0|8,0:0|0:0,0:0:0:0:
324,112,186971,2,0,B|372:92|372:92|424:120|428:184,1,165,0|8,0:0|0:0,0:0:0:0:
484,276,188143,6,0,P|456:288|372:276,1,110,0|8,0:0|0:0,0:0:0:0:
272,252,189080,2,0,P|268:280|272:308,2,55,0|0|8,0:0|0:0|0:0,0:0:0:0:
344,168,190018,6,0,P|300:144|232:148,1,110,0|8,0:0|0:0,0:0:0:0:
188,164,190721,2,0,P|120:176|36:132,1,165,0|8,0:0|0:0,0:0:0:0:
128,72,191893,5,4,0:0:0:0:
236,64,192361,1,8,0:0:0:0:
188,164,192830,2,0,L|196:220,1,55
208,272,193299,2,0,P|260:264|316:276,1,110,8|0,0:0|0:0,0:0:0:0:
416,324,194236,1,8,0:0:0:0:
404,216,194705,6,0,L|400:160,1,55
396,108,195174,2,0,P|340:112|292:88,1,110,8|0,0:0|0:0,0:0:0:0:
212,16,196111,1,8,0:0:0:0:
192,124,196580,6,0,P|196:152|192:180,2,55,0|0|8,0:0|0:0|0:0,0:0:0:0:
84,148,197518,2,0,P|76:204|84:256,1,110,0|8,0:0|0:0,0:0:0:0:
120,300,198221,2,0,L|284:308,1,165,0|8,0:0|0:0,0:0:0:0:
396,312,199393,5,0,0:0:0:0:
344,216,199861,1,8,0:0:0:0:
388,116,200330,2,0,L|392:60,2,55,0|0|8,0:0|0:0|0:0,0:0:0:0:
280,128,201268,6,0,P|228:132|176:108,2,110,0|8|0,0:0|0:0|0:0,0:0:0:0:
368,192,202674,1,8,0:0:0:0:
280,256,203143,2,0,P|228:252|176:276,2,110,0|8|0,0:0|0:0|0:0,0:0:0:0:
380,300,204549,1,8,0:0:0:0:
464,228,205018,6,0,P|468:180|444:124,1,110,0|8,0:0|0:0,0:0:0:0:
348,72,205955,1,0,0:0:0:0:
244,104,206424,1,8,0:0:0:0:
212,208,206893,1,4,0:0:0:0:
256,192,207010,12,0,210643,0:0:0:0:
