osu file format v12

[General]
AudioFilename: whatdoesfox.mp3
AudioLeadIn: 0
PreviewTime: 115071
Countdown: 0
SampleSet: Normal
StackLeniency: 0.7
Mode: 0
LetterboxInBreaks: 0
WidescreenStoryboard: 1

[Editor]
Bookmarks: 161893
DistanceSpacing: 1.1
BeatDivisor: 4
GridSize: 4

[Metadata]
Title:The Fox
TitleUnicode:The Fox
Artist:Ylvis
ArtistUnicode:Ylvis
Creator:W h i t e
Version:Hard
Source:
Tags:I KVELD MED YLVIS what does the fox say
BeatmapID:310541
BeatmapSetID:119980

[Difficulty]
HPDrainRate:5
CircleSize:4
OverallDifficulty:6
ApproachRate:7
SliderMultiplier:1.45
SliderTickRate:2

[Events]
//Background and Video events
0,0,"bg.jpg",0,0
Video,0,"video.avi"
//Break Periods
2,148768,160993
//Storyboard Layer 0 (Background)
//Storyboard Layer 1 (Fail)
//Storyboard Layer 2 (Pass)
//Storyboard Layer 3 (Foreground)
//Storyboard Sound Samples
//Background Colour Transformations
3,100,163,162,255

[TimingPoints]
4443,468.75,4,2,1,70,1,0
24950,-100,4,2,2,40,0,0
25185,-100,4,2,1,70,0,0
32450,-100,4,2,2,40,0,0
32685,-100,4,2,1,70,0,0
40068,-100,4,1,1,30,0,0
41005,-100,4,2,3,30,0,0
41474,-100,4,2,1,70,0,0
41943,-100,4,2,1,40,0,1
42177,-100,4,2,1,70,0,1
42880,-100,4,2,1,40,0,1
42939,-100,4,2,1,70,0,1
43818,-100,4,2,1,40,0,1
43876,-100,4,2,1,70,0,1
44755,-100,4,2,1,40,0,1
44814,-100,4,2,1,70,0,1
45693,-100,4,2,1,40,0,1
45751,-100,4,2,1,70,0,1
46630,-100,4,2,1,40,0,1
46689,-100,4,2,1,70,0,1
47568,-100,4,2,1,40,0,1
47626,-100,4,2,1,70,0,1
48505,-100,4,2,1,40,0,1
48564,-100,4,2,1,70,0,1
49443,-100,4,2,1,40,0,1
49501,-100,4,2,1,70,0,1
50380,-100,4,2,1,40,0,1
50439,-100,4,2,1,70,0,1
51318,-100,4,2,1,40,0,1
51376,-100,4,2,1,70,0,1
52255,-100,4,2,1,40,0,1
52314,-100,4,2,1,70,0,1
53193,-100,4,2,1,40,0,1
53251,-100,4,2,1,70,0,1
54130,-100,4,2,1,40,0,1
54189,-100,4,2,1,70,0,1
55068,-100,4,2,1,40,0,1
55126,-100,4,2,1,70,0,1
56005,-100,4,2,1,40,0,1
56064,-100,4,2,1,70,0,1
56474,-100,4,2,1,70,0,0
56943,-100,4,2,1,40,0,1
57001,-100,4,2,1,70,0,1
57880,-100,4,2,1,40,0,1
57939,-100,4,2,1,70,0,1
58818,-100,4,2,1,40,0,1
58876,-100,4,2,1,70,0,1
59755,-100,4,2,1,40,0,1
59814,-100,4,2,1,70,0,1
60693,-100,4,2,1,40,0,1
60751,-100,4,2,1,70,0,1
61630,-100,4,2,1,40,0,1
61689,-100,4,2,1,70,0,1
62568,-100,4,2,1,40,0,1
62626,-100,4,2,1,70,0,1
63505,-100,4,2,1,40,0,1
63564,-100,4,2,1,70,0,1
64443,-100,4,2,1,40,0,1
64501,-100,4,2,1,70,0,1
65380,-100,4,2,1,40,0,1
65439,-100,4,2,1,70,0,1
66318,-100,4,2,1,40,0,1
66376,-100,4,2,1,70,0,1
67255,-100,4,2,1,40,0,1
67314,-100,4,2,1,70,0,1
68193,-100,4,2,1,40,0,1
68251,-100,4,2,1,70,0,1
69130,-100,4,2,1,40,0,1
69189,-100,4,2,1,70,0,1
70068,-100,4,2,1,40,0,1
70126,-100,4,2,1,70,0,1
71005,-100,4,2,1,40,0,1
71064,-100,4,2,1,70,0,1
71943,-100,4,2,1,70,0,0
84950,-100,4,2,2,40,0,0
85185,-100,4,2,1,70,0,0
86943,-133.333333333333,4,2,1,70,0,0
109443,-100,4,2,1,70,0,0
115068,-100,4,1,1,30,0,0
116005,-100,4,2,3,30,0,0
116474,-100,4,2,1,70,0,0
116943,-100,4,2,1,40,0,1
117001,-100,4,2,1,70,0,1
117880,-100,4,2,1,40,0,1
117939,-100,4,2,1,70,0,1
118818,-100,4,2,1,40,0,1
118876,-100,4,2,1,70,0,1
119755,-100,4,2,1,40,0,1
119814,-100,4,2,1,70,0,1
120693,-100,4,2,1,40,0,1
120751,-100,4,2,1,70,0,1
121630,-100,4,2,1,40,0,1
121689,-100,4,2,1,70,0,1
122568,-100,4,2,1,40,0,1
122626,-100,4,2,1,70,0,1
123505,-100,4,2,1,40,0,1
123564,-100,4,2,1,70,0,1
124443,-100,4,2,1,40,0,1
124501,-100,4,2,1,70,0,1
125380,-100,4,2,1,40,0,1
125439,-100,4,2,1,70,0,1
126318,-100,4,2,1,40,0,1
126376,-100,4,2,1,70,0,1
127255,-100,4,2,1,40,0,1
127314,-100,4,2,1,70,0,1
128193,-100,4,2,1,40,0,1
128251,-100,4,2,1,70,0,1
129130,-100,4,2,1,40,0,1
129189,-100,4,2,1,70,0,1
130068,-100,4,2,1,40,0,1
130126,-100,4,2,1,70,0,1
131005,-100,4,2,1,40,0,1
131064,-100,4,2,1,70,0,1
131474,-100,4,2,1,70,0,0
131943,-100,4,2,1,40,0,1
132001,-100,4,2,1,70,0,1
132880,-100,4,2,1,40,0,1
132939,-100,4,2,1,70,0,1
133818,-100,4,2,1,40,0,1
133876,-100,4,2,1,70,0,1
134755,-100,4,2,1,40,0,1
134814,-100,4,2,1,70,0,1
135693,-100,4,2,1,40,0,1
135751,-100,4,2,1,70,0,1
136630,-100,4,2,1,40,0,1
136689,-100,4,2,1,70,0,1
137568,-100,4,2,1,40,0,1
137626,-100,4,2,1,70,0,1
138505,-100,4,2,1,40,0,1
138564,-100,4,2,1,70,0,1
139443,-100,4,2,1,40,0,1
139501,-100,4,2,1,70,0,1
140380,-100,4,2,1,40,0,1
140439,-100,4,2,1,70,0,1
141318,-100,4,2,1,40,0,1
141376,-100,4,2,1,70,0,1
142255,-100,4,2,1,40,0,1
142314,-100,4,2,1,70,0,1
143193,-100,4,2,1,40,0,1
143251,-100,4,2,1,70,0,1
144130,-100,4,2,1,40,0,1
144189,-100,4,2,1,70,0,1
145068,-100,4,2,1,40,0,1
145126,-100,4,2,1,70,0,1
146005,-100,4,2,1,70,0,1
146893,468.75,4,1,1,40,1,0
161893,-100,4,1,1,20,0,0
165643,-100,4,1,1,25,0,0
169393,-100,4,1,1,30,0,0
173143,-100,4,1,1,35,0,0
176424,-133.333333333333,4,1,1,35,0,0
176893,-100,4,1,1,40,0,1
191424,-100,4,1,1,40,0,0
191893,-100,4,1,1,40,0,1
206893,-100,4,1,1,40,0,0
207010,-100,4,2,1,5,0,0

[Colours]
Combo1 : 150,118,203
Combo2 : 255,128,64
Combo3 : 181,217,38
Combo4 : 120,133,248

[HitObjects]
320,124,11943,2,0,P|356:116|392:120,1,72.5,2|0,0:0|0:0,0:0:0:0:
360,192,12411,2,0,P|324:200|288:196,1,72.5,8|0,0:0|0:0,0:0:0:0:
240,132,12880,2,0,L|96:144,2,145,2|8|2,0:0|0:0|0:0,0:0:0:0:
368,36,14286,1,8,0:0:0:0:
464,164,14755,6,0,L|456:236,1,72.5,2|0,0:0|0:0,0:0:0:0:
472,316,15224,2,0,P|444:316|392:292,1,72.5,8|0,0:0|0:0,0:0:0:0:
336,256,15693,2,0,P|264:252|204:288,2,145,2|8|2,0:0|0:0|0:0,0:0:0:0:
400,108,17099,1,8,0:0:0:0:
240,128,17568,6,0,L|168:124,1,72.5,2|0,0:0|0:0,0:0:0:0:
108,176,18036,2,0,P|88:120|132:52,1,145,8|2,0:0|0:0,0:0:0:0:
212,48,18739,1,0,0:0:0:0:
212,48,18974,2,0,L|284:52,1,72.5,8|0,0:0|0:0,0:0:0:0:
364,60,19443,2,0,P|405:116|387:183,1,145,2|8,0:0|0:0,0:0:0:0:
324,332,20380,6,0,P|288:336|252:332,1,72.5,2|0,0:0|0:0,0:0:0:0:
176,304,20849,1,8,0:0:0:0:
176,304,21083,1,0,0:0:0:0:
240,252,21318,2,0,P|252:184|216:120,1,145,2|8,0:0|0:0,0:0:0:0:
148,80,22021,1,0,0:0:0:0:
292,88,22255,6,0,L|436:92,2,145,2|8|2,0:0|0:0|0:0,0:0:0:0:
216,120,23427,1,0,0:0:0:0:
188,196,23661,2,0,P|220:200|276:172,2,72.5,8|0|2,0:0|0:0|0:0,0:0:0:0:
136,136,24364,6,0,P|104:132|44:160,1,72.5,0|8,0:0|0:0,0:0:0:0:
108,212,24833,2,0,B|128:244|118:288|118:288|92:312|88:348,1,145
168,352,25536,1,8,0:0:0:0:
224,296,25771,2,0,L|296:288,1,72.5,0|2,0:0|0:0,0:0:0:0:
336,356,26239,2,0,P|316:316|352:216,1,145
416,172,26943,5,2,0:0:0:0:
416,172,27411,1,2,0:0:0:0:
256,176,27880,2,0,P|224:176|188:160,1,72.5,2|0,0:0|0:0,0:0:0:0:
116,124,28349,2,0,B|100:160|116:196|116:196|96:264,1,145,2|2,0:0|0:0,0:0:0:0:
96,264,29286,5,2,0:0:0:0:
48,112,29755,2,0,P|76:108|116:124,1,72.5,2|0,0:0|0:0,0:0:0:0:
188,160,30224,2,0,P|260:168|320:132,1,145,2|2,0:0|0:0,0:0:0:0:
468,192,31161,1,2,0:0:0:0:
468,192,31630,1,2,0:0:0:0:
504,264,31864,6,0,P|464:272|432:264,1,72.5,0|2,0:0|0:0,0:0:0:0:
360,232,32333,2,0,P|292:216|216:252,1,145
180,308,33036,1,2,0:0:0:0:
148,236,33271,2,0,L|76:232,1,72.5,0|2,0:0|0:0,0:0:0:0:
16,112,33739,2,0,L|88:116,1,72.5,0|2,0:0|0:0,0:0:0:0:
168,120,34208,1,0,0:0:0:0:
200,48,34443,6,0,P|152:44|128:52,2,72.5,2|2|2,0:0|0:0|0:0,0:0:0:0:
248,112,35146,1,2,0:0:0:0:
292,180,35380,2,0,L|296:256,1,72.5,2|2,0:0|0:0,0:0:0:0:
328,108,35849,2,0,L|324:32,1,72.5,2|2,0:0|0:0,0:0:0:0:
248,112,36318,5,2,0:0:0:0:
168,120,36552,1,2,0:0:0:0:
100,160,36786,2,0,P|80:184|72:224,1,72.5,2|2,0:0|0:0,0:0:0:0:
124,284,37255,2,0,P|144:260|152:220,2,72.5,2|2|2,0:0|0:0|0:0,0:0:0:0:
44,300,37958,1,2,0:0:0:0:
192,328,38193,6,0,L|264:324,1,72.5,2|2,0:0|0:0,0:0:0:0:
424,256,38661,2,0,L|352:260,1,72.5,2|2,0:0|0:0,0:0:0:0:
200,244,39130,6,0,L|272:240,1,72.5,2|2,0:0|0:0,0:0:0:0:
432,172,39599,2,0,L|360:176,1,72.5,2|2,0:0|0:0,0:0:0:0:
280,164,40068,6,0,L|240:160,3,36.25
224,148,40536,2,0,L|184:144,3,36.25,0|0|0|0,0:0|0:0|0:0|0:0,0:0:0:0:
168,132,41005,6,0,P|108:140|36:100,1,145
36,100,41943,6,0,L|48:256,1,145,0|2,1:0|0:0,0:0:0:0:
56,324,42646,1,0,0:0:0:0:
120,276,42880,2,0,P|152:280|192:272,1,72.5,0|0,1:0|0:0,0:0:0:0:
224,200,43349,2,0,P|192:196|152:204,1,72.5,2|0,0:0|0:0,0:0:0:0:
272,264,43818,5,0,1:0:0:0:
348,284,44052,1,0,0:0:0:0:
412,332,44286,2,0,P|424:304|412:232,1,72.5,2|0,0:0|0:0,0:0:0:0:
364,208,44755,2,0,P|328:148|364:72,1,145,0|2,1:0|0:0,0:0:0:0:
408,140,45458,1,0,0:0:0:0:
268,72,45693,6,0,L|196:76,1,72.5,0|0,1:0|0:0,0:0:0:0:
132,120,46161,2,0,P|120:88|124:48,1,72.5,2|0,0:0|0:0,0:0:0:0:
204,152,46630,2,0,P|216:184|208:292,1,145,0|2,1:0|0:0,0:0:0:0:
156,352,47333,1,0,0:0:0:0:
128,276,47568,5,0,1:0:0:0:
128,276,47802,1,0,0:0:0:0:
208,292,48036,2,0,L|296:296,1,72.5,2|0,0:0|0:0,0:0:0:0:
323,363,48505,2,0,P|344:340|332:236,1,145,0|2,1:0|0:0,0:0:0:0:
331,235,49443,6,0,L|335:163,1,72.5,0|0,1:0|0:0,0:0:0:0:
228,104,49911,2,0,L|224:176,1,72.5,2|0,0:0|0:0,0:0:0:0:
252,252,50380,2,0,B|216:264|180:248|180:248|116:284,1,145,0|2,1:0|0:0,0:0:0:0:
100,360,51083,1,0,0:0:0:0:
40,304,51318,6,0,P|40:268|60:228,1,72.5,0|0,1:0|0:0,0:0:0:0:
112,180,51786,2,0,L|104:108,1,72.5,2|0,0:0|0:0,0:0:0:0:
32,72,52255,2,0,P|100:88|164:48,1,145,0|2,1:0|0:0,0:0:0:0:
88,8,52958,1,0,0:0:0:0:
236,40,53193,6,0,L|308:44,1,72.5,0|0,1:0|0:0,0:0:0:0:
284,120,53661,2,0,L|212:116,1,72.5,2|0,0:0|0:0,0:0:0:0:
364,104,54130,2,0,P|440:116|496:80,2,145,0|2|0,1:0|0:0|1:0,0:0:0:0:
320,256,55536,6,0,L|392:264,1,72.5,2|0,0:0|0:0,0:0:0:0:
248,284,56005,2,0,P|172:296|116:260,1,145,2|2,0:0|0:0,0:0:0:0:
204,128,56943,6,0,L|196:204,1,72.5,0|0,1:0|0:0,0:0:0:0:
276,184,57411,2,0,L|283:111,1,72.5,2|0,0:0|0:0,0:0:0:0:
364,100,57880,2,0,L|349:244,1,145,0|2,1:0|0:0,0:0:0:0:
496,308,58818,5,0,1:0:0:0:
496,308,59052,1,0,0:0:0:0:
420,324,59286,2,0,P|380:328|348:320,1,72.5,2|0,0:0|0:0,0:0:0:0:
280,280,59755,2,0,L|136:276,1,145,0|2,1:0|0:0,0:0:0:0:
24,160,60693,6,0,P|20:148|28:88,1,72.5,0|0,1:0|0:0,0:0:0:0:
96,128,61161,2,0,L|168:132,1,72.5,2|0,0:0|0:0,0:0:0:0:
248,136,61630,2,0,P|188:124|148:56,1,145,0|2,1:0|0:0,0:0:0:0:
308,64,62568,5,0,1:0:0:0:
308,64,62802,1,0,0:0:0:0:
384,84,63036,1,2,0:0:0:0:
384,84,63271,1,0,0:0:0:0:
396,164,63505,2,0,P|452:124|456:48,1,145,0|2,1:0|0:0,0:0:0:0:
320,136,64443,6,0,L|316:208,1,72.5,0|0,1:0|0:0,0:0:0:0:
192,248,64911,2,0,L|196:176,1,72.5,2|0,0:0|0:0,0:0:0:0:
248,116,65380,2,0,P|196:100|120:148,1,145,0|2,1:0|0:0,0:0:0:0:
116,224,66083,1,0,0:0:0:0:
192,248,66318,5,0,1:0:0:0:
132,304,66552,1,0,0:0:0:0:
116,224,66786,2,0,P|76:228|44:220,1,72.5,2|0,0:0|0:0,0:0:0:0:
192,248,67255,2,0,P|248:240|336:256,1,145,0|2,1:0|0:0,0:0:0:0:
400,300,67958,1,0,0:0:0:0:
408,220,68193,5,0,1:0:0:0:
408,220,68427,1,0,0:0:0:0:
384,144,68661,2,0,P|432:144|464:164,1,72.5,2|0,0:0|0:0,0:0:0:0:
304,136,69130,2,0,P|240:144|168:112,1,145,0|2,1:0|0:0,0:0:0:0:
120,48,69833,1,0,0:0:0:0:
200,36,70068,6,0,L|272:40,1,72.5,0|0,1:0|0:0,0:0:0:0:
84,120,70536,2,0,L|12:116,2,72.5,2|0|2,0:0|0:0|0:0,0:0:0:0:
32,272,71474,1,0,0:0:0:0:
192,260,71943,6,0,P|156:268|120:264,1,72.5,2|0,0:0|0:0,0:0:0:0:
152,192,72411,2,0,P|188:184|224:188,1,72.5,8|0,0:0|0:0,0:0:0:0:
272,252,72880,2,0,L|416:240,2,145,2|8|2,0:0|0:0|0:0,0:0:0:0:
144,348,74286,1,8,0:0:0:0:
48,220,74755,6,0,L|56:148,1,72.5,2|0,0:0|0:0,0:0:0:0:
40,68,75224,2,0,P|68:68|120:92,1,72.5,8|0,0:0|0:0,0:0:0:0:
176,128,75693,2,0,P|248:132|308:96,2,145,2|8|2,0:0|0:0|0:0,0:0:0:0:
112,276,77099,1,8,0:0:0:0:
272,256,77568,6,0,L|344:260,1,72.5,2|0,0:0|0:0,0:0:0:0:
404,208,78036,2,0,P|424:264|380:332,1,145,8|2,0:0|0:0,0:0:0:0:
300,336,78739,1,0,0:0:0:0:
300,336,78974,2,0,L|228:332,1,72.5,8|0,0:0|0:0,0:0:0:0:
148,324,79443,2,0,P|107:268|125:201,1,145,2|8,0:0|0:0,0:0:0:0:
188,52,80380,6,0,P|224:48|260:52,1,72.5,2|0,0:0|0:0,0:0:0:0:
336,80,80849,1,8,0:0:0:0:
336,80,81083,1,0,0:0:0:0:
272,132,81318,2,0,P|260:200|296:264,1,145,2|8,0:0|0:0,0:0:0:0:
364,304,82021,1,0,0:0:0:0:
220,296,82255,6,0,L|76:292,2,145,2|8|2,0:0|0:0|0:0,0:0:0:0:
296,264,83427,1,0,0:0:0:0:
324,188,83661,2,0,P|292:184|232:212,2,72.5,8|0|2,0:0|0:0|0:0,0:0:0:0:
376,248,84364,6,0,P|408:252|472:224,1,72.5,0|8,0:0|0:0,0:0:0:0:
404,172,84833,2,0,B|384:140|394:96|394:96|420:72|424:36,1,145
344,32,85536,1,8,0:0:0:0:
288,88,85771,2,0,L|216:96,1,72.5,0|2,0:0|0:0,0:0:0:0:
176,28,86239,2,0,P|196:68|160:168,1,145
104,88,86943,1,2,0:0:0:0:
48,260,87646,5,0,0:0:0:0:
48,260,87880,2,0,L|104:268,1,54.3750020742417
144,328,88349,2,0,P|172:288|156:220,1,108.750004148483,0|2,0:0|0:0,0:0:0:0:
292,104,89521,5,0,0:0:0:0:
292,104,89755,2,0,L|300:180,1,54.3750020742417
252,216,90224,2,0,P|297:232|359:199,1,108.750004148483,0|2,0:0|0:0,0:0:0:0:
96,112,91864,6,0,P|72:108|40:112,1,54.3750020742417,0|0,0:0|0:0,0:0:0:0:
160,152,92333,2,0,P|208:160|264:136,1,108.750004148483
304,72,93036,1,0,0:0:0:0:
340,140,93271,2,0,L|348:248,2,108.750004148483
384,76,94443,6,0,L|440:80,1,54.3750020742417,2|0,0:0|0:0,0:0:0:0:
416,152,94911,2,0,L|472:156,1,54.3750020742417,2|0,0:0|0:0,0:0:0:0:
452,232,95380,6,0,L|397:228,1,54.3750020742417,2|0,0:0|0:0,0:0:0:0:
484,308,95849,2,0,L|429:304,1,54.3750020742417,2|0,0:0|0:0,0:0:0:0:
364,344,96318,6,0,P|355:320|356:289,1,54.3750020742417,2|0,0:0|0:0,0:0:0:0:
320,224,96786,2,0,P|296:213|275:190,1,54.3750020742417,2|0,0:0|0:0,0:0:0:0:
208,160,97255,2,0,P|184:169|153:168,1,54.3750020742417,2|0,0:0|0:0,0:0:0:0:
88,204,97724,2,0,P|77:227|54:248,1,54.3750020742417,2|0,0:0|0:0,0:0:0:0:
16,180,98193,6,0,P|12:124|32:76,2,108.750004148483,2|2|2,0:0|0:0|0:0,0:0:0:0:
88,204,99364,1,0,0:0:0:0:
148,252,99599,2,0,L|204:256,1,54.3750020742417,2|0,0:0|0:0,0:0:0:0:
248,316,100068,6,0,P|268:292|252:200,1,108.750004148483,2|2,0:0|0:0,0:0:0:0:
212,164,100771,1,0,0:0:0:0:
284,144,101005,2,0,L|340:140,2,54.3750020742417,2|0|2,0:0|0:0|0:0,0:0:0:0:
124,64,101943,6,0,P|84:60|20:80,2,108.750004148483,2|2|2,0:0|0:0|0:0,0:0:0:0:
196,88,103114,1,0,0:0:0:0:
172,160,103349,2,0,P|199:162|227:158,1,54.3750020742417,2|0,0:0|0:0,0:0:0:0:
328,120,103818,6,0,L|340:12,2,108.750004148483,2|2|2,0:0|0:0|0:0,0:0:0:0:
352,192,104989,1,0,0:0:0:0:
324,264,105224,2,0,P|352:268|396:256,1,54.3750020742417,2|0,0:0|0:0,0:0:0:0:
252,240,105693,6,0,P|200:224|144:228,2,108.750004148483,2|2|2,0:0|0:0|0:0,0:0:0:0:
268,316,106864,1,0,0:0:0:0:
324,264,107099,1,2,0:0:0:0:
352,192,107333,6,0,L|348:136,1,54.3750020742417,0|2,0:0|0:0,0:0:0:0:
424,124,107802,2,0,L|428:180,1,54.3750020742417,0|2,0:0|0:0,0:0:0:0:
404,252,108271,2,0,P|448:252|468:244,1,54.3750020742417,0|2,0:0|0:0,0:0:0:0:
324,264,108739,2,0,P|280:264|260:272,1,54.3750020742417,0|2,0:0|0:0,0:0:0:0:
200,296,109208,1,0,0:0:0:0:
212,216,109443,6,0,L|216:144,1,72.5,2|2,0:0|0:0,0:0:0:0:
220,64,109911,1,2,0:0:0:0:
220,64,110146,1,2,0:0:0:0:
148,100,110380,2,0,P|112:104|76:96,1,72.5,2|2,0:0|0:0,0:0:0:0:
216,144,110849,2,0,P|252:140|288:148,1,72.5,2|2,0:0|0:0,0:0:0:0:
352,192,111318,5,2,0:0:0:0:
280,224,111552,1,2,0:0:0:0:
352,192,111786,2,0,L|424:188,1,72.5,2|2,0:0|0:0,0:0:0:0:
412,268,112255,2,0,L|340:272,1,72.5,2|2,0:0|0:0,0:0:0:0:
332,352,112724,2,0,L|404:348,1,72.5,2|2,0:0|0:0,0:0:0:0:
268,308,113193,5,2,0:0:0:0:
192,288,113427,1,2,0:0:0:0:
112,292,113661,2,0,P|72:296|40:288,1,72.5,2|2,0:0|0:0,0:0:0:0:
152,220,114130,2,0,P|191:211|223:215,1,72.5,2|2,0:0|0:0,0:0:0:0:
320,232,114599,1,2,0:0:0:0:
320,232,114833,1,2,0:0:0:0:
412,268,115068,6,0,L|416:232,3,36.25
424,208,115536,2,0,L|428:172,3,36.25,0|0|0|0,0:0|0:0|0:0|0:0,0:0:0:0:
436,148,116005,6,0,P|368:144|312:80,1,145
316,92,116943,6,0,B|300:152|300:152|320:192|300:236,1,145,0|2,1:0|0:0,0:0:0:0:
232,272,117646,1,0,0:0:0:0:
232,192,117880,2,0,L|156:200,1,72.5,0|0,1:0|0:0,0:0:0:0:
88,236,118349,2,0,P|79:200|87:165,1,72.5,2|0,0:0|0:0,0:0:0:0:
136,300,118818,5,0,1:0:0:0:
200,344,119052,1,0,0:0:0:0:
232,272,119286,2,0,L|304:276,1,72.5,2|0,0:0|0:0,0:0:0:0:
383,275,119755,2,0,P|380:204|423:148,1,145,0|2,1:0|0:0,0:0:0:0:
500,120,120458,1,0,0:0:0:0:
368,84,120693,6,0,P|332:76|296:80,1,72.5,0|0,1:0|0:0,0:0:0:0:
220,100,121161,2,0,P|184:103|148:95,1,72.5,2|0,0:0|0:0,0:0:0:0:
72,76,121630,2,0,L|64:220,2,145,0|2|0,1:0|0:0|1:0,0:0:0:0:
180,192,123036,6,0,L|176:264,1,72.5,2|0,0:0|0:0,0:0:0:0:
112,312,123505,2,0,P|176:340|256:284,1,145,0|2,1:0|0:0,0:0:0:0:
396,273,124443,6,0,P|404:308|396:344,1,72.5,0|0,1:0|0:0,0:0:0:0:
327,306,124911,2,0,P|319:271|328:236,1,72.5,2|0,0:0|0:0,0:0:0:0:
396,192,125380,2,0,P|364:164|252:204,1,145,0|2,1:0|0:0,0:0:0:0:
232,248,126083,1,0,0:0:0:0:
212,124,126318,6,0,L|208:52,1,72.5,0|0,1:0|0:0,0:0:0:0:
88,80,126786,2,0,L|92:152,1,72.5,2|0,0:0|0:0,0:0:0:0:
104,236,127255,2,0,P|96:188|16:148,1,145,0|2,1:0|0:0,0:0:0:0:
24,228,127958,1,0,0:0:0:0:
140,308,128193,6,0,P|176:316|212:308,1,72.5,0|0,1:0|0:0,0:0:0:0:
260,192,128661,2,0,P|224:184|188:192,1,72.5,2|0,0:0|0:0,0:0:0:0:
284,268,129130,2,0,P|328:232|324:144,1,145,0|2,1:0|0:0,0:0:0:0:
268,96,129833,1,0,0:0:0:0:
404,120,130068,5,0,1:0:0:0:
404,120,130302,1,0,0:0:0:0:
344,68,130536,1,2,0:0:0:0:
344,68,130771,1,0,0:0:0:0:
268,96,131005,2,0,P|196:108|132:80,1,145,2|2,0:0|0:0,0:0:0:0:
132,80,131943,6,0,L|144:216,1,108.75,0|0,1:0|0:0,0:0:0:0:
144,212,132411,2,0,P|136:248|140:284,1,72.5,2|0,0:0|0:0,0:0:0:0:
204,332,132880,1,0,1:0:0:0:
204,332,133114,1,0,0:0:0:0:
216,252,133349,2,0,P|224:216|220:180,1,72.5,2|0,0:0|0:0,0:0:0:0:
208,72,133818,6,0,P|276:80|320:72,1,108.75,0|0,1:0|0:0,0:0:0:0:
340,68,134286,2,0,L|336:164,1,72.5,2|0,0:0|0:0,0:0:0:0:
332,220,134755,1,0,1:0:0:0:
400,264,134989,1,0,0:0:0:0:
404,184,135224,2,0,P|440:180|476:188,1,72.5,2|0,0:0|0:0,0:0:0:0:
400,263,135693,6,0,P|356:295|302:297,1,108.75,0|0,1:0|0:0,0:0:0:0:
280,288,136161,2,0,P|252:284|208:292,1,72.5,2|0,0:0|0:0,0:0:0:0:
136,324,136630,1,0,1:0:0:0:
136,324,136864,1,0,0:0:0:0:
196,212,137099,2,0,P|208:144|168:80,1,145,2|0,0:0|1:0,0:0:0:0:
36,168,138036,6,0,L|108:160,1,72.5,2|0,0:0|0:0,0:0:0:0:
169,82,138505,2,0,B|224:96|224:96|312:80,1,145,0|2,1:0|0:0,0:0:0:0:
388,60,139208,1,0,0:0:0:0:
368,136,139443,6,0,P|356:188|376:276,1,145,0|2,1:0|0:0,0:0:0:0:
436,328,140146,1,0,0:0:0:0:
360,356,140380,2,0,L|288:352,1,72.5,0|0,1:0|0:0,0:0:0:0:
208,272,140849,2,0,L|280:276,1,72.5,2|0,0:0|0:0,0:0:0:0:
208,348,141318,6,0,P|152:324|140:240,1,145,0|2,1:0|0:0,0:0:0:0:
176,180,142021,1,0,0:0:0:0:
216,112,142255,2,0,B|179:96|136:112|136:112|140:78|168:60,1,145,0|2,1:0|0:0,0:0:0:0:
240,28,142958,1,0,0:0:0:0:
304,92,143193,6,0,P|360:104|440:76,1,145,0|2,1:0|0:0,0:0:0:0:
488,12,143896,1,0,0:0:0:0:
472,148,144130,2,0,L|477:220,1,72.5,0|0,1:0|0:0,0:0:0:0:
380,304,144599,2,0,L|383:231,1,72.5,2|0,0:0|0:0,0:0:0:0:
388,152,145068,5,0,1:0:0:0:
316,188,145302,1,0,0:0:0:0:
240,164,145536,2,0,P|228:168|168:160,1,72.5,2|0,0:0|0:0,0:0:0:0:
92,148,146005,2,0,P|116:108|216:100,1,145,0|2,0:0|0:0,0:0:0:0:
256,244,146893,5,0,0:0:0:0:
96,68,161893,6,0,L|168:80,1,72.5
168,160,162361,2,0,L|96:148,1,72.5,2|0,0:0|0:0,0:0:0:0:
92,228,162830,2,0,L|164:240,1,72.5
164,320,163299,2,0,L|92:308,1,72.5,2|0,0:0|0:0,0:0:0:0:
236,280,163768,6,0,L|308:292,1,72.5
388,304,164236,1,2,0:0:0:0:
388,304,164471,1,0,0:0:0:0:
360,228,164705,2,0,P|356:208|364:156,1,72.5
440,128,165174,2,0,P|444:148|436:200,1,72.5,2|0,0:0|0:0,0:0:0:0:
380,76,165643,6,0,L|308:68,1,72.5
288,144,166111,2,0,L|216:152,1,72.5,2|0,0:0|0:0,0:0:0:0:
140,132,166580,1,0,0:0:0:0:
196,76,166814,1,0,0:0:0:0:
140,132,167049,2,0,P|144:184|156:204,1,72.5,2|0,0:0|0:0,0:0:0:0:
132,276,167518,6,0,P|184:272|204:260,1,72.5
272,224,167986,2,0,L|344:216,1,72.5,2|0,0:0|0:0,0:0:0:0:
396,280,168455,1,0,0:0:0:0:
424,204,168689,1,0,0:0:0:0:
396,280,168924,2,0,P|404:316|400:352,1,72.5,2|0,0:0|0:0,0:0:0:0:
344,216,169393,6,0,P|336:180|340:144,1,72.5
400,92,169861,2,0,L|408:20,1,72.5,2|0,0:0|0:0,0:0:0:0:
292,16,170330,2,0,L|284:88,1,72.5
168,84,170799,2,0,L|176:12,1,72.5,2|0,0:0|0:0,0:0:0:0:
200,160,171268,6,0,P|184:164|128:156,2,72.5,0|0|2,0:0|0:0|0:0,0:0:0:0:
276,132,171971,1,0,0:0:0:0:
260,212,172205,2,0,L|256:284,1,72.5
336,284,172674,2,0,L|340:212,1,72.5,2|0,0:0|0:0,0:0:0:0:
356,132,173143,6,0,P|424:120|464:56,2,145,0|2|0,0:0|0:0|0:0,0:0:0:0:
276,132,174314,1,0,0:0:0:0:
224,72,174549,2,0,L|152:76,1,72.5,2|0,0:0|0:0,0:0:0:0:
45,17,175018,6,0,P|75:82|59:152,1,145,0|2,0:0|0:0,0:0:0:0:
12,216,175721,1,0,0:0:0:0:
92,224,175955,2,0,L|164:228,1,72.5
244,232,176424,6,0,P|280:220|324:224,1,81.5625031113626,2|0,0:0|0:0,0:0:0:0:
340,228,176893,6,0,P|400:240|472:200,2,145,4|8|0,0:0|0:0|0:0,0:0:0:0:
292,296,178064,1,0,0:0:0:0:
372,320,178299,2,0,P|408:320|444:312,1,72.5,8|0,0:0|0:0,0:0:0:0:
292,296,178768,6,0,L|148:304,1,145,0|8,0:0|0:0,0:0:0:0:
68,312,179471,1,0,0:0:0:0:
100,240,179705,2,0,P|92:204|96:168,1,72.5
164,128,180174,2,0,P|172:164|168:200,1,72.5,8|0,0:0|0:0,0:0:0:0:
96,84,180643,6,0,P|148:52|224:76,2,145,0|8|0,0:0|0:0|0:0,0:0:0:0:
164,128,181814,1,0,0:0:0:0:
240,156,182049,2,0,P|268:144|300:100,1,72.5,8|0,0:0|0:0,0:0:0:0:
336,44,182518,6,0,B|376:72|372:124|372:124|368:176,1,145,0|8,0:0|0:0,0:0:0:0:
356,256,183221,1,0,0:0:0:0:
432,228,183455,2,0,L|504:232,1,72.5
356,256,183924,2,0,L|284:260,1,72.5,8|0,0:0|0:0,0:0:0:0:
239,327,184393,6,0,P|203:267|228:201,2,145,0|8|0,0:0|0:0|0:0,0:0:0:0:
284,260,185564,1,0,0:0:0:0:
148,188,185799,2,0,L|76:192,1,72.5,8|0,0:0|0:0,0:0:0:0:
200,124,186268,6,0,B|260:108|260:108|300:128|344:108,1,145,0|8,1:0|0:0,0:0:0:0:
304,40,186971,1,0,0:0:0:0:
384,40,187205,2,0,P|408:64|420:108,1,72.5
392,176,187674,2,0,L|396:248,1,72.5,8|0,0:0|0:0,0:0:0:0:
344,308,188143,6,0,P|424:320|472:268,2,145,0|8|0,0:0|0:0|0:0,0:0:0:0:
292,248,189314,1,0,0:0:0:0:
212,260,189549,2,0,L|140:268,1,72.5,8|0,0:0|0:0,0:0:0:0:
24,276,190018,6,0,P|64:232|68:148,1,145,0|8,0:0|0:0,0:0:0:0:
28,80,190721,1,0,0:0:0:0:
108,76,190955,2,0,L|180:84,1,72.5
244,180,191424,2,0,L|172:172,1,72.5,8|0,0:0|0:0,0:0:0:0:
268,92,191893,6,0,P|328:96|368:72,1,108.75,4|0,0:0|0:0,0:0:0:0:
388,56,192361,2,0,L|412:124,1,72.5,8|0,0:0|0:0,0:0:0:0:
440,200,192830,1,0,0:0:0:0:
440,200,193064,1,0,0:0:0:0:
420,280,193299,2,0,B|372:276|372:276|344:288|312:280,1,108.75,8|0,0:0|0:0,0:0:0:0:
288,272,193768,6,0,P|248:264|216:268,1,72.5
144,304,194236,2,0,L|140:340,2,36.25,8|0|0,0:0|0:0|0:0,0:0:0:0:
148,224,194705,2,0,P|144:188|152:152,1,72.5
188,80,195174,2,0,L|296:72,1,108.75,8|0,0:0|0:0,0:0:0:0:
320,68,195643,6,0,P|327:103|323:139,1,72.5,0|0,0:0|0:0,0:0:0:0:
292,212,196111,1,8,0:0:0:0:
292,212,196346,1,0,0:0:0:0:
372,204,196580,2,0,L|444:196,1,72.5
340,276,197049,2,0,P|312:288|236:268,1,108.75,8|0,0:0|0:0,0:0:0:0:
220,252,197518,6,0,P|148:236|84:260,1,145,0|8,0:0|0:0,0:0:0:0:
36,324,198221,1,0,0:0:0:0:
32,200,198455,2,0,P|24:168|28:128,1,72.5
88,76,198924,2,0,L|160:64,1,72.5,8|0,0:0|0:0,0:0:0:0:
275,36,199393,6,0,P|227:88|224:160,1,145,0|8,0:0|0:0,0:0:0:0:
264,228,200096,1,0,0:0:0:0:
304,160,200330,2,0,P|340:152|376:156,1,72.5
264,228,200799,2,0,P|228:236|192:232,1,72.5,8|0,0:0|0:0,0:0:0:0:
92,192,201268,6,0,B|64:236|64:236|52:284|68:328,2,145,0|8|0,0:0|0:0|0:0,0:0:0:0:
148,136,202439,1,0,0:0:0:0:
160,56,202674,2,0,P|196:60|232:52,1,72.5,8|0,0:0|0:0,0:0:0:0:
304,16,203143,6,0,P|248:60|260:144,2,145,0|8|0,0:0|0:0|0:0,0:0:0:0:
320,92,204314,1,0,0:0:0:0:
316,172,204549,2,0,L|312:244,1,72.5,8|0,0:0|0:0,0:0:0:0:
400,292,205018,6,0,L|408:144,2,145,0|8|0,0:0|0:0|0:0,0:0:0:0:
324,320,206189,1,0,0:0:0:0:
244,312,206424,1,8,0:0:0:0:
180,264,206658,1,0,0:0:0:0:
152,188,206893,1,4,0:0:0:0:
256,192,207010,12,0,210643,0:0:0:0:
