osu file format v12

[General]
AudioFilename: whatdoesfox.mp3
AudioLeadIn: 0
PreviewTime: 115071
Countdown: 0
SampleSet: Normal
StackLeniency: 0.7
Mode: 0
LetterboxInBreaks: 0
WidescreenStoryboard: 1

[Editor]
Bookmarks: 161893
DistanceSpacing: 1.2
BeatDivisor: 4
GridSize: 4

[Metadata]
Title:The Fox
TitleUnicode:The Fox
Artist:Ylvis
ArtistUnicode:Ylvis
Creator:W h i t e
Version:Fox
Source:
Tags:I KVELD MED YLVIS what does the fox say
BeatmapID:307804
BeatmapSetID:119980

[Difficulty]
HPDrainRate:7
CircleSize:4
OverallDifficulty:7
ApproachRate:8
SliderMultiplier:1.72
SliderTickRate:2

[Events]
//Background and Video events
0,0,"bg.jpg",0,0
Video,0,"video.avi"
//Break Periods
2,148768,161143
//Storyboard Layer 0 (Background)
//Storyboard Layer 1 (Fail)
//Storyboard Layer 2 (Pass)
//Storyboard Layer 3 (Foreground)
//Storyboard Sound Samples
//Background Colour Transformations
3,100,163,162,255

[TimingPoints]
4443,468.75,4,2,1,70,1,0
24950,-100,4,2,2,40,0,0
25185,-100,4,2,1,70,0,0
32450,-100,4,2,2,40,0,0
32685,-100,4,2,1,70,0,0
40068,-100,4,1,1,30,0,0
41005,-100,4,2,3,30,0,0
41474,-100,4,2,1,70,0,0
41943,-100,4,2,1,40,0,1
42177,-100,4,2,1,70,0,1
42880,-100,4,2,1,40,0,1
42939,-100,4,2,1,70,0,1
43818,-100,4,2,1,40,0,1
43876,-100,4,2,1,70,0,1
44755,-100,4,2,1,40,0,1
44814,-100,4,2,1,70,0,1
45693,-100,4,2,1,40,0,1
45751,-100,4,2,1,70,0,1
46630,-100,4,2,1,40,0,1
46689,-100,4,2,1,70,0,1
47568,-100,4,2,1,40,0,1
47626,-100,4,2,1,70,0,1
48505,-100,4,2,1,40,0,1
48564,-100,4,2,1,70,0,1
49443,-100,4,2,1,40,0,1
49501,-100,4,2,1,70,0,1
50380,-100,4,2,1,40,0,1
50439,-100,4,2,1,70,0,1
51318,-100,4,2,1,40,0,1
51376,-100,4,2,1,70,0,1
52255,-100,4,2,1,40,0,1
52314,-100,4,2,1,70,0,1
53193,-100,4,2,1,40,0,1
53251,-100,4,2,1,70,0,1
54130,-100,4,2,1,40,0,1
54189,-100,4,2,1,70,0,1
55068,-100,4,2,1,40,0,1
55126,-100,4,2,1,70,0,1
56005,-100,4,2,1,40,0,1
56064,-100,4,2,1,70,0,1
56474,-100,4,2,1,70,0,0
56943,-100,4,2,1,40,0,1
57001,-100,4,2,1,70,0,1
57880,-100,4,2,1,40,0,1
57939,-100,4,2,1,70,0,1
58818,-100,4,2,1,40,0,1
58876,-100,4,2,1,70,0,1
59755,-100,4,2,1,40,0,1
59814,-100,4,2,1,70,0,1
60693,-100,4,2,1,40,0,1
60751,-100,4,2,1,70,0,1
61630,-100,4,2,1,40,0,1
61689,-100,4,2,1,70,0,1
62568,-100,4,2,1,40,0,1
62626,-100,4,2,1,70,0,1
63505,-100,4,2,1,40,0,1
63564,-100,4,2,1,70,0,1
64443,-100,4,2,1,40,0,1
64501,-100,4,2,1,70,0,1
65380,-100,4,2,1,40,0,1
65439,-100,4,2,1,70,0,1
66318,-100,4,2,1,40,0,1
66376,-100,4,2,1,70,0,1
67255,-100,4,2,1,40,0,1
67314,-100,4,2,1,70,0,1
68193,-100,4,2,1,40,0,1
68251,-100,4,2,1,70,0,1
69130,-100,4,2,1,40,0,1
69189,-100,4,2,1,70,0,1
70068,-100,4,2,1,40,0,1
70126,-100,4,2,1,70,0,1
71005,-100,4,2,1,40,0,1
71064,-100,4,2,1,70,0,1
71943,-100,4,2,1,70,0,0
84950,-100,4,2,2,40,0,0
85185,-100,4,2,1,70,0,0
86943,-133.333333333333,4,2,1,70,0,0
88700,-133.333333333333,4,2,2,30,0,0
88935,-133.333333333333,4,2,1,70,0,0
90575,-133.333333333333,4,2,2,30,0,0
90810,-133.333333333333,4,2,1,70,0,0
101943,-125,4,2,1,70,0,0
103818,-117.647058823529,4,2,1,70,0,0
105693,-111.111111111111,4,2,1,70,0,0
107333,-105.263157894737,4,2,1,70,0,0
109443,-100,4,2,1,70,0,0
115068,-100,4,1,1,30,0,0
116005,-100,4,2,3,30,0,0
116474,-100,4,2,1,70,0,0
116943,-100,4,2,1,40,0,1
117001,-100,4,2,1,70,0,1
117880,-100,4,2,1,40,0,1
117939,-100,4,2,1,70,0,1
118818,-100,4,2,1,40,0,1
118876,-100,4,2,1,70,0,1
119755,-100,4,2,1,40,0,1
119814,-100,4,2,1,70,0,1
120693,-100,4,2,1,40,0,1
120751,-100,4,2,1,70,0,1
121630,-100,4,2,1,40,0,1
121689,-100,4,2,1,70,0,1
122568,-100,4,2,1,40,0,1
122626,-100,4,2,1,70,0,1
123505,-100,4,2,1,40,0,1
123564,-100,4,2,1,70,0,1
124443,-100,4,2,1,40,0,1
124501,-100,4,2,1,70,0,1
125380,-100,4,2,1,40,0,1
125439,-100,4,2,1,70,0,1
126318,-100,4,2,1,40,0,1
126376,-100,4,2,1,70,0,1
127255,-100,4,2,1,40,0,1
127314,-100,4,2,1,70,0,1
128193,-100,4,2,1,40,0,1
128251,-100,4,2,1,70,0,1
129130,-100,4,2,1,40,0,1
129189,-100,4,2,1,70,0,1
130068,-100,4,2,1,40,0,1
130126,-100,4,2,1,70,0,1
131005,-100,4,2,1,40,0,1
131064,-100,4,2,1,70,0,1
131474,-100,4,2,1,70,0,0
131943,-100,4,2,1,40,0,1
132001,-100,4,2,1,70,0,1
132880,-100,4,2,1,40,0,1
132939,-100,4,2,1,70,0,1
133818,-100,4,2,1,40,0,1
133876,-100,4,2,1,70,0,1
134755,-100,4,2,1,40,0,1
134814,-100,4,2,1,70,0,1
135693,-100,4,2,1,40,0,1
135751,-100,4,2,1,70,0,1
136630,-100,4,2,1,40,0,1
136689,-100,4,2,1,70,0,1
137568,-100,4,2,1,40,0,1
137626,-100,4,2,1,70,0,1
138505,-100,4,2,1,40,0,1
138564,-100,4,2,1,70,0,1
139443,-100,4,2,1,40,0,1
139501,-100,4,2,1,70,0,1
140380,-100,4,2,1,40,0,1
140439,-100,4,2,1,70,0,1
141318,-100,4,2,1,40,0,1
141376,-100,4,2,1,70,0,1
142255,-100,4,2,1,40,0,1
142314,-100,4,2,1,70,0,1
143193,-100,4,2,1,40,0,1
143251,-100,4,2,1,70,0,1
144130,-100,4,2,1,40,0,1
144189,-100,4,2,1,70,0,1
145068,-100,4,2,1,40,0,1
145126,-100,4,2,1,70,0,1
146005,-100,4,2,1,70,0,1
146893,468.75,4,1,1,40,1,0
161893,-100,4,1,1,20,0,0
165643,-100,4,1,1,25,0,0
169393,-100,4,1,1,30,0,0
173143,-100,4,1,1,35,0,0
176424,-133.333333333333,4,2,1,70,0,0
176893,-100,4,1,1,40,0,1
191424,-100,4,1,1,40,0,0
191893,-100,4,1,1,40,0,1
206893,-100,4,1,1,40,0,0
207010,-100,4,2,1,5,0,0

[Colours]
Combo1 : 150,118,203
Combo2 : 255,128,64
Combo3 : 181,217,38
Combo4 : 120,133,248

[HitObjects]
172,276,11943,2,0,P|160:236|164:192,1,86,2|0,0:0|0:0,0:0:0:0:
324,176,12411,2,0,P|336:216|332:260,1,86,8|0,0:0|0:0,0:0:0:0:
256,328,12880,2,0,L|240:132,1,172,2|8,0:0|0:0,0:0:0:0:
232,52,13583,1,0,0:0:0:0:
148,112,13818,6,0,P|88:120|0:28,1,172,2|8,0:0|0:0,0:0:0:0:
104,20,14521,1,0,0:0:0:0:
232,52,14755,2,0,P|272:44|320:48,1,86,2|0,0:0|0:0,0:0:0:0:
156,204,15224,2,0,P|116:212|68:208,1,86,8|0,0:0|0:0,0:0:0:0:
256,156,15693,6,0,P|336:152|424:180,1,172,2|8,0:0|0:0,0:0:0:0:
496,264,16396,1,0,0:0:0:0:
496,264,16630,2,0,L|500:352,1,86,2|0,0:0|0:0,0:0:0:0:
424,180,17099,2,0,L|428:92,1,86,8|0,0:0|0:0,0:0:0:0:
388,284,17568,6,0,P|312:304|232:256,1,172,2|8,0:0|0:0,0:0:0:0:
324,196,18271,1,0,0:0:0:0:
228,148,18505,2,0,P|224:116|232:60,1,86,2|0,0:0|0:0,0:0:0:0:
235,260,18974,2,0,P|239:292|231:348,1,86,8|0,0:0|0:0,0:0:0:0:
136,196,19443,2,0,P|124:108|140:24,1,172,2|8,0:0|0:0,0:0:0:0:
139,27,20146,1,0,0:0:0:0:
259,32,20380,6,0,P|302:23|344:28,1,86,2|0,0:0|0:0,0:0:0:0:
408,191,20849,2,0,P|365:200|323:195,1,86,8|0,0:0|0:0,0:0:0:0:
440,92,21318,2,0,P|488:128|484:264,1,172,2|8,0:0|0:0,0:0:0:0:
416,296,22021,1,0,0:0:0:0:
320,248,22255,6,0,L|232:252,1,86,2|0,0:0|0:0,0:0:0:0:
354,88,22724,2,0,L|439:91,1,86,8|0,0:0|0:0,0:0:0:0:
292,156,23193,2,0,B|220:160|220:160|164:144|148:88,1,172,2|8,0:0|0:0,0:0:0:0:
175,5,23896,1,0,0:0:0:0:
244,64,24130,1,2,0:0:0:0:
151,95,24364,6,0,P|104:92|68:72,1,86,0|8,0:0|0:0,0:0:0:0:
64,264,24833,2,0,P|124:228|224:232,1,172
304,300,25536,1,8,0:0:0:0:
320,200,25771,2,0,P|340:179|368:131,1,86,0|2,0:0|0:0,0:0:0:0:
304,300,26239,2,0,P|311:328|339:376,1,86
224,232,26708,1,0,0:0:0:0:
127,268,26943,6,0,L|119:96,2,172,2|2|2,0:0|0:0|0:0,0:0:0:0:
208,336,28114,1,0,0:0:0:0:
224,232,28349,2,0,P|308:244|376:180,1,172,2|2,0:0|0:0,0:0:0:0:
367,88,29052,1,0,0:0:0:0:
280,144,29286,1,2,0:0:0:0:
371,191,29521,1,0,0:0:0:0:
460,136,29755,5,2,0:0:0:0:
460,136,29872,1,0,0:0:0:0:
460,136,29989,1,0,0:0:0:0:
367,88,30224,2,0,P|284:96|212:40,1,172,2|2,0:0|0:0,0:0:0:0:
308,8,30927,1,0,0:0:0:0:
216,46,31161,2,0,L|208:132,1,86,2|0,0:0|0:0,0:0:0:0:
96,220,31630,2,0,L|88:134,1,86,2|0,0:0|0:0,0:0:0:0:
196,232,32099,1,2,0:0:0:0:
160,324,32333,6,0,P|220:328|292:244,1,172
284,148,33036,1,2,0:0:0:0:
376,192,33271,2,0,L|464:184,1,86,0|2,0:0|0:0,0:0:0:0:
332,60,33739,2,0,P|296:52|232:60,1,86,0|2,0:0|0:0,0:0:0:0:
152,96,34208,1,0,0:0:0:0:
232,160,34443,5,2,0:0:0:0:
136,200,34677,1,2,0:0:0:0:
56,136,34911,1,2,0:0:0:0:
72,32,35146,1,2,0:0:0:0:
152,96,35380,6,0,P|160:136|152:180,1,86,2|2,0:0|0:0,0:0:0:0:
48,316,35849,2,0,P|40:276|48:232,1,86,2|2,0:0|0:0,0:0:0:0:
144,276,36318,5,2,0:0:0:0:
144,276,36552,1,2,0:0:0:0:
224,344,36786,1,2,0:0:0:0:
224,344,37021,1,2,0:0:0:0:
324,312,37255,6,0,L|328:224,1,86,2|2,0:0|0:0,0:0:0:0:
468,168,37724,2,0,L|464:256,1,86,2|2,0:0|0:0,0:0:0:0:
383,148,38193,5,2,0:0:0:0:
455,28,38427,1,2,0:0:0:0:
468,168,38661,1,2,0:0:0:0:
376,62,38896,1,2,0:0:0:0:
511,93,39130,1,2,0:0:0:0:
383,148,39364,1,2,0:0:0:0:
260,80,39599,2,0,L|174:87,1,86,2|2,0:0|0:0,0:0:0:0:
44,132,40068,5,0,0:0:0:0:
76,140,40185,1,0,0:0:0:0:
104,160,40302,1,0,0:0:0:0:
124,188,40419,1,0,0:0:0:0:
136,220,40536,1,0,0:0:0:0:
140,256,40653,1,0,0:0:0:0:
136,292,40771,1,0,0:0:0:0:
124,324,40888,1,0,0:0:0:0:
104,352,41005,6,0,B|144:340|182:352|182:352|195:348|195:348|234:360|272:348,1,172
336,172,41943,5,2,1:0:0:0:
220,228,42177,1,0,0:0:0:0:
328,304,42411,2,0,P|367:298|408:279,1,86,2|0,0:0|0:0,0:0:0:0:
336,172,42880,2,0,P|340:132|332:88,1,86,2|0,1:0|0:0,0:0:0:0:
280,36,43232,2,0,L|188:40,1,86,2|0,0:0|0:0,0:0:0:0:
120,44,43583,1,2,0:0:0:0:
244,132,43818,5,0,1:0:0:0:
144,140,44052,1,2,0:0:0:0:
200,224,44286,2,0,P|196:268|204:308,1,86,2|0,0:0|0:0,0:0:0:0:
404,344,44755,2,0,P|408:300|400:260,1,86,2|0,1:0|0:0,0:0:0:0:
364,196,45107,2,0,L|360:108,1,86,2|0,0:0|0:0,0:0:0:0:
356,36,45458,1,2,0:0:0:0:
244,132,45693,5,2,1:0:0:0:
160,76,45927,1,0,0:0:0:0:
148,180,46161,1,2,0:0:0:0:
244,132,46396,1,0,0:0:0:0:
60,112,46630,2,0,P|44:148|40:200,1,86,2|0,1:0|0:0,0:0:0:0:
48,268,46982,2,0,L|164:300,1,86,2|0,0:0|0:0,0:0:0:0:
131,291,47333,1,2,0:0:0:0:
240,248,47568,5,2,1:0:0:0:
148,180,47802,1,2,0:0:0:0:
324,224,48036,1,2,0:0:0:0:
324,224,48153,2,0,P|300:188|264:164,1,86,0|0,0:0|0:0,0:0:0:0:
200,124,48505,2,0,P|152:88|132:20,2,129,2|2|2,1:0|0:0|0:0,0:0:0:0:
232,28,49443,6,0,L|320:24,1,86,2|2,1:0|0:0,0:0:0:0:
148,180,49911,2,0,L|60:184,1,86,2|2,0:0|0:0,0:0:0:0:
240,248,50380,1,2,1:0:0:0:
248,132,50614,1,0,0:0:0:0:
248,132,50732,2,0,P|304:124|372:144,1,129,2|2,0:0|0:0,0:0:0:0:
440,228,51318,5,0,1:0:0:0:
440,228,51435,1,0,0:0:0:0:
440,228,51552,1,2,0:0:0:0:
480,128,51786,2,0,L|476:40,1,86,2|2,0:0|0:0,0:0:0:0:
372,144,52255,1,2,1:0:0:0:
224,256,52489,1,0,0:0:0:0:
224,256,52607,2,0,P|284:264|344:236,1,129,2|2,0:0|0:0,0:0:0:0:
232,156,53193,6,0,P|192:160|144:196,1,86,2|2,1:0|0:0,0:0:0:0:
136,368,53661,2,0,L|128:280,1,86,2|2,0:0|0:0,0:0:0:0:
60,212,54130,1,2,1:0:0:0:
56,112,54364,1,0,0:0:0:0:
56,112,54482,2,0,P|104:125|155:184,1,129,2|2,0:0|0:0,0:0:0:0:
128,282,55068,5,2,1:0:0:0:
224,256,55302,1,2,0:0:0:0:
304,316,55536,1,2,0:0:0:0:
304,316,55653,2,0,P|320:276|320:232,1,86
296,164,56005,2,0,L|264:40,2,129,2|2|2,0:0|0:0|0:0,0:0:0:0:
224,256,56943,6,0,B|228:224|228:224|212:164,1,86,0|0,1:0|0:0,0:0:0:0:
128,284,57411,2,0,B|124:316|124:316|140:376,1,86,2|0,0:0|0:0,0:0:0:0:
124,192,57880,2,0,P|136:128|192:84,1,129,0|0,1:0|0:0,0:0:0:0:
183,87,58349,2,0,P|140:88|100:72,1,86,2|0,0:0|0:0,0:0:0:0:
214,172,58818,5,0,1:0:0:0:
252,28,59052,1,0,0:0:0:0:
214,172,59286,2,0,L|224:272,1,86,2|0,0:0|0:0,0:0:0:0:
336,336,59755,2,0,B|328:288|328:288|332:244|360:216,1,129,0|0,1:0|0:0,0:0:0:0:
412,160,60224,2,0,P|416:128|408:76,1,86,2|0,0:0|0:0,0:0:0:0:
316,124,60693,5,0,1:0:0:0:
204,160,60927,1,0,0:0:0:0:
232,48,61161,1,2,0:0:0:0:
316,124,61396,1,0,0:0:0:0:
248,256,61630,2,0,P|196:264|112:216,1,129,0|0,1:0|0:0,0:0:0:0:
80,176,62099,2,0,L|72:88,1,86,2|0,0:0|0:0,0:0:0:0:
204,160,62568,5,0,1:0:0:0:
265,65,62802,1,0,0:0:0:0:
372,95,63036,1,2,0:0:0:0:
378,206,63271,1,0,0:0:0:0:
274,247,63505,1,0,1:0:0:0:
296,152,63739,1,0,0:0:0:0:
432,268,63974,1,2,0:0:0:0:
432,268,64091,2,0,P|401:283|324:271,1,86
274,247,64443,6,0,P|252:252|228:268,1,43,0|0,1:0|0:0,0:0:0:0:
204,192,64677,2,0,P|184:202|165:224,1,43
124,152,64911,2,0,P|107:167|94:193,1,43,2|0,0:0|0:0,0:0:0:0:
36,136,65146,2,0,P|23:155|18:183,1,43
48,248,65380,1,0,1:0:0:0:
96,72,65614,1,0,0:0:0:0:
96,72,65732,2,0,P|140:72|188:96,1,86,2|0,0:0|0:0,0:0:0:0:
244,124,66083,2,0,P|283:140|326:140,1,86,2|0,0:0|1:0,0:0:0:0:
456,64,66552,6,0,L|480:104,1,43
400,120,66786,2,0,L|412:164,1,43,2|0,0:0|0:0,0:0:0:0:
326,140,67021,2,0,L|326:186,1,43,0|0,0:0|0:0,0:0:0:0:
364,248,67255,2,0,P|336:256|260:224,1,86,0|0,1:0|0:0,0:0:0:0:
216,208,67607,2,0,L|136:240,1,86,2|0,0:0|0:0,0:0:0:0:
68,272,67958,1,2,0:0:0:0:
20,144,68193,6,0,P|16:124|20:84,1,43,0|0,1:0|0:0,0:0:0:0:
92,120,68427,2,0,P|93:99|107:62,1,43
168,112,68661,2,0,P|174:92|198:60,1,43,2|0,0:0|0:0,0:0:0:0:
244,124,68896,2,0,P|255:107|286:81,1,43
344,64,69130,1,0,1:0:0:0:
472,148,69364,1,0,0:0:0:0:
472,148,69482,2,0,P|433:166|390:166,1,86,2|0,0:0|0:0,0:0:0:0:
316,152,69833,1,2,0:0:0:0:
252,272,70068,5,0,1:0:0:0:
112,272,70302,1,0,0:0:0:0:
180,152,70536,1,2,0:0:0:0:
182,314,70771,1,0,0:0:0:0:
180,152,71005,2,0,P|96:144|40:80,1,172,2|2,0:0|0:0,0:0:0:0:
328,232,71943,6,0,P|336:272|328:316,1,86,2|0,0:0|0:0,0:0:0:0:
272,156,72411,2,0,P|264:116|272:72,1,86,8|0,0:0|0:0,0:0:0:0:
224,240,72880,2,0,P|308:240|368:168,1,172,2|8,0:0|0:0,0:0:0:0:
380,72,73583,1,0,0:0:0:0:
464,136,73818,5,2,0:0:0:0:
365,179,74052,1,0,0:0:0:0:
464,136,74286,2,0,P|472:176|456:240,1,86,8|0,0:0|0:0,0:0:0:0:
400,312,74755,2,0,L|228:304,1,172,2|8,0:0|0:0,0:0:0:0:
120,296,75458,1,0,0:0:0:0:
180,208,75693,6,0,P|196:164|156:44,1,172,2|8,0:0|0:0,0:0:0:0:
76,140,76396,1,0,0:0:0:0:
161,49,76630,2,0,L|268:52,1,86,2|0,0:0|0:0,0:0:0:0:
376,152,77099,2,0,P|336:160|290:154,1,86,8|0,0:0|0:0,0:0:0:0:
364,56,77568,2,0,P|428:72|468:172,1,172,2|8,0:0|0:0,0:0:0:0:
408,244,78271,1,0,0:0:0:0:
308,224,78505,6,0,P|256:236|156:172,2,172,2|8|2,0:0|0:0|0:0,0:0:0:0:
260,120,79677,1,0,0:0:0:0:
160,178,79911,2,0,L|72:186,1,86,8|0,0:0|0:0,0:0:0:0:
168,64,80380,2,0,P|237:17|320:31,1,172,2|8,0:0|0:0,0:0:0:0:
408,92,81083,1,0,0:0:0:0:
384,196,81318,6,0,B|408:248|408:248|416:288|404:328|376:352,1,172,2|8,0:0|0:0,0:0:0:0:
220,280,82021,1,0,0:0:0:0:
220,280,82255,2,0,L|308:272,1,86,2|0,0:0|0:0,0:0:0:0:
132,348,82724,2,0,L|44:340,1,86,8|0,0:0|0:0,0:0:0:0:
120,236,83193,2,0,P|108:152|160:76,1,172,2|8,0:0|0:0,0:0:0:0:
270,70,83896,1,0,0:0:0:0:
220,176,84130,1,2,0:0:0:0:
152,81,84364,6,0,L|64:72,1,86,0|8,0:0|0:0,0:0:0:0:
271,70,84833,2,0,P|336:88|420:36,1,172
420,36,85536,1,8,0:0:0:0:
452,152,85771,2,0,P|460:192|456:236,1,86,0|2,0:0|0:0,0:0:0:0:
316,280,86239,2,0,P|308:240|312:196,1,86,0|0,0:0|0:0,0:0:0:0:
368,128,86708,1,0,0:0:0:0:
284,112,86943,1,2,0:0:0:0:
60,44,87646,5,0,0:0:0:0:
116,96,87880,2,0,L|120:160,1,64.5000024604798
72,220,88349,2,0,B|109:244|164:236|188:192|188:192|212:152|252:136|296:148,1,258.000009841919
264,224,89521,5,0,0:0:0:0:
348,208,89755,2,0,P|384:216|412:212,1,64.5000024604798
484,256,90224,2,0,B|520:196|472:120|396:128|396:128|324:136|272:60|308:0,1,387.000014762879
384,40,91864,6,0,L|448:28,1,64.5000024604798
312,92,92333,2,0,P|248:100|184:80,1,129.00000492096
72,168,93036,1,0,0:0:0:0:
204,228,93271,2,0,L|332:216,2,129.00000492096
128,260,94443,6,0,P|124:224|132:188,1,64.5000024604798,2|0,0:0|0:0,0:0:0:0:
196,312,94911,1,2,0:0:0:0:
196,312,95146,1,0,0:0:0:0:
276,304,95380,2,0,L|368:296,1,64.5000024604798,2|0,0:0|0:0,0:0:0:0:
472,240,95849,2,0,L|407:245,1,64.5000024604798,2|0,0:0|0:0,0:0:0:0:
228,192,96318,6,0,P|292:184|336:140,1,129.00000492096,2|2,0:0|0:0,0:0:0:0:
352,64,97021,1,0,0:0:0:0:
408,116,97255,2,0,L|472:120,1,64.5000024604798,2|0,0:0|0:0,0:0:0:0:
280,88,97724,2,0,L|216:84,1,64.5000024604798,2|0,0:0|0:0,0:0:0:0:
104,120,98193,6,0,P|104:56|136:0,2,129.00000492096,2|2|2,0:0|0:0|0:0,0:0:0:0:
132,192,99364,1,0,0:0:0:0:
204,164,99599,2,0,P|208:195|201:227,1,64.5000024604798,2|0,0:0|0:0,0:0:0:0:
132,336,100068,2,0,B|131:303|152:284|152:284|184:308|228:296,1,129.00000492096,2|2,0:0|0:0,0:0:0:0:
328,328,100771,2,0,P|332:308|328:264,1,64.5000024604798,0|2,0:0|0:0,0:0:0:0:
300,192,101239,1,0,0:0:0:0:
300,192,101474,1,2,0:0:0:0:
472,88,101943,6,0,P|416:92|372:76,1,103.2,2|0,0:0|0:0,0:0:0:0:
352,64,102411,2,0,P|356:108|352:132,1,68.8,2|0,0:0|0:0,0:0:0:0:
216,192,102880,1,2,0:0:0:0:
216,192,102997,2,0,L|212:96,1,68.8
212,100,103349,2,0,P|164:96|120:64,1,103.2,2|0,0:0|0:0,0:0:0:0:
108,44,103818,6,0,L|100:156,1,109.650002091408,2|0,0:0|0:0,0:0:0:0:
100,176,104286,2,0,P|96:216|104:260,1,73.1000013942719,2|0,0:0|0:0,0:0:0:0:
168,344,104755,1,2,0:0:0:0:
168,344,104872,2,0,L|240:340,1,73.1000013942719
268,336,105224,2,0,P|316:328|376:340,1,109.650002091408,2|0,0:0|0:0,0:0:0:0:
396,348,105693,6,0,B|388:292|388:292|404:232,1,116.099996456909,2|0,0:0|0:0,0:0:0:0:
412,212,106161,2,0,P|364:216|328:204,1,77.3999976379395,2|0,0:0|0:0,0:0:0:0:
212,144,106630,1,2,0:0:0:0:
212,144,106747,2,0,L|236:68,1,77.3999976379395
244,48,107099,1,2,0:0:0:0:
172,224,107333,6,0,P|184:228|256:220,1,81.6999978183747,0|2,0:0|0:0,0:0:0:0:
124,148,107802,2,0,P|112:144|40:152,1,81.6999978183747,0|2,0:0|0:0,0:0:0:0:
212,144,108271,1,0,0:0:0:0:
84,224,108505,1,2,0:0:0:0:
212,144,108739,1,0,0:0:0:0:
84,224,108974,2,0,L|72:304,1,81.6999978183747,2|0,0:0|0:0,0:0:0:0:
124,148,109443,5,2,0:0:0:0:
164,64,109677,1,2,0:0:0:0:
256,36,109911,1,2,0:0:0:0:
352,36,110146,1,2,0:0:0:0:
428,92,110380,2,0,P|440:132|436:176,1,86,2|2,0:0|0:0,0:0:0:0:
328,352,110849,2,0,P|316:312|320:268,1,86,2|2,0:0|0:0,0:0:0:0:
360,140,111318,5,2,0:0:0:0:
272,176,111552,1,2,0:0:0:0:
180,160,111786,1,2,0:0:0:0:
96,120,112021,1,2,0:0:0:0:
68,28,112255,2,0,L|160:24,1,86,2|2,0:0|0:0,0:0:0:0:
100,216,112724,2,0,L|14:212,1,86,2|2,0:0|0:0,0:0:0:0:
180,160,113193,5,2,0:0:0:0:
276,152,113427,1,2,0:0:0:0:
364,184,113661,1,2,0:0:0:0:
436,244,113896,1,2,0:0:0:0:
464,332,114130,2,0,P|424:336|376:316,1,86,2|2,0:0|0:0,0:0:0:0:
188,256,114599,2,0,P|228:252|276:272,1,86,2|2,0:0|0:0,0:0:0:0:
100,308,115068,5,0,0:0:0:0:
88,276,115185,1,0,0:0:0:0:
88,240,115302,1,0,0:0:0:0:
100,208,115419,1,0,0:0:0:0:
124,184,115536,1,0,0:0:0:0:
148,160,115653,1,0,0:0:0:0:
160,128,115771,1,0,0:0:0:0:
160,92,115888,1,0,0:0:0:0:
148,60,116005,6,0,B|188:72|226:60|226:60|239:64|239:64|278:52|316:64,1,172
268,236,116943,6,0,P|225:241|183:233,1,86,0|0,1:0|0:0,0:0:0:0:
368,104,117411,2,0,P|409:95|452:101,1,86,2|0,0:0|0:0,0:0:0:0:
364,200,117880,1,0,1:0:0:0:
232,156,118114,1,0,0:0:0:0:
232,156,118232,1,0,0:0:0:0:
232,156,118349,2,0,L|236:68,1,86,2|0,0:0|0:0,0:0:0:0:
60,112,118818,5,0,1:0:0:0:
60,112,118935,2,0,P|52:156|60:196,1,86
24,264,119286,2,0,L|108:288,1,86,2|0,0:0|0:0,0:0:0:0:
244,320,119755,1,0,1:0:0:0:
292,188,119989,1,0,0:0:0:0:
292,188,120107,1,0,0:0:0:0:
292,188,120224,2,0,P|300:148|296:104,1,86,2|0,0:0|0:0,0:0:0:0:
196,140,120693,5,0,1:0:0:0:
220,40,120927,1,0,0:0:0:0:
124,72,121161,1,2,0:0:0:0:
202,226,121396,1,0,0:0:0:0:
372,204,121630,2,0,P|376:104|368:69,1,129,0|0,1:0|0:0,0:0:0:0:
332,12,122099,1,2,0:0:0:0:
464,84,122333,1,0,0:0:0:0:
372,204,122568,6,0,L|460:200,1,86,0|2,1:0|0:0,0:0:0:0:
316,272,123036,1,2,0:0:0:0:
316,272,123153,2,0,P|276:276|232:260,1,86,0|0,0:0|0:0,0:0:0:0:
172,220,123505,2,0,L|44:212,2,129,2|2|2,1:0|0:0|0:0,0:0:0:0:
120,116,124443,5,0,1:0:0:0:
120,116,124560,2,0,P|160:120|204:112,1,86,2|0,0:0|0:0,0:0:0:0:
268,76,124911,1,2,0:0:0:0:
420,108,125146,1,2,0:0:0:0:
412,128,125263,1,0,0:0:0:0:
404,144,125380,1,0,1:0:0:0:
396,164,125497,1,2,0:0:0:0:
388,184,125614,2,0,L|396:272,1,86,0|2,0:0|0:0,0:0:0:0:
248,340,126083,1,0,0:0:0:0:
256,176,126318,6,0,P|236:168|200:164,2,57.3333333333333,0|2|0,1:0|0:0|0:0,0:0:0:0:
212,240,126786,2,0,P|232:248|268:252,1,57.3333333333333,2|0,0:0|0:0,0:0:0:0:
132,332,127138,2,0,L|174:336,1,43,0|0,0:0|1:0,0:0:0:0:
248,340,127372,2,0,P|292:328|360:344,1,86,2|0,0:0|0:0,0:0:0:0:
332,332,127724,1,2,0:0:0:0:
412,184,127958,1,0,0:0:0:0:
316,232,128193,5,0,1:0:0:0:
316,232,128310,2,0,P|308:192|312:148,1,86,2|0,0:0|0:0,0:0:0:0:
340,80,128661,1,2,0:0:0:0:
196,108,128896,1,2,0:0:0:0:
176,116,129013,1,0,0:0:0:0:
152,124,129130,1,0,1:0:0:0:
128,132,129247,1,2,0:0:0:0:
104,140,129364,2,0,L|16:136,1,86,0|2,0:0|0:0,0:0:0:0:
180,208,129833,1,0,0:0:0:0:
128,304,130068,5,0,1:0:0:0:
128,304,130302,1,0,0:0:0:0:
244,296,130536,1,2,0:0:0:0:
244,296,130653,2,0,P|276:296|320:268,1,86,0|0,0:0|0:0,0:0:0:0:
376,218,131005,2,0,P|314:195|256:229,2,129,2|2|2,0:0|0:0|0:0,0:0:0:0:
396,236,131825,1,0,0:0:0:0:
416,256,131943,6,0,L|420:300,2,43,0|0|0,1:0|0:0|0:0,0:0:0:0:
476,208,132294,1,0,0:0:0:0:
476,208,132411,2,0,P|468:164|472:124,1,86,2|0,0:0|0:0,0:0:0:0:
480,100,132763,1,0,0:0:0:0:
492,80,132880,5,0,1:0:0:0:
356,100,133114,1,0,0:0:0:0:
356,100,133232,1,0,0:0:0:0:
356,100,133349,2,0,L|268:104,1,86,2|0,0:0|0:0,0:0:0:0:
204,140,133700,1,0,0:0:0:0:
204,140,133818,6,0,P|160:128|112:136,1,86,0|0,1:0|0:0,0:0:0:0:
56,168,134169,1,2,0:0:0:0:
132,288,134403,1,2,0:0:0:0:
132,288,134521,2,0,L|152:204,1,86,0|0,0:0|1:0,0:0:0:0:
188,56,134989,1,0,0:0:0:0:
188,56,135107,1,0,0:0:0:0:
188,56,135224,1,2,0:0:0:0:
236,216,135458,1,0,0:0:0:0:
348,92,135693,6,0,P|388:96|432:84,1,86,0|2,1:0|0:0,0:0:0:0:
452,72,136044,2,0,L|440:192,2,86,0|0|2,0:0|0:0|0:0,0:0:0:0:
455,48,136630,1,0,1:0:0:0:
484,228,136864,1,0,0:0:0:0:
484,228,136982,1,0,0:0:0:0:
484,228,137099,2,0,P|440:236|400:228,1,86,2|0,0:0|0:0,0:0:0:0:
248,168,137568,5,0,1:0:0:0:
304,236,137802,1,0,0:0:0:0:
168,136,138036,5,2,0:0:0:0:
236,80,138271,1,0,0:0:0:0:
136,220,138505,5,0,1:0:0:0:
80,152,138739,1,0,0:0:0:0:
220,252,138974,5,2,0:0:0:0:
152,308,139208,1,0,0:0:0:0:
164,316,139325,1,0,0:0:0:0:
176,324,139443,6,0,P|240:332|300:232,1,172,0|2,1:0|0:0,0:0:0:0:
304,108,140146,1,0,0:0:0:0:
304,108,140380,2,0,P|348:112|388:100,1,86,0|0,1:0|0:0,0:0:0:0:
184,176,140849,2,0,P|140:172|100:184,1,86,2|0,0:0|0:0,0:0:0:0:
36,248,141318,6,0,P|76:172|48:96,1,172,0|2,1:0|0:0,0:0:0:0:
164,56,142021,1,0,0:0:0:0:
184,176,142255,2,0,L|180:264,1,86,0|0,1:0|0:0,0:0:0:0:
40,335,142724,2,0,L|36:249,1,86,2|0,0:0|0:0,0:0:0:0:
124,328,143193,5,0,1:0:0:0:
128,332,143310,1,0,0:0:0:0:
132,336,143427,2,0,P|164:344|220:336,1,86,0|2,0:0|0:0,0:0:0:0:
352,232,143896,1,0,0:0:0:0:
352,232,144130,2,0,L|344:320,1,86,0|0,1:0|0:0,0:0:0:0:
292,144,144599,2,0,L|300:56,1,86,2|0,0:0|0:0,0:0:0:0:
244,240,145068,5,0,1:0:0:0:
92,168,145302,1,0,0:0:0:0:
173,313,145536,1,2,0:0:0:0:
193,148,145771,1,0,0:0:0:0:
80,271,146005,1,2,0:0:0:0:
320,304,146474,5,0,0:0:0:0:
436,92,146893,5,0,1:0:0:0:
52,96,161893,6,0,P|96:88|136:92,1,86,0|0,0:0|0:0,0:0:0:0:
188,256,162361,2,0,P|144:264|104:260,1,86,2|0,0:0|0:0,0:0:0:0:
60,84,162830,6,0,P|104:76|144:80,1,86
196,244,163299,2,0,P|152:252|112:248,1,86,2|0,0:0|0:0,0:0:0:0:
268,156,163768,5,0,0:0:0:0:
224,56,164002,1,0,0:0:0:0:
336,68,164236,1,2,0:0:0:0:
268,156,164471,1,0,0:0:0:0:
384,168,164705,6,0,L|472:172,1,86
224,56,165174,2,0,L|136:52,1,86,2|0,0:0|0:0,0:0:0:0:
28,48,165643,5,0,0:0:0:0:
128,72,165877,1,0,0:0:0:0:
192,152,166111,1,2,0:0:0:0:
220,252,166346,1,0,0:0:0:0:
196,352,166580,6,0,P|240:352|284:332,1,86
336,156,167049,2,0,L|320:240,1,86,2|0,0:0|0:0,0:0:0:0:
284,84,167518,5,0,0:0:0:0:
220,252,167752,1,0,0:0:0:0:
284,84,167986,1,2,0:0:0:0:
220,252,168221,1,0,0:0:0:0:
284,84,168455,6,0,P|328:72|384:80,1,86
184,136,168924,2,0,P|141:138|100:126,1,86,2|0,0:0|0:0,0:0:0:0:
20,60,169393,5,0,0:0:0:0:
0,160,169627,1,0,0:0:0:0:
60,332,169861,5,2,0:0:0:0:
80,232,170096,1,0,0:0:0:0:
200,92,170330,5,0,0:0:0:0:
180,192,170564,1,0,0:0:0:0:
240,364,170799,5,2,0:0:0:0:
260,264,171033,1,0,0:0:0:0:
360,224,171268,6,0,L|364:180,3,43
452,148,171736,2,0,L|448:192,3,43,2|0|0|0,0:0|0:0|0:0|0:0,0:0:0:0:
296,120,172205,6,0,L|300:76,3,43
388,44,172674,2,0,L|384:88,3,43,2|0|0|0,0:0|0:0|0:0|0:0,0:0:0:0:
208,148,173143,6,0,L|212:104,1,43
128,76,173377,2,0,L|124:120,1,43
136,252,173611,2,0,L|140:208,1,43,2|0,0:0|0:0,0:0:0:0:
56,180,173846,2,0,L|52:224,1,43
228,236,174080,6,0,L|272:232,1,43
383,188,174314,2,0,L|341:191,1,43
256,307,174549,2,0,L|298:305,1,43,2|0,0:0|0:0,0:0:0:0:
356,116,174783,2,0,L|314:118,1,43,0|0,0:0|0:0,0:0:0:0:
240,88,175018,5,0,0:0:0:0:
208,76,175135,1,0,0:0:0:0:
172,72,175252,1,0,0:0:0:0:
136,72,175369,1,0,0:0:0:0:
104,84,175486,1,2,0:0:0:0:
76,100,175603,1,0,0:0:0:0:
52,124,175721,1,0,0:0:0:0:
36,156,175838,1,0,0:0:0:0:
28,188,175955,5,0,0:0:0:0:
68,204,176072,1,0,0:0:0:0:
100,236,176189,1,0,0:0:0:0:
112,276,176307,1,0,0:0:0:0:
112,320,176424,6,0,P|160:308|208:312,1,96.7500036907198,2|0,0:0|0:0,0:0:0:0:
272,348,176893,6,0,P|276:284|232:240,1,129,4|0,0:0|0:0,0:0:0:0:
276,176,177361,2,0,L|284:88,1,86,8|0,0:0|0:0,0:0:0:0:
424,156,177830,1,0,0:0:0:0:
424,156,177947,2,0,L|431:241,1,86
440,316,178299,1,8,0:0:0:0:
304,252,178533,1,0,0:0:0:0:
184,344,178768,6,0,P|160:300|160:204,1,129
84,192,179236,2,0,L|104:108,1,86,8|0,0:0|0:0,0:0:0:0:
192,24,179705,1,0,0:0:0:0:
192,24,179822,1,0,0:0:0:0:
192,24,179939,1,0,0:0:0:0:
352,168,180174,2,0,P|296:176|224:136,1,129,8|0,0:0|0:0,0:0:0:0:
215,122,180643,1,0,0:0:0:0:
192,104,180760,1,0,0:0:0:0:
164,96,180877,6,0,P|120:92|80:104,1,86,0|8,0:0|0:0,0:0:0:0:
56,120,181228,1,0,0:0:0:0:
39,144,181346,1,0,0:0:0:0:
148,284,181580,1,0,0:0:0:0:
132,272,181697,1,0,0:0:0:0:
116,260,181814,2,0,L|132:172,1,86,0|8,0:0|0:0,0:0:0:0:
16,292,182283,1,0,0:0:0:0:
164,296,182518,6,0,P|220:280|288:292,1,129
344,340,182986,2,0,L|432:324,1,86,8|0,0:0|0:0,0:0:0:0:
356,192,183455,1,0,0:0:0:0:
356,192,183572,2,0,P|316:188|276:160,1,86
240,100,183924,1,8,0:0:0:0:
376,48,184158,1,0,0:0:0:0:
356,192,184393,6,0,L|228:212,1,129
164,252,184861,2,0,P|116:248|80:260,1,86,8|0,0:0|0:0,0:0:0:0:
168,156,185330,1,0,0:0:0:0:
168,156,185447,1,0,0:0:0:0:
168,156,185564,1,0,0:0:0:0:
128,332,185799,1,8,0:0:0:0:
300,276,186033,1,0,0:0:0:0:
80,224,186268,6,0,P|60:168|80:88,1,129
73,101,186736,1,8,0:0:0:0:
224,64,186971,1,0,0:0:0:0:
268,212,187205,2,0,L|280:124,1,86,0|0,0:0|0:0,0:0:0:0:
180,268,187674,2,0,L|191:353,1,86,8|0,0:0|0:0,0:0:0:0:
340,280,188143,6,0,P|396:276|460:216,1,129
452,232,188611,2,0,L|460:320,1,86,8|0,0:0|0:0,0:0:0:0:
356,164,189080,1,0,0:0:0:0:
356,164,189197,2,0,P|360:120|380:84,1,86
444,48,189549,1,8,0:0:0:0:
272,112,189783,1,0,0:0:0:0:
136,72,190018,6,0,P|172:100|192:180,1,129
164,248,190486,2,0,P|132:272|88:280,1,86,8|0,0:0|0:0,0:0:0:0:
280,232,190955,2,0,P|322:235|360:260,1,86,0|0,0:0|0:0,0:0:0:0:
236,336,191424,1,8,0:0:0:0:
236,336,191658,1,0,0:0:0:0:
396,324,191893,6,0,B|384:280|384:280|396:168,1,129,4|0,0:0|0:0,0:0:0:0:
396,172,192361,1,8,0:0:0:0:
400,148,192478,1,0,0:0:0:0:
404,124,192596,1,0,0:0:0:0:
280,232,192830,2,0,P|236:236|196:220,1,86
60,100,193299,2,0,P|120:76|188:84,1,129,8|0,0:0|0:0,0:0:0:0:
260,72,193768,2,0,L|248:168,1,86
120,260,194236,5,8,0:0:0:0:
120,260,194353,1,0,0:0:0:0:
120,260,194471,1,0,0:0:0:0:
268,328,194705,2,0,L|356:320,1,86
176,336,195174,2,0,P|112:352|36:312,1,129,8|0,0:0|0:0,0:0:0:0:
55,330,195643,1,0,0:0:0:0:
220,232,195877,1,0,0:0:0:0:
28,236,196111,5,8,0:0:0:0:
28,236,196228,2,0,P|36:196|32:152,1,86
11,76,196580,2,0,L|96:64,1,86
296,208,197049,2,0,P|212:200|168:160,1,129,8|0,0:0|0:0,0:0:0:0:
164,100,197518,6,0,P|171:67|156:16,1,86
128,232,197986,1,8,0:0:0:0:
128,232,198221,2,0,P|121:265|136:316,1,86
352,296,198689,1,0,0:0:0:0:
200,264,198924,2,0,L|288:256,1,86,8|0,0:0|0:0,0:0:0:0:
480,184,199393,6,0,L|328:168,1,129
324,168,199861,1,8,0:0:0:0:
296,164,199978,1,0,0:0:0:0:
268,160,200096,1,0,0:0:0:0:
128,232,200330,2,0,L|124:188,1,43
200,264,200564,2,0,L|204:308,1,43
52,264,200799,2,0,L|40:156,1,86,8|0,0:0|0:0,0:0:0:0:
176,96,201268,6,0,P|196:100|292:60,1,129
292,60,201736,1,8,0:0:0:0:
264,180,201971,2,0,P|272:220|268:264,1,86
88,176,202439,2,0,P|83:133|91:91,1,86,0|8,0:0|0:0,0:0:0:0:
212,12,202908,1,0,0:0:0:0:
180,176,203143,6,0,L|320:184,1,129
384,188,203611,1,8,0:0:0:0:
496,220,203846,2,0,P|500:180|488:136,1,86
304,68,204314,2,0,L|428:76,1,86,0|8,0:0|0:0,0:0:0:0:
196,92,204783,1,0,0:0:0:0:
208,288,205018,6,0,P|256:240|265:182,1,129
260,108,205486,2,0,L|384:116,1,86,8|0,0:0|0:0,0:0:0:0:
172,196,205955,2,0,L|86:201,1,86
208,288,206424,1,8,0:0:0:0:
372,216,206658,1,0,0:0:0:0:
372,216,206775,1,0,0:0:0:0:
372,216,206893,1,4,0:0:0:0:
256,192,207010,12,0,210643,0:0:0:0:
