osu file format v14

[General]
AudioFilename: River flows in you.mp3
AudioLeadIn: 0
PreviewTime: 106687
Countdown: 0
SampleSet: Normal
StackLeniency: 0.7
Mode: 0
LetterboxInBreaks: 0
EpilepsyWarning: 1
WidescreenStoryboard: 1

[Editor]
DistanceSpacing: 0.7
BeatDivisor: 4
GridSize: 4
TimelineZoom: 2.599999

[Metadata]
Title:River Flows In You (viewtifulday Remix)
TitleUnicode:River Flows In You (viewtifulday Remix)
Artist:Yiruma
ArtistUnicode:Yiruma
Creator:XinCrin
Version:Normal
Source:
Tags:Dance UK Hardcore Happy Remix trance techno [te][amo]
BeatmapID:675846
BeatmapSetID:300962

[Difficulty]
HPDrainRate:4
CircleSize:3.5
OverallDifficulty:4
ApproachRate:5
SliderMultiplier:1.2
SliderTickRate:1

[Events]
//Background and Video events
0,0,"bg.jpg",0,0
//Break Periods
2,25167,36234
2,68803,73637
//Storyboard Layer 0 (Background)
//Storyboard Layer 1 (Fail)
//Storyboard Layer 2 (Pass)
//Storyboard Layer 3 (Foreground)
//Storyboard Sound Samples

[TimingPoints]
32,389.61038961039,4,2,1,60,1,0
43668,-100,4,1,1,65,0,0
74739,-100,4,2,1,65,0,0
81363,-100,4,1,1,65,0,0
107564,-100,4,1,1,70,0,1
132596,-100,4,2,1,5,0,0

[Colours]
Combo1 : 106,170,240
Combo2 : 97,137,243
Combo3 : 166,210,255
SliderBorder : 250,250,250

[HitObjects]
41,106,1006,6,0,P|66:80|153:90,1,120,2|0,0:0|0:0,0:0:0:0:
168,120,1590,2,0,B|220:164|276:128|276:128|333:87|392:120,1,240,2|0,0:0|0:0,0:0:0:0:
420,196,2759,1,0,0:0:0:0:
408,280,3148,2,0,B|356:324|300:288|300:288|242:247|184:280,1,240,2|0,0:0|0:0,0:0:0:0:
124,336,4317,1,2,0:0:0:0:
72,272,4707,6,0,L|64:144,1,120,2|0,0:0|0:0,0:0:0:0:
84,116,5291,2,0,B|108:92|152:88|152:88|212:100,1,120,2|2,0:0|0:0,0:0:0:0:
316,132,6265,1,2,0:0:0:0:
448,296,7239,2,0,P|412:320|388:324,1,60,2|2,0:0|0:0,0:0:0:0:
360,304,7629,1,0,0:0:0:0:
320,316,7824,6,0,L|196:316,1,120,2|0,0:0|0:0,0:0:0:0:
160,300,8408,2,0,B|120:280|124:232|124:232|136:184,1,120,2|0,0:0|0:0,0:0:0:0:
156,72,9382,1,2,0:0:0:0:
364,92,10356,2,0,L|352:156,2,60,2|2|0,0:0|0:0|0:0,0:0:0:0:
328,68,10941,6,0,P|288:80|208:52,1,120,2|0,0:0|0:0,0:0:0:0:
172,52,11525,2,0,B|136:84|144:128|144:128|128:164,1,120,2|2,0:0|0:0,0:0:0:0:
80,276,12499,1,0,0:0:0:0:
332,276,13668,1,2,0:0:0:0:
384,340,14057,6,0,B|424:312|424:232|372:204|372:204|400:160|396:124,2,240,2|2|2,0:0|0:0|0:0,0:0:0:0:
256,232,16395,1,2,0:0:0:0:
124,340,17174,1,2,0:0:0:0:
256,32,18733,5,2,0:0:0:0:
120,192,19707,2,0,P|112:224|120:256,2,60,2|2|2,0:0|0:0|0:0,0:0:0:0:
136,152,20291,1,2,0:0:0:0:
448,276,21850,2,0,B|396:316|328:288|328:288|288:316|216:304,1,240,2|2,0:0|0:0,0:0:0:0:
148,260,23019,1,2,0:0:0:0:
104,188,23408,1,2,0:0:0:0:
424,88,24967,5,4,1:0:0:0:
132,308,37434,6,0,B|116:252|144:204|144:204|140:188,1,120,12|8,1:0|0:0,0:0:0:0:
64,164,38213,2,0,P|100:120|172:116,1,120,8|8,0:0|0:0,0:0:0:0:
232,160,38993,2,0,B|280:168|312:148|312:148|368:156,1,120,8|8,0:0|0:0,0:0:0:0:
392,224,39772,2,0,P|424:180|420:116,1,120,8|8,0:0|0:0,0:0:0:0:
372,48,40551,5,8,0:0:0:0:
300,88,40941,1,8,0:0:0:0:
220,60,41330,1,8,0:0:0:0:
188,136,41720,1,8,0:0:0:0:
112,168,42109,2,0,B|72:196|80:248|80:248|72:280,1,120,8|8,0:0|0:0,0:0:0:0:
128,340,42889,2,0,B|180:356|216:332|216:332|252:336,1,120,8|8,0:0|0:0,0:0:0:0:
328,324,43668,6,0,P|316:276|340:208,1,120,12|8,1:0|0:0,0:0:0:0:
364,176,44252,2,0,B|332:156|320:112|320:112|208:112,1,180,0|8,0:0|0:0,0:0:0:0:
176,112,45032,1,0,0:0:0:0:
136,124,45226,1,0,0:0:0:0:
72,180,45616,1,8,0:0:0:0:
76,264,46006,2,0,P|112:304|180:312,1,120,0|8,0:0|0:0,0:0:0:0:
252,280,46785,6,0,P|288:244|360:240,1,120,0|8,0:0|0:0,0:0:0:0:
392,256,47369,1,0,0:0:0:0:
424,280,47564,2,0,L|444:152,1,120,0|8,0:0|0:0,0:0:0:0:
420,80,48343,2,0,B|364:100|312:76|312:76|240:80,1,180
204,80,49122,2,0,P|208:128|160:176,1,120,0|8,0:0|0:0,0:0:0:0:
92,128,49902,6,0,B|68:164|80:212|80:212|68:248,1,120,0|8,0:0|0:0,0:0:0:0:
88,324,50681,2,0,P|148:340|204:320,1,120,0|8,0:0|0:0,0:0:0:0:
264,264,51460,2,0,P|324:248|380:268,1,120,0|8,0:0|0:0,0:0:0:0:
448,312,52239,2,0,B|472:264|448:216|448:216|456:180,1,120,0|8,0:0|0:0,0:0:0:0:
416,120,53019,6,0,L|296:132,1,120,0|8,0:0|0:0,0:0:0:0:
256,116,53603,1,0,0:0:0:0:
216,104,53798,2,0,L|96:116,1,120,0|8,0:0|0:0,0:0:0:0:
24,160,54577,2,0,B|44:196|92:196|92:196|84:244,1,120,0|8,0:0|0:0,0:0:0:0:
64,316,55356,2,0,B|108:324|140:300|140:300|192:316,1,120,0|8,0:0|0:0,0:0:0:0:
260,328,56135,6,0,B|292:292|284:244|284:244|332:264|380:240,1,180,0|0,0:0|0:0,0:0:0:0:
404,220,56915,2,0,P|384:168|396:96,1,120,0|8,0:0|0:0,0:0:0:0:
316,68,57694,2,0,L|192:80,1,120,0|8,0:0|0:0,0:0:0:0:
176,160,58473,2,0,L|52:172,2,120,0|8|0,0:0|0:0|0:0,0:0:0:0:
232,224,59642,6,0,P|212:256|192:272,2,60,8|0|0,0:0|0:0|0:0,0:0:0:0:
300,176,60421,2,0,P|328:156|360:148,1,60,8|0,0:0|0:0,0:0:0:0:
388,172,60811,2,0,L|384:312,2,120,0|8|0,0:0|0:0|0:0,0:0:0:0:
408,92,61980,2,0,P|376:72|360:52,1,60,8|0,0:0|0:0,0:0:0:0:
324,36,62369,6,0,P|256:64|196:44,1,120,0|8,0:0|0:0,0:0:0:0:
172,52,62954,2,0,B|112:68|76:124|76:124|112:188,1,180,0|8,0:0|0:0,0:0:0:0:
108,216,63733,1,0,0:0:0:0:
108,260,63928,1,0,0:0:0:0:
168,320,64317,1,8,0:0:0:0:
245,279,64707,2,0,P|297:255|361:271,1,120,0|8,0:0|0:0,0:0:0:0:
420,324,65486,6,0,B|396:284|356:268|356:268|388:236|388:176,1,180,0|0,0:0|0:0,0:0:0:0:
352,160,66265,2,0,P|292:160|232:108,1,120,0|8,0:0|0:0,0:0:0:0:
276,48,67044,2,0,P|336:48|396:100,2,120,0|8|0,0:0|0:0|0:0,0:0:0:0:
196,72,68213,1,8,0:0:0:0:
132,128,68603,5,4,0:0:0:0:
120,40,74837,6,0,B|96:80|116:112|116:112|112:168,1,120,8|8,0:0|0:0,0:0:0:0:
180,204,75616,2,0,B|176:247|176:247|196:279|172:319,2,120,8|8|8,0:0|0:0|0:0,0:0:0:0:
188,120,76785,1,8,0:0:0:0:
252,68,77174,2,0,P|304:48|368:64,1,120,8|8,0:0|0:0,0:0:0:0:
428,120,77954,5,8,0:0:0:0:
464,196,78343,1,8,0:0:0:0:
396,244,78733,1,8,0:0:0:0:
336,304,79122,2,0,P|272:336|204:320,1,120,8|8,0:0|0:0,0:0:0:0:
160,276,79902,1,8,0:0:0:0:
140,196,80291,2,0,P|108:176|80:172,2,60,8|8|8,0:0|0:0|0:0,0:0:0:0:
184,196,80876,1,8,0:0:0:0:
220,176,81070,6,0,L|208:48,2,120,4|8|0,1:0|0:0|0:0,0:0:0:0:
284,232,82239,1,8,0:0:0:0:
240,304,82629,2,0,B|280:332|328:308|328:308|360:312,1,120,0|8,0:0|0:0,0:0:0:0:
440,304,83408,2,0,B|452:248|424:212|424:212|428:184,1,120,0|8,0:0|0:0,0:0:0:0:
360,136,84187,6,0,P|328:144|296:144,1,60,0|0,0:0|0:0,0:0:0:0:
260,144,84577,2,0,L|272:272,2,120,8|0|8,0:0|0:0|0:0,0:0:0:0:
192,96,85746,1,0,0:0:0:0:
112,116,86135,1,8,0:0:0:0:
48,172,86525,2,0,P|60:204|64:232,1,60,0|0,0:0|0:0,0:0:0:0:
60,272,86915,2,0,P|84:296|108:308,1,60,8|0,0:0|0:0,0:0:0:0:
148,296,87304,6,0,L|276:280,1,120,0|8,1:0|0:0,0:0:0:0:
348,296,88083,2,0,P|344:260|348:232,1,60,0|0,0:0|0:0,0:0:0:0:
376,208,88473,2,0,P|378:178|374:148,1,60,8|0,0:0|0:0,0:0:0:0:
340,124,88863,2,0,L|208:128,1,120,0|8,1:0|0:0,0:0:0:0:
160,68,89642,2,0,P|140:90|132:119,2,60,0|0|8,0:0|0:0|0:0,0:0:0:0:
240,44,90421,6,0,L|359:40,1,120,0|8,1:0|0:0,0:0:0:0:
436,76,91200,2,0,B|440:124|420:156|420:156|432:200,1,120,0|8,0:0|0:0,0:0:0:0:
436,276,91980,2,0,B|380:324|300:276|300:276|204:288,1,240,0|0,1:0|0:0,0:0:0:0:
164,288,92954,2,0,P|156:248|148:224,1,60,0|8,0:0|0:0,0:0:0:0:
72,236,93538,6,0,P|80:192|144:148,1,120,0|8,1:0|0:0,0:0:0:0:
220,156,94317,2,0,P|280:168|344:144,1,120,0|8,0:0|0:0,0:0:0:0:
396,92,95096,2,0,B|428:128|416:176|416:176|440:212,2,120,0|8|0,1:0|0:0|0:0,0:0:0:0:
320,60,96265,1,8,0:0:0:0:
236,72,96655,6,0,L|168:80,1,60,0|0,0:0|0:0,0:0:0:0:
148,112,97044,2,0,P|144:148|132:176,1,60,8|0,0:0|0:0,0:0:0:0:
108,200,97434,2,0,L|240:232,1,120,0|8,0:0|0:0,0:0:0:0:
276,296,98213,2,0,L|408:328,1,120,0|8,0:0|0:0,0:0:0:0:
468,288,98993,1,0,0:0:0:0:
428,216,99382,1,8,0:0:0:0:
488,156,99772,6,0,P|420:132|372:156,1,120,0|8,0:0|0:0,0:0:0:0:
312,204,100551,2,0,P|256:222|202:197,1,120,0|8,0:0|0:0,0:0:0:0:
168,120,101330,1,0,0:0:0:0:
88,140,101720,1,8,0:0:0:0:
40,208,102109,2,0,B|32:248|64:280|64:280|80:320,1,120,0|8,0:0|0:0,0:0:0:0:
156,348,102889,5,0,0:0:0:0:
236,320,103278,1,8,0:0:0:0:
320,336,103668,2,0,P|384:352|436:324,1,120,0|8,0:0|0:0,0:0:0:0:
476,260,104447,5,4,0:0:0:0:
256,192,106006,12,4,107564,0:0:0:0:
128,256,109122,6,0,L|256:280,1,120,0|8,0:0|0:0,0:0:0:0:
324,308,109902,1,0,0:0:0:0:
404,288,110291,1,8,0:0:0:0:
460,224,110681,6,0,B|464:168|428:136|428:136|424:100,1,120,0|8,0:0|0:0,0:0:0:0:
368,52,111460,2,0,P|296:72|244:52,1,120,0|8,0:0|0:0,0:0:0:0:
172,72,112239,1,0,0:0:0:0:
100,116,112629,1,8,0:0:0:0:
44,180,113019,2,0,P|84:200|156:180,1,120,0|8,0:0|0:0,0:0:0:0:
236,200,113798,6,0,B|208:240|208:276|208:276|192:320,1,120,0|8,0:0|0:0,0:0:0:0:
272,344,114577,2,0,L|340:344,1,60,0|0,0:0|0:0,0:0:0:0:
364,316,114967,2,0,P|356:288|356:256,1,60,8|0,0:0|0:0,0:0:0:0:
384,224,115356,2,0,P|384:160|368:96,1,120,0|8,0:0|0:0,0:0:0:0:
296,68,116135,1,0,0:0:0:0:
228,116,116525,1,8,0:0:0:0:
156,160,116915,6,0,B|136:116|156:76|156:76|136:40,2,120,0|8|0,0:0|0:0|0:0,0:0:0:0:
212,220,118083,1,8,0:0:0:0:
180,296,118473,2,0,P|228:304|284:264,1,120,0|8,0:0|0:0,0:0:0:0:
356,224,119252,1,0,0:0:0:0:
436,252,119642,1,8,0:0:0:0:
504,200,120032,6,0,B|480:168|436:164|436:164|448:108,1,120,0|8,0:0|0:0,0:0:0:0:
384,68,120811,2,0,B|340:84|300:52|300:52|260:56,1,120,0|8,0:0|0:0,0:0:0:0:
192,80,121590,2,0,B|168:116|192:152|192:152|176:200,1,120,0|8,0:0|0:0,0:0:0:0:
192,276,122369,2,0,P|132:268|96:212,2,120,0|8|0,0:0|0:0|0:0,0:0:0:0:
276,264,123538,5,8,0:0:0:0:
352,296,123928,1,0,0:0:0:0:
408,236,124317,1,8,0:0:0:0:
364,164,124707,2,0,B|348:128|312:120|312:120|312:60,1,120,0|8,0:0|0:0,0:0:0:0:
232,40,125486,2,0,P|200:56|112:36,1,120,0|8,0:0|0:0,0:0:0:0:
44,76,126265,5,0,0:0:0:0:
44,160,126655,1,8,0:0:0:0:
40,244,127044,2,0,B|84:244|108:212|108:212|156:220,1,120,0|8,0:0|0:0,0:0:0:0:
212,272,127824,2,0,B|240:236|228:192|228:192|268:176,1,120,0|8,0:0|0:0,0:0:0:0:
344,184,128603,2,0,B|372:188|396:180|396:180|424:188|472:176,2,120,0|8|0,0:0|0:0|0:0,0:0:0:0:
296,112,129772,5,8,0:0:0:0:
220,76,130161,1,0,0:0:0:0:
148,124,130551,2,0,B|116:156|120:184|120:184|96:232,1,120,8|0,0:0|0:0,0:0:0:0:
76,312,131330,1,8,0:0:0:0:
156,340,131720,1,0,0:0:0:0:
220,284,132109,1,8,0:0:0:0:
300,308,132499,5,4,0:0:0:0:
256,192,132596,12,2,138733,0:0:0:0:
