osu file format v14

[General]
AudioFilename: River flows in you.mp3
AudioLeadIn: 0
PreviewTime: 106687
Countdown: 0
SampleSet: Soft
StackLeniency: 0.7
Mode: 0
LetterboxInBreaks: 0
EpilepsyWarning: 1
WidescreenStoryboard: 1

[Editor]
DistanceSpacing: 1
BeatDivisor: 4
GridSize: 4
TimelineZoom: 2.599999

[Metadata]
Title:River Flows In You (viewtifulday Remix)
TitleUnicode:River Flows In You (viewtifulday Remix)
Artist:Yiruma
ArtistUnicode:Yiruma
Creator:XinCrin
Version:Hard
Source:
Tags:Dance UK Hardcore Happy Remix trance techno [te][amo]
BeatmapID:674909
BeatmapSetID:300962

[Difficulty]
HPDrainRate:6
CircleSize:4
OverallDifficulty:6
ApproachRate:7.5
SliderMultiplier:1.6
SliderTickRate:1

[Events]
//Background and Video events
0,0,"bg.jpg",0,0
//Break Periods
2,25167,36609
2,68803,74012
//Storyboard Layer 0 (Background)
//Storyboard Layer 1 (Fail)
//Storyboard Layer 2 (Pass)
//Storyboard Layer 3 (Foreground)
//Storyboard Sound Samples

[TimingPoints]
32,389.61038961039,4,2,1,60,1,0
43668,-100,4,1,1,65,0,0
74739,-100,4,2,1,65,0,0
81363,-100,4,1,1,65,0,0
107564,-100,4,1,1,70,0,1
132596,-100,4,2,1,5,0,0

[Colours]
Combo1 : 106,170,240
Combo2 : 97,137,243
Combo3 : 166,210,255
SliderBorder : 250,250,250

[HitObjects]
112,136,1006,6,0,L|116:84,2,40,2|2|2,0:0|0:0|0:0,0:0:0:0:
68,204,1395,1,0,0:0:0:0:
116,268,1590,2,0,P|160:304|252:264,1,160,2|0,0:0|0:0,0:0:0:0:
184,224,2174,2,0,L|336:308,2,160,2|2|0,0:0|0:0|0:0,0:0:0:0:
196,144,3148,5,2,0:0:0:0:
196,144,4122,2,0,L|168:100,2,40,2|2|2,0:0|0:0|0:0,0:0:0:0:
272,176,4512,1,0,0:0:0:0:
336,132,4707,6,0,B|360:176|336:220|336:220|364:296,1,160,2|0,0:0|0:0,0:0:0:0:
404,352,5291,2,0,P|340:320|260:348,2,160,2|2|0,0:0|0:0|0:0,0:0:0:0:
468,304,6265,5,2,0:0:0:0:
468,304,7239,2,0,L|484:348,2,40,2|2|2,0:0|0:0|0:0,0:0:0:0:
448,228,7629,1,0,0:0:0:0:
392,168,7824,6,0,P|328:184|236:152,1,160,2|0,0:0|0:0,0:0:0:0:
204,84,8408,2,0,B|208:124|188:160|188:160|204:200|196:248,1,160,2|0,0:0|0:0,0:0:0:0:
132,48,9382,5,2,0:0:0:0:
132,48,10356,2,0,L|72:56,2,40,2|2|2,0:0|0:0|0:0,0:0:0:0:
212,32,10746,1,0,0:0:0:0:
284,68,10941,6,0,B|324:80|356:68|356:68|392:84|452:72,1,160,2|0,0:0|0:0,0:0:0:0:
484,144,11525,2,0,L|456:304,1,160,2|2,0:0|0:0,0:0:0:0:
404,152,12499,5,0,0:0:0:0:
404,152,13668,1,2,0:0:0:0:
404,152,14057,6,0,B|340:192|256:132|256:132|176:192|104:152,2,320,2|2|2,0:0|0:0|0:0,0:0:0:0:
468,204,16395,5,2,0:0:0:0:
456,284,17174,1,2,0:0:0:0:
388,324,18733,5,2,0:0:0:0:
60,96,19707,2,0,P|104:112|136:140,1,80,2|2,0:0|0:0,0:0:0:0:
156,208,20096,1,2,0:0:0:0:
120,280,20291,5,2,0:0:0:0:
120,280,21850,6,0,B|176:300|212:360|212:360|424:356,1,320,2|2,0:0|0:0,0:0:0:0:
460,296,23019,1,2,0:0:0:0:
476,216,23408,1,2,0:0:0:0:
412,168,24967,5,4,1:0:0:0:
180,296,37434,6,8,B|168:272|176:244|176:244|128:232|96:176,2,160,12|8|8,1:0|0:0|0:0,0:0:0:0:
256,272,38603,1,8,0:0:0:0:
332,296,38993,2,8,B|344:272|336:244|336:244|384:232|415:177,2,160,8|8|8,0:0|0:0|0:0,0:0:0:0:
256,272,40161,1,8,0:0:0:0:
192,48,40551,6,8,P|176:84|144:112,1,80,8|8,0:0|0:0,0:0:0:0:
256,104,40941,2,8,B|256:132|256:132|260:144|260:144|260:192,1,80
320,48,41330,2,8,P|336:84|368:112,2,80,8|8|8,0:0|0:0|0:0,0:0:0:0:
400,40,41915,1,8,0:0:0:0:
460,92,42109,6,0,L|460:144,3,40,8|8|8|8,0:0|0:0|0:0|0:0,0:0:0:0:
440,168,42499,2,0,L|440:220,3,40,8|8|8|8,0:0|0:0|0:0|0:0,0:0:0:0:
412,236,42889,2,8,L|412:260,16,20,8|8|8|8|8|8|8|8|8|8|8|8|12|8|8|8|4,0:0|0:0|0:0|0:0|0:0|0:0|0:0|0:0|0:0|0:0|0:0|0:0|1:0|0:0|0:0|0:0|1:0,0:0:0:0:
236,216,44057,6,0,P|204:236|152:244,1,80,8|0,0:0|0:0,0:0:0:0:
108,308,44447,2,0,B|148:280|164:244|164:244|124:236|96:208,1,160,0|8,0:0|0:0,0:0:0:0:
84,132,45032,1,0,0:0:0:0:
160,104,45226,6,0,P|216:104|248:88,1,80,0|0,0:0|0:0,0:0:0:0:
316,84,45616,2,0,L|400:84,1,80,8|0,0:0|0:0,0:0:0:0:
456,140,46006,2,0,P|416:216|448:288,1,160,0|8,0:0|0:0,0:0:0:0:
388,340,46590,1,0,0:0:0:0:
312,316,46785,6,0,L|232:328,1,80,0|0,0:0|0:0,0:0:0:0:
156,308,47174,1,8,0:0:0:0:
108,244,47369,1,0,0:0:0:0:
152,176,47564,2,0,B|184:180|216:168|216:168|252:192|312:180,1,160,0|8,0:0|0:0,0:0:0:0:
380,144,48148,1,0,0:0:0:0:
404,220,48343,6,0,P|384:256|380:296,1,80,0|0,0:0|0:0,0:0:0:0:
280,340,48733,2,0,P|299:305|304:265,1,80,8|0,0:0|0:0,0:0:0:0:
224,280,49122,2,0,L|56:280,1,160,0|8,0:0|0:0,0:0:0:0:
44,200,49707,1,0,0:0:0:0:
36,120,49902,6,0,P|52:76|80:52,1,80
156,72,50291,1,8,0:0:0:0:
188,152,50486,2,0,L|352:156,1,160,0|0,0:0|0:0,0:0:0:0:
416,196,51070,1,8,0:0:0:0:
448,268,51265,1,0,0:0:0:0:
388,324,51460,6,0,P|344:336|296:328,1,80,0|0,0:0|0:0,0:0:0:0:
268,264,51850,1,8,0:0:0:0:
196,296,52044,1,0,0:0:0:0:
128,256,52239,2,0,B|112:212|136:176|136:176|100:100,1,160,0|8,0:0|0:0,0:0:0:0:
92,28,52824,1,0,0:0:0:0:
172,32,53019,6,0,L|276:36,1,80,0|0,0:0|0:0,0:0:0:0:
320,76,53408,2,0,L|424:80,1,80,8|0,0:0|0:0,0:0:0:0:
456,136,53798,2,0,P|472:220|424:272,1,160,0|8,0:0|0:0,0:0:0:0:
352,244,54382,1,0,0:0:0:0:
272,224,54577,6,0,B|232:208|196:220|196:220|140:148,1,160,0|8,0:0|0:0,0:0:0:0:
68,136,55161,1,0,0:0:0:0:
68,216,55356,2,0,L|120:280,1,80,0|0,0:0|0:0,0:0:0:0:
176,336,55746,1,8,0:0:0:0:
256,320,55941,1,0,0:0:0:0:
316,268,56135,6,0,B|288:224|368:176|328:104,1,160,0|8,0:0|0:0,0:0:0:0:
252,120,56720,2,0,P|216:140|172:144,1,80,0|0,0:0|0:0,0:0:0:0:
100,124,57109,1,0,0:0:0:0:
72,200,57304,2,0,L|100:284,1,80,8|0,0:0|0:0,0:0:0:0:
60,348,57694,6,0,P|100:292|200:296,1,160,0|8,0:0|0:0,0:0:0:0:
256,328,58278,1,0,0:0:0:0:
336,344,58473,2,0,P|388:352|424:344,1,80,0|0,0:0|0:0,0:0:0:0:
460,280,58863,1,8,0:0:0:0:
472,200,59057,1,0,0:0:0:0:
412,144,59252,6,0,B|368:156|328:144|328:144|296:220,1,160,0|8,0:0|0:0,0:0:0:0:
232,256,59837,2,0,P|184:264|144:256,1,80,0|0,0:0|0:0,0:0:0:0:
116,188,60226,1,0,0:0:0:0:
116,68,60421,2,0,P|80:48|36:48,1,80,8|0,0:0|0:0,0:0:0:0:
56,136,60811,6,0,P|120:164|204:108,1,160,0|8,0:0|0:0,0:0:0:0:
248,64,61395,2,0,L|336:64,1,80,0|0,0:0|0:0,0:0:0:0:
388,116,61785,2,0,P|376:160|384:204,1,80,0|8,0:0|0:0,0:0:0:0:
420,264,62174,1,0,0:0:0:0:
456,336,62369,6,0,P|408:288|312:312,1,160,0|8,0:0|0:0,0:0:0:0:
244,320,62954,2,0,L|140:316,1,80,0|0,0:0|0:0,0:0:0:0:
100,268,63343,1,0,0:0:0:0:
140,200,63538,1,8,0:0:0:0:
116,124,63733,1,0,0:0:0:0:
176,72,63928,6,0,B|216:76|244:60|244:60|284:80|336:64,1,160,0|8,0:0|0:0,0:0:0:0:
392,120,64512,2,0,L|384:212,1,80,0|0,0:0|0:0,0:0:0:0:
456,236,64902,2,0,L|448:328,1,80,0|8,0:0|0:0,0:0:0:0:
372,336,65291,1,0,0:0:0:0:
296,312,65486,6,0,P|232:268|136:280,1,160,0|8,0:0|0:0,0:0:0:0:
88,320,66070,2,0,P|72:276|84:232,1,80,0|0,0:0|0:0,0:0:0:0:
132,184,66460,1,0,0:0:0:0:
100,112,66655,1,8,0:0:0:0:
168,68,66850,1,0,0:0:0:0:
244,92,67044,6,0,L|416:84,1,160,0|8,0:0|0:0,0:0:0:0:
460,144,67629,2,0,P|456:184|468:224,1,80,0|0,0:0|0:0,0:0:0:0:
472,304,68019,2,0,P|432:316|384:308,1,80,0|8,0:0|0:0,0:0:0:0:
324,272,68408,1,0,0:0:0:0:
252,308,68603,5,4,0:0:0:0:
201,307,74837,6,0,P|124:299|88:232,2,160,8|8|8,0:0|0:0|0:0,0:0:0:0:
256,248,76006,1,8,0:0:0:0:
310,307,76395,2,0,P|387:299|423:232,2,160,8|8|8,0:0|0:0|0:0,0:0:0:0:
256,248,77564,1,8,0:0:0:0:
200,96,77954,6,0,L|116:112,1,80,8|8,0:0|0:0,0:0:0:0:
124,192,78343,2,0,L|212:172,1,80,8|8,0:0|0:0,0:0:0:0:
312,96,78733,2,0,L|396:112,1,80,8|8,0:0|0:0,0:0:0:0:
388,192,79122,2,0,L|300:172,1,80,8|8,0:0|0:0,0:0:0:0:
296,252,79512,6,0,L|340:264,3,40,8|8|8|8,0:0|0:0|0:0|0:0,0:0:0:0:
360,296,79902,2,0,L|404:308,3,40,8|8|8|8,0:0|0:0|0:0|0:0,0:0:0:0:
436,300,80291,2,0,L|468:312,16,20,8|8|8|8|8|8|8|8|8|8|8|8|4|0|0|0|4,0:0|0:0|0:0|0:0|0:0|0:0|0:0|0:0|0:0|0:0|0:0|0:0|1:0|0:0|0:0|0:0|1:0,0:0:0:0:
364,156,81460,6,0,P|260:144|232:92,1,160,8|0,0:0|0:0,0:0:0:0:
156,116,82044,2,0,L|152:204,1,80,0|8,0:0|0:0,0:0:0:0:
104,260,82434,1,0,0:0:0:0:
164,312,82629,6,0,P|240:288|328:344,2,160,0|8|0,0:0|0:0|0:0,0:0:0:0:
84,320,83603,2,0,P|48:296|32:260,1,80,0|8,0:0|0:0,0:0:0:0:
48,184,83993,1,0,0:0:0:0:
112,136,84187,6,0,L|208:132,1,80,0|0,0:0|0:0,0:0:0:0:
260,88,84577,2,0,L|356:84,1,80,8|0,0:0|0:0,0:0:0:0:
412,124,84967,2,0,P|412:172|428:204,1,80,0|0,0:0|0:0,0:0:0:0:
484,256,85356,1,8,0:0:0:0:
428,312,85551,1,0,0:0:0:0:
348,304,85746,6,0,B|308:292|268:304|268:304|196:260,2,160,0|8|0,0:0|0:0|0:0,0:0:0:0:
364,224,86720,2,0,P|328:196|312:160,1,80,0|8,0:0|0:0,0:0:0:0:
260,104,87109,1,0,0:0:0:0:
184,76,87304,6,0,B|152:104|104:100|104:100|120:184,1,160,0|8,1:0|0:0,0:0:0:0:
76,240,87889,1,0,0:0:0:0:
124,304,88083,2,0,P|152:328|200:336,1,80,0|0,0:0|0:0,0:0:0:0:
268,308,88473,2,0,P|256:256|260:224,1,80,8|0,0:0|0:0,0:0:0:0:
228,156,88863,6,0,P|288:224|356:216,2,160,0|8|0,1:0|0:0|0:0,0:0:0:0:
184,88,89837,2,0,P|144:104|104:104,2,80,0|8|0,0:0|0:0|0:0,0:0:0:0:
248,40,90421,6,0,L|328:40,1,80,0|0,1:0|0:0,0:0:0:0:
388,96,90811,2,0,L|468:96,1,80,8|0,0:0|0:0,0:0:0:0:
492,172,91200,2,0,P|488:220|468:260,1,80,0|0,0:0|0:0,0:0:0:0:
396,252,91590,1,8,0:0:0:0:
344,312,91785,1,0,0:0:0:0:
272,276,91980,6,0,B|240:288|200:280|200:280|192:240|140:208,1,160,0|8,1:0|0:0,0:0:0:0:
72,188,92564,1,0,0:0:0:0:
100,112,92759,2,0,P|136:80|168:72,1,80,0|0,0:0|0:0,0:0:0:0:
236,116,93148,2,0,L|316:116,1,80,8|0,0:0|0:0,0:0:0:0:
380,68,93538,6,0,P|348:112|384:208,2,160,0|8|0,1:0|0:0|0:0,0:0:0:0:
420,136,94512,1,0,0:0:0:0:
452,208,94707,2,0,P|436:252|408:272,1,80,8|0,0:0|0:0,0:0:0:0:
376,344,95096,6,0,B|340:332|328:288|328:288|240:304,1,160,0|8,1:0|0:0,0:0:0:0:
164,304,95681,1,0,0:0:0:0:
88,328,95876,2,0,P|88:280|112:244,1,80,0|0,0:0|0:0,0:0:0:0:
160,196,96265,1,8,0:0:0:0:
116,128,96460,1,0,0:0:0:0:
172,72,96655,6,0,L|260:56,1,80,0|0,0:0|0:0,0:0:0:0:
320,100,97044,2,0,L|408:84,1,80,8|0,0:0|0:0,0:0:0:0:
468,124,97434,1,0,0:0:0:0:
440,200,97629,1,0,0:0:0:0:
484,268,97824,2,0,P|440:284|396:268,1,80,8|0,0:0|0:0,0:0:0:0:
352,220,98213,6,0,L|412:376,2,160,0|8|0,0:0|0:0|0:0,0:0:0:0:
276,196,99187,2,0,P|236:208|192:204,1,80,0|8,0:0|0:0,0:0:0:0:
128,168,99577,1,0,0:0:0:0:
56,204,99772,6,0,B|80:248|128:248|128:248|104:324,2,160,0|8|0,0:0|0:0|0:0,0:0:0:0:
64,124,100746,2,0,P|88:88|128:72,1,80,0|8,0:0|0:0,0:0:0:0:
200,92,101135,1,0,0:0:0:0:
268,132,101330,6,0,P|332:160|432:128,2,160,0|8|0,0:0|0:0|0:0,0:0:0:0:
216,192,102304,2,0,L|224:292,1,80,0|8,0:0|0:0,0:0:0:0:
272,336,102694,1,0,0:0:0:0:
328,280,102889,6,0,P|368:264|412:264,1,80,0|0,0:0|0:0,0:0:0:0:
480,292,103278,1,8,0:0:0:0:
488,212,103473,1,0,0:0:0:0:
432,152,103668,2,0,L|344:132,1,80,0|0,0:0|0:0,0:0:0:0:
284,176,104057,2,0,L|196:156,1,80,8|0,0:0|0:0,0:0:0:0:
128,132,104447,5,4,0:0:0:0:
256,192,106006,12,2,107174,2:2:0:0:
144,260,107564,6,0,P|116:192|148:112,2,160,4|8|0,0:0|0:0|0:0,0:0:0:0:
208,212,108538,1,0,0:0:0:0:
256,276,108733,1,8,0:0:0:0:
300,208,108928,1,0,0:0:0:0:
368,260,109122,6,0,P|396:192|364:112,2,160,0|8|0,0:0|0:0|0:0,0:0:0:0:
340,336,110096,2,0,P|380:344|424:336,2,80,0|8|0,0:0|0:0|0:0,0:0:0:0:
272,296,110681,6,0,L|188:312,1,80,0|0,0:0|0:0,0:0:0:0:
124,272,111070,2,0,B|96:252|120:224|100:200,1,80,8|0,0:0|0:0,0:0:0:0:
24,176,111460,2,0,P|48:140|84:124,1,80,0|0,0:0|0:0,0:0:0:0:
156,96,111850,1,8,0:0:0:0:
224,140,112044,1,0,0:0:0:0:
284,88,112239,6,0,B|400:72|400:72|440:88,1,160,0|8,0:0|0:0,0:0:0:0:
468,164,112824,1,0,0:0:0:0:
404,208,113019,2,0,P|436:236|480:240,1,80,0|0,0:0|0:0,0:0:0:0:
488,320,113408,2,0,L|384:340,1,80,8|0,0:0|0:0,0:0:0:0:
332,308,113798,6,0,B|288:332|240:304|240:304|180:336,2,160,0|8|0,0:0|0:0|0:0,0:0:0:0:
292,236,114772,1,0,0:0:0:0:
232,180,114967,2,0,P|268:156|312:156,1,80,8|0,0:0|0:0,0:0:0:0:
232,180,115356,6,0,P|192:152|68:192,2,160,0|8|0,0:0|0:0|0:0,0:0:0:0:
268,252,116330,1,0,0:0:0:0:
316,316,116525,2,0,L|400:320,1,80,8|0,0:0|0:0,0:0:0:0:
460,268,116915,5,0,0:0:0:0:
492,196,117109,1,0,0:0:0:0:
432,144,117304,2,0,L|352:140,1,80,8|0,0:0|0:0,0:0:0:0:
276,164,117694,2,0,P|276:120|292:84,2,80,0|0|8,0:0|0:0|0:0,0:0:0:0:
296,240,118278,1,0,0:0:0:0:
252,304,118473,6,0,B|132:320|132:320|108:308|92:304,2,160,0|8|0,0:0|0:0|0:0,0:0:0:0:
332,304,119447,2,0,P|368:320|412:320,1,80,0|8,0:0|0:0,0:0:0:0:
472,268,119837,1,0,0:0:0:0:
472,188,120032,6,0,P|388:152|320:160,1,160,0|8,0:0|0:0,0:0:0:0:
244,148,120616,2,0,P|220:120|212:76,2,80
248,236,121200,1,8,0:0:0:0:
192,292,121395,1,0,0:0:0:0:
120,256,121590,6,0,L|104:168,1,80,0|0,0:0|0:0,0:0:0:0:
44,124,121980,2,0,P|84:100|124:100,1,80,8|0,0:0|0:0,0:0:0:0:
192,124,122369,1,0,0:0:0:0:
264,92,122564,1,0,0:0:0:0:
336,128,122759,2,0,L|432:132,1,80,8|0,0:0|0:0,0:0:0:0:
472,188,123148,6,0,L|460:280,1,80,0|0,0:0|0:0,0:0:0:0:
400,320,123538,2,0,P|360:328|320:316,1,80,8|0,0:0|0:0,0:0:0:0:
264,260,123928,2,0,P|224:252|184:264,1,80,0|0,0:0|0:0,0:0:0:0:
132,324,124317,1,8,0:0:0:0:
56,296,124512,1,0,0:0:0:0:
52,216,124707,6,0,P|76:124|52:52,2,160,0|8|0,0:0|0:0|0:0,0:0:0:0:
56,296,125681,1,0,0:0:0:0:
124,340,125876,2,0,L|208:348,1,80,8|0,0:0|0:0,0:0:0:0:
256,288,126265,5,0,0:0:0:0:
300,220,126460,1,0,0:0:0:0:
256,152,126655,1,8,0:0:0:0:
212,220,126850,1,0,0:0:0:0:
308,347,127044,2,0,L|388:340,1,80,0|0,0:0|0:0,0:0:0:0:
440,280,127434,2,0,P|440:224|420:188,1,80,8|0,0:0|0:0,0:0:0:0:
356,172,127824,6,0,L|192:184,2,160,0|8|0,0:0|0:0|0:0,0:0:0:0:
364,92,128798,1,0,0:0:0:0:
284,96,128993,2,0,P|240:88|208:64,1,80,8|0,0:0|0:0,0:0:0:0:
132,56,129382,5,0,0:0:0:0:
64,100,129577,1,0,0:0:0:0:
72,180,129772,2,0,L|88:280,1,80,8|0,0:0|0:0,0:0:0:0:
176,338,130161,2,0,L|164:260,1,80,0|0,0:0|0:0,0:0:0:0:
184,184,130551,1,8,0:0:0:0:
264,184,130746,1,0,0:0:0:0:
284,108,130941,6,0,B|324:120|340:160|340:160|412:116,2,160,0|8|0,0:0|0:0|0:0,0:0:0:0:
204,108,131915,2,0,P|172:116|116:104,1,80,0|8,0:0|0:0,0:0:0:0:
164,40,132304,1,0,0:0:0:0:
256,192,132499,5,4,0:0:0:0:
256,192,132596,12,2,138733,0:0:0:0:
