osu file format v13

[General]
AudioFilename: kiss the of rain1.mp3
AudioLeadIn: 0
PreviewTime: 489
Countdown: 0
SampleSet: Normal
StackLeniency: 0.7
Mode: 3
LetterboxInBreaks: 0
SpecialStyle: 0
WidescreenStoryboard: 1

[Editor]
DistanceSpacing: 0.5
BeatDivisor: 8
GridSize: 4
TimelineZoom: 1

[Metadata]
Title:Kiss the Rain
TitleUnicode:Kiss the Rain
Artist:Yiruma
ArtistUnicode:Yiruma
Creator:KawaEE
Version:4K NORMAL
Source:
Tags:
BeatmapID:519866
BeatmapSetID:222376

[Difficulty]
HPDrainRate:7
CircleSize:4
OverallDifficulty:7
ApproachRate:5
SliderMultiplier:1.4
SliderTickRate:1

[Events]
//Background and Video events
0,0,"BG.png",0,0
//Break Periods
//Storyboard Layer 0 (Background)
//Storyboard Layer 1 (Fail)
//Storyboard Layer 2 (Pass)
//Storyboard Layer 3 (Foreground)
//Storyboard Sound Samples
Sample,58821,0,"4+.wav",70
Sample,62299,0,"6#.wav",70
Sample,65777,0,"4.wav",70
Sample,67516,0,"5#.wav",70
Sample,69256,0,"2#.wav",70
Sample,72734,0,"5#.wav",70
Sample,74473,0,"5.wav",70
Sample,75343,0,"5+.wav",70
Sample,76212,0,"5.wav",70
Sample,90995,0,"2#+.wav",70
Sample,144473,0,"L5#-.wav",70
Sample,145343,0,"L5#-.wav",70
Sample,146212,0,"L5#-.wav",70
Sample,147082,0,"L5#-.wav",70
Sample,147951,0,"L5#-.wav",70
Sample,148821,0,"L1-.wav",70
Sample,149690,0,"L4-.wav",70
Sample,150560,0,"L4-.wav",70
Sample,166212,0,"L6#--.wav",70
Sample,166647,0,"L2#--.wav",70
//Background Colour Transformations
3,100,163,162,255

[TimingPoints]
3193,434.782608695652,4,1,1,100,1,0
86671,-100,4,1,1,100,0,1
138845,-100,4,1,1,100,0,0
170149,-100,4,1,1,100,0,1
222323,-100,4,1,1,100,0,0

[HitObjects]
64,192,2540,5,0,0:0:0:70:2#+.wav
192,192,2757,1,0,0:0:0:70:5#+.wav
320,192,2974,1,0,0:0:0:70:6#+.wav
448,192,3192,128,0,3626:0:0:0:70:6#+.wav
64,192,3626,1,0,0:0:0:70:L2#.wav
192,192,4061,1,0,0:0:0:70:L6#.wav
320,192,4496,1,0,0:0:0:70:L2#.wav
448,192,4931,1,0,0:0:0:70:L5#.wav
475,192,6018,1,0,0:0:0:70:5#+.wav
320,192,6235,1,0,0:0:0:70:6#+.wav
192,192,6453,1,0,0:0:0:70:1++.wav
64,192,6670,128,0,7105:0:0:0:70:6#+.wav
448,192,7105,1,0,0:0:0:70:L5.wav
320,192,7539,1,0,0:0:0:70:L2#+.wav
192,192,7974,1,0,0:0:0:70:L5.wav
36,192,8409,1,0,0:0:0:70:L1+.wav
64,192,9496,1,0,0:0:0:70:2#++.wav
192,192,9713,1,0,0:0:0:70:4++.wav
320,192,9931,1,0,0:0:0:70:5++.wav
448,192,10148,128,0,10583:0:0:0:70:5++.wav
64,192,10583,1,0,0:0:0:70:L1+.wav
192,192,11018,1,0,0:0:0:70:L5+.wav
320,192,11453,1,0,0:0:0:70:L1+.wav
448,192,11887,1,0,0:0:0:70:L5#+.wav
64,192,12322,128,0,12757:0:0:0:70:6#++.wav
192,192,12757,1,0,0:0:0:70:1+++.wav
320,192,13029,1,0,0:0:0:70:6#++.wav
448,192,13355,1,0,0:0:0:70:5#++.wav
320,192,13626,1,0,0:0:0:70:5++.wav
192,192,13626,1,0,0:0:0:70:L2#.wav
36,192,14061,1,0,0:0:0:70:L1+.wav
475,192,14496,1,0,0:0:0:70:5+.wav
36,192,14931,1,0,0:0:0:70:L1+.wav
448,192,15366,1,0,0:0:0:70:1++.wav
320,192,15800,1,0,0:0:0:70:5#++.wav
192,192,16235,1,0,0:0:0:70:5++.wav
64,192,16670,1,0,0:0:0:70:2#++.wav
320,192,17105,1,0,0:0:0:70:2#+.wav
448,192,17105,1,0,0:0:0:70:5+.wav
192,192,17539,1,0,0:0:0:70:4++.wav
320,192,17974,1,0,0:0:0:70:4++.wav
448,192,17974,1,0,0:0:0:70:5#+.wav
36,192,18409,1,0,0:0:0:70:L5#.wav
192,192,18844,128,0,19713:0:0:0:70:1#+.wav
64,192,20148,1,0,0:0:0:70:2#++.wav
192,192,20366,1,0,0:0:0:70:1#++.wav
320,192,20583,1,0,0:0:0:70:1#++.wav
448,192,21018,1,0,0:0:0:70:L5#.wav
192,192,21018,1,0,0:0:0:70:2#++.wav
320,192,21453,1,0,0:0:0:70:2#++.wav
64,192,21453,1,0,0:0:0:70:6#+.wav
448,192,21887,1,0,0:0:0:70:L5#.wav
320,192,22322,128,0,23192:0:0:0:70:5#+.wav
64,192,22322,128,0,23192:0:0:0:70:L1#+.wav
475,192,23627,1,0,0:0:0:70:5#+.wav
320,192,23844,1,0,0:0:0:70:6#+.wav
192,192,24061,1,0,0:0:0:70:5#+.wav
64,192,24061,1,0,0:0:0:70:1++.wav
475,192,24496,1,0,0:0:0:70:1#++.wav
192,192,24931,1,0,0:0:0:70:1#++.wav
64,192,24931,1,0,0:0:0:70:5#+.wav
448,192,25366,1,0,0:0:0:70:L4.wav
320,192,25800,1,0,0:0:0:70:L5#.wav
64,192,26670,1,0,0:0:0:70:2#++.wav
192,192,27105,1,0,0:0:0:70:1#++.wav
448,192,27539,1,0,0:0:0:70:1++.wav
320,192,27539,1,0,0:0:0:70:5#+.wav
64,192,27974,1,0,0:0:0:70:L6#-.wav
448,192,28409,1,0,0:0:0:70:L5#.wav
192,192,28844,1,0,0:0:0:70:L6#-.wav
475,192,29279,1,0,0:0:0:70:6#+.wav
320,192,29713,1,0,0:0:0:70:2#+.wav
192,192,30148,1,0,0:0:0:70:5#+.wav
64,192,30583,1,0,0:0:0:70:6#+.wav
448,192,31018,1,0,0:0:0:70:2#+.wav
192,192,31018,1,0,0:0:0:70:6#+.wav
320,192,31453,1,0,0:0:0:70:1++.wav
448,192,31887,1,0,0:0:0:70:1++.wav
36,192,32322,1,0,0:0:0:70:L2#-.wav
192,192,32757,1,0,0:0:0:70:L6#-.wav
320,192,33192,1,0,0:0:0:70:L2#-.wav
192,192,33626,1,0,0:0:0:70:L5#-.wav
475,192,33844,1,0,0:0:0:70:5#+.wav
320,192,34061,1,0,0:0:0:70:6#+.wav
192,192,34279,1,0,0:0:0:70:1++.wav
64,192,34496,1,0,0:0:0:70:6#+.wav
448,192,34496,1,0,0:0:0:70:2#+.wav
320,192,34931,1,0,0:0:0:70:2#++.wav
475,192,35366,1,0,0:0:0:70:2#++.wav
64,192,35366,1,0,0:0:0:70:5+.wav
192,192,35800,1,0,0:0:0:70:L5-.wav
320,192,36235,1,0,0:0:0:70:L1.wav
448,192,36670,1,0,0:0:0:70:L5-.wav
320,192,37105,1,0,0:0:0:70:L2#.wav
64,192,37322,1,0,0:0:0:70:2#++.wav
192,192,37539,1,0,0:0:0:70:4++.wav
320,192,37757,1,0,0:0:0:70:5++.wav
475,192,37974,1,0,0:0:0:70:2#++.wav
64,192,37974,1,0,0:0:0:70:5++.wav
192,192,38409,1,0,0:0:0:70:5#++.wav
448,192,38844,1,0,0:0:0:70:5#++.wav
64,192,38844,1,0,0:0:0:70:5#+.wav
320,192,39279,1,0,0:0:0:70:L1-.wav
320,192,39713,1,0,0:0:0:70:L5-.wav
64,192,40148,1,0,0:0:0:70:6#++.wav
475,192,40583,1,0,0:0:0:70:1+++.wav
320,192,40855,1,0,0:0:0:70:6#++.wav
192,192,41181,1,0,0:0:0:70:5#++.wav
64,192,41453,1,0,0:0:0:70:5++.wav
320,192,41453,1,0,0:0:0:70:1++.wav
448,192,41887,1,0,0:0:0:70:L1-.wav
320,192,42322,1,0,0:0:0:70:L5-.wav
192,192,42757,1,0,0:0:0:70:L1-.wav
36,192,43192,1,0,0:0:0:70:L2#-.wav
320,192,43626,1,0,0:0:0:70:5#++.wav
192,192,44061,1,0,0:0:0:70:5++.wav
320,192,44496,1,0,0:0:0:70:2#++.wav
475,192,44931,1,0,0:0:0:70:2#++.wav
192,192,44931,1,0,0:0:0:70:5+.wav
320,192,45366,1,0,0:0:0:70:4++.wav
475,192,45800,1,0,0:0:0:70:4++.wav
64,192,45800,1,0,0:0:0:70:5#+.wav
192,192,46235,1,0,0:0:0:70:L5#-.wav
320,192,46670,1,0,0:0:0:70:L4.wav
192,192,47105,1,0,0:0:0:70:L5#-.wav
36,192,47539,1,0,0:0:0:70:L1#.wav
192,192,47974,1,0,0:0:0:70:2#++.wav
320,192,48192,1,0,0:0:0:70:1#++.wav
64,192,48409,1,0,0:0:0:70:1#++.wav
402,192,48409,1,0,0:0:0:70:5#+.wav
192,192,48844,1,0,0:0:0:70:2#++.wav
64,192,49279,1,0,0:0:0:70:2#++.wav
320,192,49713,1,0,0:0:0:70:L5#-.wav
448,192,50148,1,0,0:0:0:70:L1.wav
320,192,50583,1,0,0:0:0:70:L5#-.wav
192,192,51018,1,0,0:0:0:70:L2#.wav
320,192,51453,1,0,0:0:0:70:5#+.wav
192,192,51670,1,0,0:0:0:70:6#+.wav
402,192,51887,1,0,0:0:0:70:1#+.wav
64,192,51887,1,0,0:0:0:70:1++.wav
320,192,52322,128,0,52757:0:0:0:70:1#++.wav
64,192,53192,128,0,53626:0:0:0:70:4+.wav
448,192,53626,128,0,54061:0:0:0:70:5#+.wav
192,192,54496,128,0,54931:0:0:0:70:5+.wav
402,192,55366,1,0,0:0:0:70:5#+.wav
36,192,55366,1,0,0:0:0:70:L5#-.wav
192,192,55800,1,0,0:0:0:70:L2#.wav
320,192,56235,1,0,0:0:0:70:6#.wav
475,192,56670,1,0,0:0:0:70:1#+.wav
320,192,57105,1,0,0:0:0:70:1+.wav
109,192,57105,1,0,0:0:0:70:L2#.wav
475,192,57540,1,0,0:0:0:70:5#.wav
320,192,57974,1,0,0:0:0:70:1+.wav
192,192,58409,1,0,0:0:0:70:2#+.wav
448,192,58844,1,0,0:0:0:70:5#.wav
64,192,58844,1,0,0:0:0:70:L1#-.wav
192,192,59279,1,0,0:0:0:70:L5#-.wav
475,192,59713,1,0,0:0:0:70:4.wav
36,192,59713,1,0,0:0:0:70:L2#.wav
320,192,60148,1,0,0:0:0:70:L5#-.wav
448,192,60583,1,0,0:0:0:70:5#.wav
64,192,60583,1,0,0:0:0:70:L1#.wav
320,192,61018,1,0,0:0:0:70:5.wav
192,192,61018,1,0,0:0:0:70:L5#-.wav
448,192,61453,1,0,0:0:0:70:5#.wav
64,192,61453,1,0,0:0:0:70:L2#.wav
192,192,61887,1,0,0:0:0:70:4+.wav
320,192,61887,1,0,0:0:0:70:L5#-.wav
192,192,62322,1,0,0:0:0:70:2#+.wav
36,192,62322,1,0,0:0:0:70:L1-.wav
448,192,62757,1,0,0:0:0:70:2#.wav
320,192,62757,1,0,0:0:0:70:L5#-.wav
192,192,63192,1,0,0:0:0:70:5#.wav
36,192,63192,1,0,0:0:0:70:L1.wav
320,192,63626,1,0,0:0:0:70:L5#-.wav
402,192,63627,1,0,0:0:0:70:5.wav
448,192,64061,1,0,0:0:0:70:5#.wav
192,192,64061,1,0,0:0:0:70:L1.wav
320,192,64496,1,0,0:0:0:70:5.wav
36,192,64496,1,0,0:0:0:70:L5#-.wav
402,192,64931,1,0,0:0:0:70:5#.wav
192,192,64931,1,0,0:0:0:70:L1.wav
320,192,65366,1,0,0:0:0:70:2#+.wav
64,192,65366,1,0,0:0:0:70:L1-.wav
448,192,65800,1,0,0:0:0:70:2#+.wav
192,192,65800,1,0,0:0:0:70:L6#--.wav
402,192,66235,1,0,0:0:0:70:1#+.wav
192,192,66235,1,0,0:0:0:70:L4-.wav
320,192,66670,1,0,0:0:0:70:1#+.wav
64,192,66670,1,0,0:0:0:70:L5#-.wav
320,192,67105,1,0,0:0:0:70:1+.wav
36,192,67105,1,0,0:0:0:70:L6#--.wav
192,192,67539,1,0,0:0:0:70:L2#-.wav
402,192,67540,1,0,0:0:0:70:1+.wav
448,192,67974,1,0,0:0:0:70:6#.wav
192,192,67974,1,0,0:0:0:70:L6#-.wav
320,192,68409,1,0,0:0:0:70:6#.wav
36,192,68409,1,0,0:0:0:70:L2#.wav
475,192,68844,1,0,0:0:0:70:5#.wav
192,192,69279,1,0,0:0:0:70:6#.wav
109,192,69279,1,0,0:0:0:70:L5#--.wav
320,192,69713,1,0,0:0:0:70:L2#-.wav
448,192,69713,1,0,0:0:0:70:1+.wav
192,192,70148,1,0,0:0:0:70:1+.wav
64,192,70148,1,0,0:0:0:70:L6#-.wav
448,192,70583,1,0,0:0:0:70:L2#-.wav
320,192,71018,1,0,0:0:0:70:1+.wav
192,192,71018,1,0,0:0:0:70:L5#-.wav
320,192,71453,1,0,0:0:0:70:5#.wav
192,192,71453,1,0,0:0:0:70:L2#-.wav
475,192,71887,1,0,0:0:0:70:1+.wav
36,192,71887,1,0,0:0:0:70:L6#-.wav
475,192,72322,1,0,0:0:0:70:2#+.wav
36,192,72322,1,0,0:0:0:70:L5#--.wav
320,192,72757,1,0,0:0:0:70:4+.wav
192,192,72757,1,0,0:0:0:70:L2--.wav
192,192,73192,1,0,0:0:0:70:1.wav
36,192,73192,1,0,0:0:0:70:L2-.wav
329,192,73626,1,0,0:0:0:70:4.wav
192,192,73626,1,0,0:0:0:70:L5#-.wav
448,192,74061,1,0,0:0:0:70:5#.wav
320,192,74061,1,0,0:0:0:70:L1.wav
320,192,74496,1,0,0:0:0:70:7-.wav
192,192,74496,1,0,0:0:0:70:L4-.wav
192,192,74931,1,0,0:0:0:70:5+.wav
36,192,74931,1,0,0:0:0:70:L2-.wav
320,192,75366,1,0,0:0:0:70:7.wav
192,192,75366,1,0,0:0:0:70:L7-.wav
475,192,75800,1,0,0:0:0:70:4+.wav
320,192,75800,1,0,0:0:0:70:L2-.wav
320,192,76235,1,0,0:0:0:70:2#+.wav
192,192,76235,1,0,0:0:0:70:L1-.wav
448,192,76670,1,0,0:0:0:70:L5-.wav
64,192,77105,1,0,0:0:0:70:L2#.wav
402,192,77539,1,0,0:0:0:70:1+.wav
320,192,77757,1,0,0:0:0:70:1#+.wav
192,192,77974,1,0,0:0:0:70:2#+.wav
64,192,77974,1,0,0:0:0:70:L4-.wav
475,192,78409,1,0,0:0:0:70:6.wav
320,192,78409,1,0,0:0:0:70:L1.wav
192,192,78844,1,0,0:0:0:70:1#+.wav
64,192,78844,1,0,0:0:0:70:L4.wav
475,192,79279,1,0,0:0:0:70:1+.wav
320,192,79713,1,0,0:0:0:70:1#+.wav
36,192,79713,1,0,0:0:0:70:L6#--.wav
192,192,80148,1,0,0:0:0:70:L4-.wav
320,192,80583,1,0,0:0:0:70:2#+.wav
448,192,80583,1,0,0:0:0:70:L6#-.wav
192,192,81018,1,0,0:0:0:70:L4-.wav
448,192,81453,1,0,0:0:0:70:4+.wav
64,192,81453,1,0,0:0:0:70:L1#.wav
192,192,81887,1,0,0:0:0:70:L4-.wav
320,192,82105,1,0,0:0:0:70:5+.wav
448,192,82322,1,0,0:0:0:70:L5#-.wav
320,192,82757,1,0,0:0:0:70:5#+.wav
36,192,82757,1,0,0:0:0:70:L6#--.wav
448,192,83192,1,0,0:0:0:70:1++.wav
192,192,83192,1,0,0:0:0:70:L2#--.wav
320,192,83626,1,0,0:0:0:70:L6#--.wav
192,192,84061,1,0,0:0:0:70:L5#-.wav
320,192,84496,1,0,0:0:0:70:L6#--.wav
448,192,84931,1,0,0:0:0:70:6#+.wav
64,192,84931,1,0,0:0:0:70:L5-.wav
192,192,85366,5,0,0:0:0:70:2#+.wav
320,192,85800,1,0,0:0:0:70:5#+.wav
192,192,86235,1,0,0:0:0:70:6#+.wav
475,192,86670,1,0,0:0:0:70:6#+.wav
320,192,86670,1,0,0:0:0:70:L6#-.wav
64,192,87105,1,0,0:0:0:70:1++.wav
192,192,87105,1,0,0:0:0:70:L2#-.wav
320,192,87539,1,0,0:0:0:70:1++.wav
448,192,87539,1,0,0:0:0:70:L1.wav
36,192,87974,1,0,0:0:0:70:L2#-.wav
192,192,88409,1,0,0:0:0:70:L6#-.wav
320,192,88844,1,0,0:0:0:70:L2#-.wav
192,192,89279,1,0,0:0:0:70:L5#-.wav
475,192,89496,1,0,0:0:0:70:5#+.wav
320,192,89713,1,0,0:0:0:70:6#+.wav
192,192,89931,1,0,0:0:0:70:1++.wav
448,192,90148,1,0,0:0:0:70:6#+.wav
64,192,90148,1,0,0:0:0:70:L1-.wav
320,192,90583,1,0,0:0:0:70:2#++.wav
192,192,90583,1,0,0:0:0:70:L5-.wav
448,192,91018,1,0,0:0:0:70:2#++.wav
64,192,91018,1,0,0:0:0:70:L2#.wav
320,192,91453,1,0,0:0:0:70:L5-.wav
448,192,91887,1,0,0:0:0:70:1+.wav
192,192,91887,1,0,0:0:0:70:L1.wav
320,192,92322,1,0,0:0:0:70:L5-.wav
448,192,92757,1,0,0:0:0:70:L2#.wav
64,192,92974,1,0,0:0:0:70:2#++.wav
192,192,93192,1,0,0:0:0:70:4++.wav
320,192,93409,1,0,0:0:0:70:5++.wav
448,192,93626,1,0,0:0:0:70:2#++.wav
64,192,93626,1,0,0:0:0:70:5+.wav
320,192,94061,1,0,0:0:0:70:5#+.wav
192,192,94061,1,0,0:0:0:70:L1-.wav
448,192,94496,1,0,0:0:0:70:5#+.wav
36,192,94496,1,0,0:0:0:70:L5#-.wav
192,192,94931,1,0,0:0:0:70:L1-.wav
320,192,95366,1,0,0:0:0:70:L4-.wav
448,192,95800,1,0,0:0:0:70:6#+.wav
192,192,95800,1,0,0:0:0:70:L1-.wav
320,192,96235,1,0,0:0:0:70:1++.wav
64,192,96235,1,0,0:0:0:70:L5#-.wav
475,192,96507,1,0,0:0:0:70:6#+.wav
192,192,96670,1,0,0:0:0:70:L1-.wav
448,192,96833,1,0,0:0:0:70:5#+.wav
64,192,97105,1,0,0:0:0:70:L2#.wav
320,192,97105,1,0,0:0:0:70:5+.wav
192,192,97539,1,0,0:0:0:70:L1-.wav
448,192,97974,1,0,0:0:0:70:1+.wav
320,192,97974,1,0,0:0:0:70:L2#-.wav
64,192,98410,1,0,0:0:0:70:L1.wav
192,192,98844,1,0,0:0:0:70:5.wav
475,192,98844,1,0,0:0:0:70:5++.wav
64,192,99279,1,0,0:0:0:70:5#+.wav
320,192,99279,1,0,0:0:0:70:L1.wav
448,192,99713,1,0,0:0:0:70:5+.wav
192,192,99713,1,0,0:0:0:70:L2#.wav
448,192,100148,1,0,0:0:0:70:2#+.wav
320,192,100148,1,0,0:0:0:70:L2#-.wav
192,192,100583,1,0,0:0:0:70:2#+.wav
64,192,100583,1,0,0:0:0:70:L1#.wav
320,192,101018,1,0,0:0:0:70:4+.wav
192,192,101018,1,0,0:0:0:70:L5#--.wav
320,192,101453,1,0,0:0:0:70:4+.wav
448,192,101453,1,0,0:0:0:70:L2#.wav
36,192,101887,128,0,102322:0:0:0:70:L5#-.wav
192,192,102322,128,0,102757:0:0:0:70:L1#.wav
320,192,102757,128,0,103192:0:0:0:70:L5#-.wav
448,192,103192,128,0,103626:0:0:0:70:L2#.wav
64,192,103626,1,0,0:0:0:70:2#++.wav
192,192,103844,1,0,0:0:0:70:1#++.wav
448,192,104061,1,0,0:0:0:70:1#++.wav
320,192,104061,1,0,0:0:0:70:L1.wav
64,192,104496,1,0,0:0:0:70:2#++.wav
192,192,104496,1,0,0:0:0:70:2#+.wav
320,192,104931,1,0,0:0:0:70:2#+.wav
475,192,104931,1,0,0:0:0:70:2#++.wav
448,192,105366,128,0,105800:0:0:0:70:L5#-.wav
320,192,105800,128,0,106235:0:0:0:70:L2#.wav
192,192,106235,128,0,106670:0:0:0:70:L5#-.wav
36,192,106670,128,0,107105:0:0:0:70:L1.wav
475,192,107105,1,0,0:0:0:70:5#+.wav
320,192,107322,1,0,0:0:0:70:6#+.wav
64,192,107539,1,0,0:0:0:70:1++.wav
192,192,107539,1,0,0:0:0:70:1#+.wav
448,192,107974,1,0,0:0:0:70:1#++.wav
320,192,107974,1,0,0:0:0:70:L4-.wav
64,192,108409,1,0,0:0:0:70:1#+.wav
192,192,108409,1,0,0:0:0:70:1#++.wav
320,192,108844,1,0,0:0:0:70:L4-.wav
192,192,109279,1,0,0:0:0:70:L1#.wav
320,192,109713,1,0,0:0:0:70:L4-.wav
475,192,110148,1,0,0:0:0:70:2#+.wav
64,192,110148,1,0,0:0:0:70:2#++.wav
475,192,110583,1,0,0:0:0:70:1#+.wav
64,192,110583,1,0,0:0:0:70:1#++.wav
64,192,111018,1,0,0:0:0:70:1++.wav
475,192,111018,1,0,0:0:0:70:1+.wav
320,192,111453,1,0,0:0:0:70:L6#--.wav
192,192,111887,1,0,0:0:0:70:L1#.wav
320,192,112322,1,0,0:0:0:70:L5#-.wav
64,192,112757,1,0,0:0:0:70:4+.wav
192,192,112757,1,0,0:0:0:70:6#+.wav
320,192,113192,1,0,0:0:0:70:2#+.wav
192,192,113192,1,0,0:0:0:70:L6#-.wav
448,192,113626,1,0,0:0:0:70:5#+.wav
36,192,113626,1,0,0:0:0:70:L5.wav
320,192,114061,1,0,0:0:0:70:6#+.wav
192,192,114061,1,0,0:0:0:70:L2#.wav
448,192,114496,1,0,0:0:0:70:6#+.wav
320,192,114496,1,0,0:0:0:70:L6#-.wav
192,192,114931,1,0,0:0:0:70:1++.wav
64,192,114931,1,0,0:0:0:70:L2#-.wav
320,192,115366,1,0,0:0:0:70:1++.wav
192,192,115366,1,0,0:0:0:70:L1.wav
448,192,115800,128,0,116235:0:0:0:70:L2#-.wav
64,192,116235,128,0,116670:0:0:0:70:L6#-.wav
448,192,116670,128,0,117105:0:0:0:70:L2#-.wav
320,192,117105,1,0,0:0:0:70:L5#-.wav
192,192,117322,5,0,0:0:0:70:5#+.wav
64,192,117539,1,0,0:0:0:70:6#+.wav
192,192,117757,1,0,0:0:0:70:1++.wav
320,192,117974,1,0,0:0:0:70:6#+.wav
64,192,117974,1,0,0:0:0:70:2#+.wav
192,192,118409,1,0,0:0:0:70:2#++.wav
448,192,118409,1,0,0:0:0:70:L5-.wav
192,192,118844,1,0,0:0:0:70:2#++.wav
448,192,118844,1,0,0:0:0:70:2#+.wav
64,192,119279,128,0,119713:0:0:0:70:L5-.wav
448,192,119713,128,0,120148:0:0:0:70:L2#.wav
64,192,120148,128,0,120583:0:0:0:70:L5-.wav
192,192,120583,1,0,0:0:0:70:L2#.wav
320,192,120800,1,0,0:0:0:70:2#+.wav
448,192,121018,1,0,0:0:0:70:4+.wav
320,192,121235,1,0,0:0:0:70:5+.wav
402,192,121453,1,0,0:0:0:70:5++.wav
192,192,121453,1,0,0:0:0:70:5+.wav
64,192,121887,1,0,0:0:0:70:5#++.wav
320,192,121887,1,0,0:0:0:70:5#+.wav
320,192,122322,128,0,123192:0:0:0:70:5#++.wav
64,192,122322,128,0,123192:0:0:0:70:5#+.wav
64,192,123626,1,0,0:0:0:70:6#++.wav
320,192,123626,1,0,0:0:0:70:6#+.wav
448,192,124061,1,0,0:0:0:70:1++.wav
192,192,124061,1,0,0:0:0:70:L4-.wav
320,192,124333,1,0,0:0:0:70:6#+.wav
36,192,124496,1,0,0:0:0:70:L1-.wav
320,192,124659,1,0,0:0:0:70:5#+.wav
448,192,124931,1,0,0:0:0:70:1++.wav
192,192,124931,1,0,0:0:0:70:L2#--.wav
320,192,125366,1,0,0:0:0:70:L1-.wav
448,192,125800,1,0,0:0:0:70:1+.wav
64,192,125800,1,0,0:0:0:70:L5-.wav
192,192,126235,1,0,0:0:0:70:L1-.wav
320,192,126670,1,0,0:0:0:70:5+.wav
64,192,126670,1,0,0:0:0:70:5++.wav
448,192,127105,1,0,0:0:0:70:5#+.wav
192,192,127105,1,0,0:0:0:70:5#++.wav
320,192,127539,1,0,0:0:0:70:5++.wav
402,192,127539,1,0,0:0:0:70:5+.wav
64,192,127974,1,0,0:0:0:70:2#+.wav
192,192,127974,1,0,0:0:0:70:2#++.wav
320,192,128409,128,0,128844:0:0:0:70:2#++.wav
475,192,128409,128,0,128844:0:0:0:70:2#+.wav
192,192,128844,128,0,129279:0:0:0:70:4+.wav
64,192,128844,128,0,129279:0:0:0:70:4++.wav
320,192,129279,128,0,129713:0:0:0:70:4+.wav
475,192,129279,128,0,129713:0:0:0:70:4++.wav
36,192,129713,1,0,0:0:0:70:L5#-.wav
192,192,130148,1,0,0:0:0:70:L1#.wav
320,192,130583,1,0,0:0:0:70:L5#-.wav
448,192,131018,1,0,0:0:0:70:L2#.wav
320,192,131453,1,0,0:0:0:70:2#++.wav
448,192,131670,1,0,0:0:0:70:1#++.wav
192,192,131887,128,0,132322:0:0:0:70:5#+.wav
64,192,131887,128,0,132322:0:0:0:70:1#++.wav
320,192,132322,128,0,132757:0:0:0:70:2#+.wav
402,192,132322,128,0,132757:0:0:0:70:2#++.wav
192,192,132757,128,0,133192:0:0:0:70:2#+.wav
64,192,132757,128,0,133192:0:0:0:70:2#++.wav
448,192,133192,1,0,0:0:0:70:L5#-.wav
320,192,133626,1,0,0:0:0:70:L2#.wav
192,192,134061,1,0,0:0:0:70:L5#-.wav
36,192,134496,1,0,0:0:0:70:L1.wav
475,192,134931,1,0,0:0:0:70:5#+.wav
320,192,135148,1,0,0:0:0:70:6#+.wav
192,192,135366,1,0,0:0:0:70:4+.wav
64,192,135366,1,0,0:0:0:70:1++.wav
192,192,135800,128,0,136235:0:0:0:70:L4-.wav
475,192,135800,128,0,136235:0:0:0:70:1#++.wav
320,192,136670,1,0,0:0:0:70:4+.wav
192,192,137105,128,0,137539:0:0:0:70:L2#-.wav
402,192,137105,128,0,137539:0:0:0:70:5#+.wav
192,192,137974,128,0,138409:0:0:0:70:5+.wav
36,192,137974,128,0,138409:0:0:0:70:L2#.wav
448,192,138844,128,0,139279:0:0:0:70:L5#-.wav
320,192,138844,128,0,139279:0:0:0:70:5#+.wav
36,192,139279,128,0,139713:0:0:0:70:L2#.wav
320,192,139713,128,0,140148:0:0:0:70:6#.wav
192,192,140148,128,0,140583:0:0:0:70:1#+.wav
448,192,140583,1,0,0:0:0:70:1+.wav
109,192,140583,1,0,0:0:0:70:L5#-.wav
320,192,141018,1,0,0:0:0:70:5#.wav
192,192,141453,1,0,0:0:0:70:1+.wav
64,192,141887,1,0,0:0:0:70:2#+.wav
448,192,142322,1,0,0:0:0:70:4+.wav
192,192,142322,1,0,0:0:0:70:L1#-.wav
320,192,142757,1,0,0:0:0:70:L5#-.wav
402,192,143192,1,0,0:0:0:70:4.wav
192,192,143192,1,0,0:0:0:70:L2#.wav
320,192,143626,1,0,0:0:0:70:L5#-.wav
402,192,144061,1,0,0:0:0:70:5#.wav
36,192,144061,1,0,0:0:0:70:L1#.wav
192,192,144496,1,0,0:0:0:70:5.wav
402,192,144931,1,0,0:0:0:70:5#.wav
320,192,144931,1,0,0:0:0:70:L2#.wav
192,192,145366,1,0,0:0:0:70:4+.wav
402,192,145800,1,0,0:0:0:70:6#.wav
192,192,145800,1,0,0:0:0:70:2#+.wav
320,192,145800,1,0,0:0:0:70:L1-.wav
64,192,146235,1,0,0:0:0:70:2#.wav
402,192,146670,1,0,0:0:0:70:5#.wav
192,192,146670,1,0,0:0:0:70:L1.wav
320,192,147105,1,0,0:0:0:70:5.wav
192,192,147539,1,0,0:0:0:70:5#.wav
36,192,147539,1,0,0:0:0:70:L1.wav
320,192,147974,1,0,0:0:0:70:5.wav
402,192,148409,1,0,0:0:0:70:5#.wav
192,192,148409,1,0,0:0:0:70:L1.wav
320,192,148844,1,0,0:0:0:70:2#+.wav
192,192,149279,1,0,0:0:0:70:2#+.wav
36,192,149279,1,0,0:0:0:70:L5#-.wav
448,192,149713,1,0,0:0:0:70:1#+.wav
320,192,150148,1,0,0:0:0:70:1#+.wav
64,192,150148,1,0,0:0:0:70:L5#-.wav
192,192,150583,1,0,0:0:0:70:1+.wav
320,192,151018,1,0,0:0:0:70:1+.wav
36,192,151018,1,0,0:0:0:70:L2#-.wav
192,192,151453,1,0,0:0:0:70:L6#-.wav
402,192,151453,1,0,0:0:0:70:6#.wav
320,192,151887,1,0,0:0:0:70:6#.wav
109,192,151887,1,0,0:0:0:70:L4.wav
192,192,152322,128,0,152757:0:0:0:70:5#.wav
448,192,152757,1,0,0:0:0:70:6#.wav
320,192,152757,1,0,0:0:0:70:L5#--.wav
64,192,153192,1,0,0:0:0:70:1+.wav
192,192,153192,1,0,0:0:0:70:L2#-.wav
448,192,153626,1,0,0:0:0:70:1+.wav
320,192,153626,1,0,0:0:0:70:L6#-.wav
320,192,154061,128,0,154496:0:0:0:70:L2#-.wav
192,192,154496,1,0,0:0:0:70:1+.wav
64,192,154496,1,0,0:0:0:70:L5#-.wav
448,192,154931,1,0,0:0:0:70:5#.wav
320,192,154931,1,0,0:0:0:70:L2#-.wav
192,192,155366,1,0,0:0:0:70:1+.wav
64,192,155366,1,0,0:0:0:70:L6#-.wav
320,192,155800,1,0,0:0:0:70:2#+.wav
192,192,155800,1,0,0:0:0:70:L5#--.wav
402,192,156235,1,0,0:0:0:70:1+.wav
320,192,156235,1,0,0:0:0:70:4+.wav
64,192,156235,1,0,0:0:0:70:L2--.wav
192,192,156670,1,0,0:0:0:70:1.wav
320,192,157105,1,0,0:0:0:70:4.wav
36,192,157105,1,0,0:0:0:70:L5#-.wav
475,192,157539,1,0,0:0:0:70:5#.wav
320,192,157974,1,0,0:0:0:70:5.wav
109,192,157974,1,0,0:0:0:70:L5--.wav
475,192,158409,1,0,0:0:0:70:5+.wav
320,192,158844,1,0,0:0:0:70:7.wav
192,192,158844,1,0,0:0:0:70:5+.wav
448,192,159279,1,0,0:0:0:70:4+.wav
64,192,159279,1,0,0:0:0:70:L2-.wav
64,192,159713,128,0,160148:0:0:0:70:L1-.wav
448,192,159713,128,0,160148:0:0:0:70:2#+.wav
192,192,160148,1,0,0:0:0:70:L5-.wav
320,192,160583,1,0,0:0:0:70:L2#.wav
192,192,161018,1,0,0:0:0:70:1+.wav
320,192,161235,1,0,0:0:0:70:1#+.wav
448,192,161453,1,0,0:0:0:70:6#.wav
64,192,161453,1,0,0:0:0:70:2#+.wav
320,192,161887,1,0,0:0:0:70:6.wav
192,192,161887,1,0,0:0:0:70:L1.wav
64,192,162322,1,0,0:0:0:70:L4.wav
448,192,162322,1,0,0:0:0:70:1#+.wav
320,192,162757,1,0,0:0:0:70:1+.wav
192,192,163192,128,0,163626:0:0:0:70:L6#--.wav
448,192,163192,128,0,163626:0:0:0:70:1#+.wav
36,192,163626,1,0,0:0:0:70:L4-.wav
64,192,164061,128,0,164496:0:0:0:70:2#+.wav
192,192,164496,1,0,0:0:0:70:L4-.wav
320,192,164931,128,0,165366:0:0:0:70:4+.wav
402,192,164931,128,0,165366:0:0:0:70:4.wav
64,192,165366,1,0,0:0:0:70:L4-.wav
402,192,165583,1,0,0:0:0:70:5+.wav
329,192,165583,1,0,0:0:0:70:5.wav
64,192,165800,1,0,0:0:0:70:L5#-.wav
64,192,166235,128,0,166670:0:0:0:70:5#.wav
192,192,166235,1,0,0:0:0:70:5#+.wav
320,192,166670,1,0,0:0:0:70:1++.wav
448,192,166670,1,0,0:0:0:70:4+.wav
36,192,167105,1,0,0:0:0:70:L6#--.wav
192,192,167539,128,0,167974:0:0:0:70:L1#.wav
320,192,167539,128,0,167974:0:0:0:70:L2#-.wav
475,192,167974,1,0,0:0:0:70:5#+.wav
192,192,168409,128,0,168844:0:0:0:70:6#+.wav
320,192,168409,128,0,168844:0:0:0:70:4+.wav
475,192,168844,1,0,0:0:0:70:2#+.wav
36,192,168844,1,0,0:0:0:70:L6#-.wav
64,192,169279,1,0,0:0:0:70:5#+.wav
320,192,169279,1,0,0:0:0:70:L2#.wav
475,192,169713,1,0,0:0:0:70:6#+.wav
192,192,169713,1,0,0:0:0:70:L6#-.wav
448,192,170148,1,0,0:0:0:70:6#+.wav
192,192,170148,1,0,0:0:0:70:L6#-.wav
320,192,170583,1,0,0:0:0:70:1++.wav
64,192,170583,1,0,0:0:0:70:L2#-.wav
192,192,171018,1,0,0:0:0:70:L1.wav
402,192,171018,128,0,172322:0:0:0:70:1++.wav
192,192,171453,1,0,0:0:0:70:L2#-.wav
192,192,171887,1,0,0:0:0:70:L6#-.wav
192,192,172322,1,0,0:0:0:70:L2#-.wav
320,192,172757,1,0,0:0:0:70:L5#-.wav
192,192,172974,1,0,0:0:0:70:5#+.wav
64,192,173192,1,0,0:0:0:70:6#+.wav
192,192,173409,1,0,0:0:0:70:1++.wav
448,192,173626,1,0,0:0:0:70:2#+.wav
64,192,173626,1,0,0:0:0:70:6#+.wav
192,192,174061,1,0,0:0:0:70:2#++.wav
320,192,174496,1,0,0:0:0:70:2#+.wav
64,192,174496,128,0,175800:0:0:0:70:2#++.wav
320,192,174931,1,0,0:0:0:70:L5-.wav
320,192,175366,1,0,0:0:0:70:L1.wav
320,192,175800,1,0,0:0:0:70:L5-.wav
192,192,176235,1,0,0:0:0:70:L2#.wav
320,192,176453,1,0,0:0:0:70:2#++.wav
402,192,176670,1,0,0:0:0:70:4++.wav
320,192,176887,1,0,0:0:0:70:5++.wav
402,192,177105,1,0,0:0:0:70:5++.wav
64,192,177105,1,0,0:0:0:70:5+.wav
329,192,177539,1,0,0:0:0:70:5#++.wav
448,192,177539,1,0,0:0:0:70:5#+.wav
64,192,177974,1,0,0:0:0:70:5#+.wav
192,192,177974,1,0,0:0:0:70:5#++.wav
320,192,178409,1,0,0:0:0:70:L1-.wav
192,192,178844,1,0,0:0:0:70:L5-.wav
402,192,179279,128,0,179713:0:0:0:70:6#+.wav
320,192,179713,128,0,179985:0:0:0:70:1++.wav
192,192,179985,128,0,180311:0:0:0:70:6#+.wav
64,192,180311,128,0,180583:0:0:0:70:5#+.wav
448,192,180583,1,0,0:0:0:70:5++.wav
320,192,180583,1,0,0:0:0:70:5+.wav
448,192,181018,128,0,181453:0:0:0:70:L1-.wav
320,192,181453,128,0,181887:0:0:0:70:L2#-.wav
192,192,181887,128,0,182322:0:0:0:70:L1.wav
64,192,182322,128,0,182757:0:0:0:70:L5.wav
320,192,182757,1,0,0:0:0:70:5#+.wav
448,192,182757,1,0,0:0:0:70:L1.wav
320,192,183192,1,0,0:0:0:70:5+.wav
192,192,183192,1,0,0:0:0:70:L2#.wav
192,192,183626,1,0,0:0:0:70:2#+.wav
36,192,183626,1,0,0:0:0:70:L2#-.wav
320,192,184061,1,0,0:0:0:70:2#+.wav
192,192,184061,1,0,0:0:0:70:L1#--.wav
448,192,184496,1,0,0:0:0:70:4+.wav
320,192,184496,1,0,0:0:0:70:L5#--.wav
64,192,184931,1,0,0:0:0:70:L2#.wav
448,192,184931,128,0,186289:0:0:0:70:4+.wav
192,192,185366,1,0,0:0:0:70:L5#-.wav
109,192,185800,1,0,0:0:0:70:L4.wav
192,192,186235,1,0,0:0:0:70:L5#-.wav
36,192,186670,1,0,0:0:0:70:L2#.wav
475,192,186887,1,0,0:0:0:70:2#+.wav
320,192,187105,1,0,0:0:0:70:2#++.wav
192,192,187322,1,0,0:0:0:70:1#++.wav
64,192,187539,1,0,0:0:0:70:5#+.wav
475,192,187540,1,0,0:0:0:70:1#++.wav
192,192,187974,1,0,0:0:0:70:2#++.wav
448,192,188409,1,0,0:0:0:70:L1.wav
64,192,188409,128,0,189713:0:0:0:70:2#++.wav
320,192,188844,1,0,0:0:0:70:L5#-.wav
448,192,189279,1,0,0:0:0:70:L2#.wav
320,192,189713,1,0,0:0:0:70:L5#-.wav
448,192,190148,1,0,0:0:0:70:L1.wav
64,192,190583,1,0,0:0:0:70:5#+.wav
192,192,190800,1,0,0:0:0:70:6#+.wav
402,192,191018,1,0,0:0:0:70:1++.wav
64,192,191018,1,0,0:0:0:70:4+.wav
320,192,191453,1,0,0:0:0:70:1#++.wav
192,192,191453,1,0,0:0:0:70:L4-.wav
448,192,191887,128,0,192322:0:0:0:70:L5#-.wav
192,192,192322,1,0,0:0:0:70:4+.wav
64,192,192322,1,0,0:0:0:70:L6#--.wav
475,192,192757,1,0,0:0:0:70:1#+.wav
320,192,192757,1,0,0:0:0:70:5#+.wav
192,192,192757,128,0,193192:0:0:0:70:L2#-.wav
36,192,193192,1,0,0:0:0:70:L6#--.wav
64,192,193626,1,0,0:0:0:70:5+.wav
192,192,193626,1,0,0:0:0:70:L5-.wav
320,192,193626,128,0,194061:0:0:0:70:1#+.wav
448,192,194061,1,0,0:0:0:70:L6#--.wav
64,192,194496,1,0,0:0:0:70:6.wav
192,192,194496,1,0,0:0:0:70:6+.wav
448,192,194496,1,0,0:0:0:70:2+.wav
320,192,194931,1,0,0:0:0:70:L3-.wav
64,192,195366,1,0,0:0:0:70:4#.wav
192,192,195366,128,0,195800:0:0:0:70:L6-.wav
448,192,195800,128,0,196235:0:0:0:70:6.wav
320,192,196235,1,0,0:0:0:70:5#.wav
64,192,196235,128,0,196670:0:0:0:70:L5#-.wav
192,192,196670,1,0,0:0:0:70:3+.wav
402,192,197105,1,0,0:0:0:70:6+.wav
320,192,197539,1,0,0:0:0:70:7+.wav
192,192,197974,1,0,0:0:0:70:7+.wav
64,192,197974,1,0,0:0:0:70:L6-.wav
320,192,198409,1,0,0:0:0:70:1#++.wav
192,192,198409,1,0,0:0:0:70:L3.wav
64,192,198844,1,0,0:0:0:70:L7.wav
448,192,198844,128,0,200148:0:0:0:70:3+.wav
320,192,198844,128,0,200148:0:0:0:70:1#++.wav
36,192,199279,1,0,0:0:0:70:L3.wav
36,192,199713,1,0,0:0:0:70:L6.wav
36,192,200148,1,0,0:0:0:70:L3.wav
36,192,200583,1,0,0:0:0:70:L1#+.wav
402,192,200800,1,0,0:0:0:70:6+.wav
320,192,201018,1,0,0:0:0:70:7+.wav
192,192,201235,1,0,0:0:0:70:1#++.wav
448,192,201453,1,0,0:0:0:70:7+.wav
64,192,201453,1,0,0:0:0:70:3+.wav
320,192,201887,1,0,0:0:0:70:3++.wav
448,192,202322,1,0,0:0:0:70:L3+.wav
192,192,202322,128,0,203626:0:0:0:70:3++.wav
64,192,202322,128,0,203626:0:0:0:70:7+.wav
448,192,202757,1,0,0:0:0:70:L5#.wav
448,192,203192,1,0,0:0:0:70:1#+.wav
448,192,203626,1,0,0:0:0:70:L5#.wav
448,192,204061,1,0,0:0:0:70:L3+.wav
192,192,204279,1,0,0:0:0:70:3++.wav
320,192,204496,1,0,0:0:0:70:4#++.wav
192,192,204713,1,0,0:0:0:70:5#++.wav
448,192,204931,1,0,0:0:0:70:7+.wav
64,192,204931,1,0,0:0:0:70:5#++.wav
192,192,205366,1,0,0:0:0:70:6++.wav
36,192,205800,1,0,0:0:0:70:L6.wav
329,192,205800,128,0,206235:0:0:0:70:1#++.wav
402,192,205800,128,0,206235:0:0:0:70:6++.wav
36,192,206235,1,0,0:0:0:70:L1#.wav
192,192,206670,1,0,0:0:0:70:L5#.wav
64,192,207105,1,0,0:0:0:70:7++.wav
192,192,207322,1,0,0:0:0:70:7++.wav
320,192,207539,1,0,0:0:0:70:1#+++.wav
448,192,207757,128,0,208083:0:0:0:70:7++.wav
320,192,208083,128,0,208409:0:0:0:70:6++.wav
192,192,208409,128,0,208844:0:0:0:70:5#++.wav
448,192,208844,1,0,0:0:0:70:L1#.wav
320,192,209279,1,0,0:0:0:70:L3.wav
192,192,209713,1,0,0:0:0:70:L1#.wav
448,192,210148,1,0,0:0:0:70:1#+.wav
320,192,210148,1,0,0:0:0:70:L3.wav
320,192,210583,1,0,0:0:0:70:6+.wav
192,192,210583,1,0,0:0:0:70:L1#.wav
192,192,211018,1,0,0:0:0:70:5#+.wav
64,192,211018,1,0,0:0:0:70:L3.wav
448,192,211453,1,0,0:0:0:70:3+.wav
320,192,211453,1,0,0:0:0:70:L3-.wav
320,192,211887,1,0,0:0:0:70:3+.wav
192,192,211887,1,0,0:0:0:70:L2--.wav
192,192,212322,1,0,0:0:0:70:4#+.wav
64,192,212322,1,0,0:0:0:70:L6-.wav
320,192,212757,128,0,214061:0:0:0:70:4#+.wav
192,192,212757,128,0,214061:0:0:0:70:L3.wav
36,192,213192,1,0,0:0:0:70:L6-.wav
448,192,213626,1,0,0:0:0:70:L2.wav
36,192,214061,1,0,0:0:0:70:L6-.wav
320,192,214496,1,0,0:0:0:70:6.wav
448,192,214496,1,0,0:0:0:70:L3.wav
192,192,214931,1,0,0:0:0:70:3+.wav
320,192,215148,1,0,0:0:0:70:2+.wav
64,192,215366,1,0,0:0:0:70:2+.wav
192,192,215366,1,0,0:0:0:70:3.wav
320,192,215800,1,0,0:0:0:70:3+.wav
192,192,216235,128,0,217539:0:0:0:70:L3.wav
320,192,216235,128,0,217539:0:0:0:70:3+.wav
448,192,216670,1,0,0:0:0:70:L6-.wav
36,192,217105,1,0,0:0:0:70:L1#.wav
448,192,217539,1,0,0:0:0:70:L6-.wav
36,192,217974,1,0,0:0:0:70:L1#.wav
448,192,218192,1,0,0:0:0:70:3.wav
320,192,218409,1,0,0:0:0:70:6.wav
402,192,218626,1,0,0:0:0:70:7.wav
192,192,218844,1,0,0:0:0:70:4#.wav
320,192,218844,1,0,0:0:0:70:1#+.wav
448,192,219279,1,0,0:0:0:70:2+.wav
36,192,219279,1,0,0:0:0:70:L4#-.wav
192,192,219713,1,0,0:0:0:70:L6-.wav
320,192,220148,1,0,0:0:0:70:4#.wav
192,192,220583,128,0,221018:0:0:0:70:L3--.wav
448,192,220583,128,0,221018:0:0:0:70:6.wav
36,192,221018,1,0,0:0:0:70:L7--.wav
64,192,221453,128,0,221887:0:0:0:70:L5#-.wav
329,192,221453,128,0,221887:0:0:0:70:5#.wav
192,192,222322,1,0,0:0:0:70:L6--.wav
475,192,222322,128,0,224061:0:0:0:70:6.wav
36,192,222757,1,0,0:0:0:70:L3-.wav
192,192,223192,1,0,0:0:0:70:7-.wav
320,192,223626,1,0,0:0:0:70:L2.wav
192,192,224061,1,0,0:0:0:70:L1#.wav
320,192,224931,1,0,0:0:0:70:7+.wav
192,192,225366,1,0,0:0:0:70:1#++.wav
448,192,225800,1,0,0:0:0:70:1#++.wav
320,192,225800,1,0,0:0:0:70:4#+.wav
36,192,225800,1,0,0:0:0:70:L7-.wav
192,192,225800,1,0,0:0:0:70:L6.wav
320,192,226235,1,0,0:0:0:70:2++.wav
448,192,226235,1,0,0:0:0:70:L4#.wav
64,192,226670,128,0,227105:0:0:0:70:L6.wav
192,192,227322,128,0,227757:0:0:0:70:4#+.wav
320,192,227757,128,0,228192:0:0:0:70:4#+.wav
448,192,227757,128,0,228192:0:0:0:70:6+.wav
64,192,227757,128,0,228192:0:0:0:70:L3.wav
320,192,228844,128,0,229279:0:0:0:70:5#+.wav
448,192,229931,1,0,0:0:0:70:L6--.wav
192,192,229931,128,0,230800:0:0:0:70:7.wav
64,192,229931,128,0,230800:0:0:0:70:6+.wav
320,192,230366,1,0,0:0:0:70:L3-.wav
448,192,230800,1,0,0:0:0:70:L7-.wav
320,192,231235,128,0,231670:0:0:0:70:L3-.wav
329,192,232322,128,0,233844:0:0:0:70:6.wav
402,192,232322,128,0,233844:0:0:0:70:1#.wav
192,192,232322,128,0,233844:0:0:0:70:L6-.wav
109,192,232322,128,0,233844:0:0:0:70:L6--.wav
320,192,234279,1,4,0:0:0:0:
182,192,234279,1,4,0:0:0:0:
