osu file format v13

[General]
AudioFilename: kiss the of rain1.mp3
AudioLeadIn: 0
PreviewTime: 489
Countdown: 0
SampleSet: None
StackLeniency: 0.7
Mode: 3
LetterboxInBreaks: 0
SpecialStyle: 0
WidescreenStoryboard: 1

[Editor]
DistanceSpacing: 0.5
BeatDivisor: 8
GridSize: 4
TimelineZoom: 1.5

[Metadata]
Title:Kiss the Rain
TitleUnicode:Kiss the Rain
Artist:Yiruma
ArtistUnicode:Yiruma
Creator:KawaEE
Version:4K NORMAL TEST
Source:
Tags:
BeatmapID:530299
BeatmapSetID:222376

[Difficulty]
HPDrainRate:7
CircleSize:4
OverallDifficulty:7
ApproachRate:5
SliderMultiplier:1.4
SliderTickRate:1

[Events]
//Background and Video events
0,0,"BG.png",0,0
//Break Periods
//Storyboard Layer 0 (Background)
//Storyboard Layer 1 (Fail)
//Storyboard Layer 2 (Pass)
//Storyboard Layer 3 (Foreground)
//Storyboard Sound Samples
Sample,3193,0,"L5#-.wav",70
Sample,3627,0,"L2#.wav",70
Sample,4062,0,"L6#.wav",70
Sample,6671,0,"L1.wav",70
Sample,7106,0,"L5.wav",70
Sample,7540,0,"L2#+.wav",70
Sample,10149,0,"L4.wav",70
Sample,10584,0,"L1+.wav",70
Sample,10910,0,"L5+.wav",70
Sample,13627,0,"L2#.wav",70
Sample,14497,0,"L2#+.wav",70
Sample,15366,0,"L2#+.wav",70
Sample,17106,0,"2#++.wav",70
Sample,17106,0,"L1#.wav",70
Sample,17540,0,"L5#.wav",70
Sample,17975,0,"L2#+.wav",70
Sample,20584,0,"L1.wav",70
Sample,21019,0,"L5#.wav",70
Sample,21453,0,"L1+.wav",70
Sample,24062,0,"L6#-.wav",70
Sample,24497,0,"L4.wav",70
Sample,24932,0,"L1#+.wav",70
Sample,27540,0,"L2#-.wav",70
Sample,31019,0,"L6#-.wav",70
Sample,31019,0,"L5#--.wav",70
Sample,31453,0,"L2#-.wav",70
Sample,34062,0,"L2#-.wav",70
Sample,34497,0,"L1-.wav",70
Sample,34932,0,"L5-.wav",70
Sample,35366,0,"L2#.wav",70
Sample,37975,0,"L4-.wav",70
Sample,38410,0,"L1-.wav",70
Sample,38845,0,"L5#-.wav",70
Sample,40584,0,"L4-.wav",70
Sample,41019,0,"L1-.wav",70
Sample,41453,0,"L2#-.wav",70
Sample,44932,0,"L1#-.wav",70
Sample,45366,0,"L5#-.wav",70
//Background Colour Transformations
3,100,163,162,255

[TimingPoints]
3193,434.782608695652,4,1,1,100,1,0
86671,-100,4,1,1,100,0,1
138845,-100,4,1,1,100,0,0
170149,-100,4,1,1,100,0,1
222323,-100,4,1,1,100,0,0

[HitObjects]
64,192,2541,5,0,0:0:0:70:2#+.wav
192,192,2758,1,0,0:0:0:70:5#+.wav
320,192,2975,1,0,0:0:0:70:6#+.wav
448,192,3193,1,0,0:0:0:70:6#+.wav
192,192,3627,1,0,0:0:0:70:1++.wav
320,192,4062,1,0,0:0:0:70:1++.wav
192,192,4497,1,0,0:0:0:70:L2#.wav
320,192,4932,128,0,5801:0:0:0:70:L5#.wav
64,192,6019,1,0,0:0:0:70:5#+.wav
192,192,6236,1,0,0:0:0:70:6#+.wav
320,192,6454,1,0,0:0:0:70:1++.wav
64,192,6671,1,0,0:0:0:70:6#+.wav
448,192,6671,1,0,0:0:0:70:2#+.wav
192,192,7106,1,0,0:0:0:70:2#++.wav
320,192,7540,1,0,0:0:0:70:5+.wav
448,192,7540,1,0,0:0:0:70:2#++.wav
64,192,7975,1,0,0:0:0:70:L5.wav
192,192,8410,128,0,9280:0:0:0:70:L1+.wav
64,192,9497,1,0,0:0:0:70:2#++.wav
192,192,9714,1,0,0:0:0:70:4++.wav
320,192,9932,1,0,0:0:0:70:5++.wav
402,192,10149,1,0,0:0:0:70:2#++.wav
64,192,10149,1,0,0:0:0:70:5++.wav
192,192,10584,1,0,0:0:0:70:5#++.wav
320,192,11019,1,0,0:0:0:70:5#++.wav
448,192,11019,1,0,0:0:0:70:4++.wav
64,192,11454,1,0,0:0:0:70:L1+.wav
192,192,11888,128,0,12758:0:0:0:70:L5#+.wav
448,192,12323,1,0,0:0:0:70:6#++.wav
475,192,12758,1,0,0:0:0:70:1+++.wav
64,192,12758,1,0,0:0:0:70:L1++.wav
192,192,13029,1,0,0:0:0:70:6#++.wav
320,192,13356,1,0,0:0:0:70:5#++.wav
448,192,13627,1,0,0:0:0:70:5++.wav
64,192,14062,1,0,0:0:0:70:L1+.wav
475,192,14497,1,0,0:0:0:70:5+.wav
192,192,14932,1,0,0:0:0:70:L1+.wav
320,192,15366,1,0,0:0:0:70:5++.wav
448,192,15366,1,0,0:0:0:70:1++.wav
64,192,15801,1,0,0:0:0:70:5#++.wav
192,192,16236,1,0,0:0:0:70:5++.wav
320,192,16671,1,0,0:0:0:70:2#++.wav
448,192,17106,1,0,0:0:0:70:5+.wav
64,192,17106,1,0,0:0:0:70:2#+.wav
192,192,17540,1,0,0:0:0:70:4++.wav
448,192,17975,1,0,0:0:0:70:5#+.wav
320,192,17975,1,0,0:0:0:70:4++.wav
36,192,18410,1,0,0:0:0:70:L5#.wav
192,192,18845,128,0,19714:0:0:0:70:1#+.wav
192,192,20149,1,0,0:0:0:70:2#++.wav
320,192,20366,1,0,0:0:0:70:1#++.wav
448,192,20584,1,0,0:0:0:70:1#++.wav
64,192,21019,1,0,0:0:0:70:2#++.wav
320,192,21453,1,0,0:0:0:70:2#++.wav
192,192,21888,1,0,0:0:0:70:L5#.wav
36,192,22323,128,0,23193:0:0:0:70:L1#+.wav
448,192,22323,128,0,23193:0:0:0:70:5#+.wav
192,192,23627,1,0,0:0:0:70:5#+.wav
320,192,23845,1,0,0:0:0:70:6#+.wav
64,192,24062,1,0,0:0:0:70:5#+.wav
448,192,24062,1,0,0:0:0:70:1++.wav
192,192,24497,1,0,0:0:0:70:1#++.wav
320,192,24932,1,0,0:0:0:70:1#++.wav
448,192,24932,1,0,0:0:0:70:5#+.wav
64,192,25366,1,0,0:0:0:70:L4.wav
192,192,25801,128,0,26671:0:0:0:70:L5#.wav
448,192,26671,1,0,0:0:0:70:2#++.wav
320,192,27106,1,0,0:0:0:70:1#++.wav
64,192,27540,1,0,0:0:0:70:5#+.wav
448,192,27540,1,0,0:0:0:70:1++.wav
192,192,27975,1,0,0:0:0:70:L6#-.wav
320,192,28410,1,0,0:0:0:70:L5#.wav
192,192,28845,1,0,0:0:0:70:L6#-.wav
448,192,29279,1,0,0:0:0:70:6#+.wav
64,192,29279,1,0,0:0:0:70:L5.wav
192,192,29714,1,0,0:0:0:70:2#+.wav
320,192,30149,1,0,0:0:0:70:5#+.wav
448,192,30584,1,0,0:0:0:70:6#+.wav
192,192,31019,1,0,0:0:0:70:2#+.wav
64,192,31019,1,0,0:0:0:70:6#+.wav
448,192,31453,1,0,0:0:0:70:1++.wav
192,192,31888,128,0,32323:0:0:0:70:L1.wav
475,192,31888,128,0,32323:0:0:0:70:1++.wav
36,192,32323,1,0,0:0:0:70:L2#-.wav
320,192,32758,128,0,33193:0:0:0:70:L6#-.wav
36,192,33193,1,0,0:0:0:70:L2#-.wav
192,192,33627,1,0,0:0:0:70:L5#-.wav
448,192,33845,1,0,0:0:0:70:5#+.wav
320,192,34062,1,0,0:0:0:70:6#+.wav
192,192,34279,1,0,0:0:0:70:1++.wav
64,192,34497,1,0,0:0:0:70:6#+.wav
448,192,34497,1,0,0:0:0:70:2#+.wav
192,192,34932,1,0,0:0:0:70:2#++.wav
64,192,35366,1,0,0:0:0:70:2#++.wav
448,192,35801,1,0,0:0:0:70:L5-.wav
192,192,36236,1,0,0:0:0:70:L1.wav
320,192,36671,1,0,0:0:0:70:L5-.wav
448,192,37106,1,0,0:0:0:70:L2#.wav
64,192,37323,1,0,0:0:0:70:2#++.wav
192,192,37540,1,0,0:0:0:70:4++.wav
320,192,37758,1,0,0:0:0:70:5++.wav
402,192,37975,1,0,0:0:0:70:5#+.wav
64,192,37975,1,0,0:0:0:70:5++.wav
320,192,38410,1,0,0:0:0:70:5#++.wav
475,192,38845,1,0,0:0:0:70:5#++.wav
64,192,38845,1,0,0:0:0:70:4++.wav
192,192,39279,1,0,0:0:0:70:L1-.wav
320,192,39714,1,0,0:0:0:70:L5-.wav
320,192,40149,1,0,0:0:0:70:6#++.wav
64,192,40149,1,0,0:0:0:70:L1-.wav
448,192,40584,1,0,0:0:0:70:1+++.wav
320,192,40856,1,0,0:0:0:70:6#++.wav
192,192,41182,1,0,0:0:0:70:5#++.wav
64,192,41453,1,0,0:0:0:70:5++.wav
448,192,41453,1,0,0:0:0:70:1++.wav
192,192,41888,1,0,0:0:0:70:L1-.wav
448,192,42323,1,0,0:0:0:70:L5-.wav
64,192,42758,1,0,0:0:0:70:L1-.wav
320,192,43192,1,0,0:0:0:70:L2#-.wav
64,192,43627,1,0,0:0:0:70:5#++.wav
192,192,44062,1,0,0:0:0:70:5++.wav
320,192,44497,1,0,0:0:0:70:2#++.wav
475,192,44932,1,0,0:0:0:70:2#++.wav
64,192,44932,1,0,0:0:0:70:5+.wav
320,192,45366,1,0,0:0:0:70:4++.wav
320,192,45801,1,0,0:0:0:70:L1#.wav
192,192,45801,128,0,46236:0:0:0:70:5#+.wav
448,192,45801,128,0,46236:0:0:0:70:4++.wav
64,192,46236,1,0,0:0:0:70:L5#-.wav
320,192,46671,1,0,0:0:0:70:L4.wav
64,192,47106,1,0,0:0:0:70:L5#-.wav
192,192,47540,1,0,0:0:0:70:L1#.wav
448,192,47975,1,0,0:0:0:70:2#++.wav
64,192,47975,1,0,0:0:0:70:L5#-.wav
320,192,48193,1,0,0:0:0:70:1#++.wav
475,192,48410,1,0,0:0:0:70:1#++.wav
192,192,48410,1,0,0:0:0:70:5#+.wav
109,192,48410,1,0,0:0:0:70:L1-.wav
475,192,48845,1,0,0:0:0:70:2#++.wav
320,192,48845,1,0,0:0:0:70:L5#-.wav
320,192,49280,128,0,49714:0:0:0:70:2#++.wav
448,192,49280,128,0,49714:0:0:0:70:L2#.wav
192,192,49714,1,0,0:0:0:70:L5#-.wav
320,192,50149,1,0,0:0:0:70:L1.wav
192,192,50584,1,0,0:0:0:70:L5#-.wav
448,192,51019,1,0,0:0:0:70:L2#.wav
64,192,51454,1,0,0:0:0:70:5#+.wav
192,192,51671,1,0,0:0:0:70:6#+.wav
448,192,51888,1,0,0:0:0:70:4+.wav
192,192,51888,1,0,0:0:0:70:1++.wav
36,192,51888,1,0,0:0:0:70:L6#--.wav
448,192,52323,128,0,52758:0:0:0:70:L4-.wav
320,192,52323,128,0,52758:0:0:0:70:1#++.wav
192,192,52758,1,0,0:0:0:70:L5#-.wav
64,192,53193,1,0,0:0:0:70:4+.wav
192,192,53627,128,0,54062:0:0:0:70:L2#-.wav
320,192,53627,1,0,0:0:0:70:1#+.wav
448,192,53627,128,0,54062:0:0:0:70:5#+.wav
36,192,54062,1,0,0:0:0:70:L6#-.wav
36,192,54497,128,0,54932:0:0:0:70:L2#.wav
320,192,54497,128,0,54932:0:0:0:70:5+.wav
402,192,55367,1,0,0:0:0:70:5#+.wav
64,192,55367,128,0,55801:0:0:0:70:L5#-.wav
320,192,55367,128,0,55801:0:0:0:70:1#+.wav
192,192,55801,1,0,0:0:0:70:L2#.wav
320,192,56236,1,0,0:0:0:70:6#.wav
448,192,56671,1,0,0:0:0:70:1#+.wav
475,192,57106,1,0,0:0:0:70:1+.wav
109,192,57106,1,0,0:0:0:70:L2#.wav
192,192,57106,128,0,58410:0:0:0:70:L5#-.wav
64,192,57540,1,0,0:0:0:70:5#.wav
320,192,57975,1,0,0:0:0:70:1+.wav
448,192,58410,1,0,0:0:0:70:2#+.wav
448,192,58845,1,0,0:0:0:70:5#.wav
64,192,58845,1,0,0:0:0:70:L1#-.wav
320,192,58845,128,0,59280:0:0:0:70:4+.wav
192,192,58845,128,8,59062:0:0:0:0:
192,192,59280,1,0,0:0:0:70:L5#-.wav
320,192,59714,1,0,0:0:0:70:4.wav
36,192,59714,128,0,60149:0:0:0:70:L2#.wav
448,192,59714,128,8,59932:0:0:0:0:
192,192,60149,1,0,0:0:0:70:L5#-.wav
320,192,60584,1,0,0:0:0:70:L1#.wav
475,192,60584,128,0,61019:0:0:0:70:5#.wav
192,192,60584,128,8,60801:0:0:0:0:
192,192,61019,1,0,0:0:0:70:5.wav
36,192,61019,128,0,61454:0:0:0:70:L5#-.wav
475,192,61454,1,0,0:0:0:70:5#.wav
192,192,61454,1,0,0:0:0:70:L2#.wav
320,192,61454,128,8,61671:0:0:0:0:
64,192,61888,1,0,0:0:0:70:4+.wav
192,192,61888,128,0,62323:0:0:0:70:L5#-.wav
448,192,62106,128,8,62214:0:0:0:0:
320,192,62323,1,0,0:0:0:70:6#.wav
64,192,62323,1,0,0:0:0:70:2#+.wav
448,192,62323,128,8,62540:0:0:0:0:
36,192,62758,1,0,0:0:0:70:L5#-.wav
320,192,62758,128,0,63193:0:0:0:70:2#.wav
402,192,63193,1,0,0:0:0:70:5#.wav
64,192,63193,1,0,0:0:0:70:L1.wav
192,192,63193,128,8,63410:0:0:0:0:
64,192,63627,128,0,64062:0:0:0:70:L5#-.wav
320,192,63627,1,0,0:0:0:70:5.wav
448,192,64062,1,0,0:0:0:70:5#.wav
192,192,64062,1,0,0:0:0:70:L1.wav
320,192,64062,128,8,64280:0:0:0:0:
320,192,64497,1,0,0:0:0:70:5.wav
64,192,64497,128,0,64932:0:0:0:70:L5#-.wav
192,192,64932,1,0,0:0:0:70:5#.wav
448,192,64932,1,0,0:0:0:70:L1.wav
320,192,64932,128,8,65149:0:0:0:0:
192,192,65367,1,0,0:0:0:70:L1-.wav
320,192,65367,128,0,65801:0:0:0:70:2#+.wav
64,192,65584,128,8,65693:0:0:0:0:
448,192,65801,1,0,0:0:0:70:2#+.wav
192,192,65801,1,0,0:0:0:70:4.wav
64,192,65801,128,8,66019:0:0:0:0:
320,192,66236,1,0,0:0:0:70:L4-.wav
192,192,66236,128,0,66671:0:0:0:70:1#+.wav
402,192,66671,1,0,0:0:0:70:1#+.wav
36,192,66671,1,0,0:0:0:70:L5#-.wav
320,192,66671,128,8,66888:0:0:0:0:
320,192,67106,1,0,0:0:0:70:1+.wav
192,192,67106,128,0,67540:0:0:0:70:L6#--.wav
64,192,67540,1,0,0:0:0:70:5#.wav
320,192,67540,128,8,67758:0:0:0:0:
402,192,67541,1,0,0:0:0:70:1+.wav
36,192,67975,1,0,0:0:0:70:L6#-.wav
448,192,67975,128,0,68410:0:0:0:70:6#.wav
320,192,68410,1,0,0:0:0:70:6#.wav
36,192,68410,1,0,0:0:0:70:L2#.wav
192,192,68410,128,8,68627:0:0:0:0:
192,192,68845,128,0,69280:0:0:0:70:5#.wav
64,192,69062,128,8,69171:0:0:0:0:
475,192,69280,1,0,0:0:0:70:6#.wav
320,192,69280,1,0,0:0:0:70:2#.wav
64,192,69280,128,8,69497:0:0:0:0:
192,192,69714,1,0,0:0:0:70:L2#-.wav
320,192,69714,1,0,0:0:0:70:1+.wav
475,192,70149,1,0,0:0:0:70:1+.wav
192,192,70149,128,0,70584:0:0:0:70:L6#-.wav
320,192,70149,128,8,70367:0:0:0:0:
36,192,70584,1,0,0:0:0:70:L2#-.wav
402,192,71019,1,0,0:0:0:70:1+.wav
192,192,71019,1,0,0:0:0:70:1.wav
320,192,71019,128,0,71454:0:0:0:70:L5#-.wav
64,192,71019,128,8,71236:0:0:0:0:
475,192,71453,1,0,0:0:0:70:5#.wav
36,192,71454,1,0,0:0:0:70:L2#-.wav
320,192,71888,1,0,0:0:0:70:1+.wav
192,192,71888,128,0,72323:0:0:0:70:L6#-.wav
448,192,71888,128,8,72106:0:0:0:0:
475,192,72323,1,0,0:0:0:70:2#+.wav
36,192,72323,1,0,0:0:0:70:L5#--.wav
320,192,72540,128,8,72649:0:0:0:0:
64,192,72758,1,0,0:0:0:70:4+.wav
192,192,72758,1,0,0:0:0:70:L2--.wav
448,192,72758,128,0,73193:0:0:0:70:1+.wav
320,192,72758,128,8,72975:0:0:0:0:
329,192,73193,1,0,0:0:0:70:1.wav
36,192,73193,1,0,0:0:0:70:L2-.wav
192,192,73193,128,8,73410:0:0:0:0:
448,192,73627,128,8,73845:0:0:0:0:
36,192,73627,1,0,0:0:0:70:L5#-.wav
192,192,73627,128,0,74062:0:0:0:70:4.wav
329,192,74062,1,0,0:0:0:70:5#.wav
448,192,74062,1,0,0:0:0:70:L1.wav
64,192,74062,128,8,74280:0:0:0:0:
448,192,74497,1,0,0:0:0:70:7-.wav
320,192,74497,1,0,0:0:0:70:5.wav
192,192,74497,1,0,0:0:0:70:L4-.wav
64,192,74497,1,0,0:0:0:70:L5--.wav
64,192,74932,128,8,75149:0:0:0:0:
448,192,74932,1,0,0:0:0:70:5+.wav
192,192,74932,128,0,75367:0:0:0:70:L2-.wav
320,192,75367,1,0,0:0:0:70:7.wav
64,192,75367,1,0,0:0:0:70:5+.wav
448,192,75367,128,8,75584:0:0:0:0:
36,192,75801,1,0,0:0:0:70:L2-.wav
320,192,75801,128,0,76236:0:0:0:70:4+.wav
448,192,75801,128,8,76018:0:0:0:0:
64,192,76236,1,0,0:0:0:70:2#+.wav
475,192,76236,1,0,0:0:0:70:5.wav
192,192,76236,128,8,76454:0:0:0:0:
448,192,76671,128,8,76888:0:0:0:0:
320,192,76671,1,0,0:0:0:70:L5-.wav
192,192,77106,1,0,0:0:0:70:L2#.wav
64,192,77106,128,8,77323:0:0:0:0:
320,192,77540,1,0,0:0:0:70:1+.wav
448,192,77540,128,8,77757:0:0:0:0:
320,192,77758,1,0,0:0:0:70:1#+.wav
448,192,77975,1,0,0:0:0:70:6#.wav
192,192,77975,1,0,0:0:0:70:2#+.wav
64,192,77975,1,0,0:0:0:70:L4-.wav
320,192,77975,128,8,78193:0:0:0:0:
320,192,78410,1,0,0:0:0:70:6.wav
192,192,78410,1,0,0:0:0:70:L1.wav
64,192,78410,128,8,78627:0:0:0:0:
448,192,78845,1,0,0:0:0:70:L4.wav
320,192,78845,128,0,79280:0:0:0:70:1#+.wav
192,192,78845,128,8,79062:0:0:0:0:
448,192,79280,128,8,79497:0:0:0:0:
192,192,79280,1,0,0:0:0:70:1+.wav
320,192,79714,1,0,0:0:0:70:4.wav
192,192,79714,1,0,0:0:0:70:1#+.wav
109,192,79714,128,0,80149:0:0:0:70:L5#-.wav
448,192,79714,1,8,0:0:0:0:
320,192,79932,1,8,0:0:0:0:
192,192,80149,1,0,0:0:0:70:L4-.wav
448,192,80149,1,8,0:0:0:0:
320,192,80367,1,8,0:0:0:0:
64,192,80584,1,0,0:0:0:70:2#+.wav
192,192,80584,128,0,81019:0:0:0:70:L6#-.wav
448,192,80584,1,8,0:0:0:0:
320,192,80801,1,8,0:0:0:0:
64,192,81019,1,0,0:0:0:70:L4-.wav
448,192,81019,1,8,0:0:0:0:
320,192,81236,1,8,0:0:0:0:
448,192,81454,1,0,0:0:0:70:4+.wav
320,192,81454,128,0,81888:0:0:0:70:L1#.wav
64,192,81454,1,8,0:0:0:0:
192,192,81671,1,8,0:0:0:0:
448,192,81888,1,0,0:0:0:70:L4-.wav
64,192,81888,1,8,0:0:0:0:
320,192,82106,1,0,0:0:0:70:5+.wav
192,192,82106,1,8,0:0:0:0:
320,192,82323,128,0,82758:0:0:0:70:L5#-.wav
64,192,82323,1,8,0:0:0:0:
192,192,82540,1,8,0:0:0:0:
475,192,82758,1,0,0:0:0:70:5#+.wav
64,192,82758,1,8,0:0:0:0:
192,192,82975,1,8,0:0:0:0:
64,192,83193,1,0,0:0:0:70:1#+.wav
448,192,83193,1,0,0:0:0:70:1++.wav
192,192,83193,1,0,0:0:0:70:4+.wav
320,192,83301,1,8,0:0:0:0:
448,192,83410,1,8,0:0:0:0:
320,192,83519,1,8,0:0:0:0:
36,192,83627,1,0,0:0:0:70:L6#--.wav
448,192,83627,1,8,0:0:0:0:
320,192,83736,1,8,0:0:0:0:
192,192,83845,1,8,0:0:0:0:
64,192,83954,1,8,0:0:0:0:
320,192,84062,1,0,0:0:0:70:L5#-.wav
448,192,84062,1,0,0:0:0:70:L1#.wav
192,192,84062,1,8,0:0:0:0:
64,192,84171,1,8,0:0:0:0:
192,192,84280,1,8,0:0:0:0:
64,192,84388,1,8,0:0:0:0:
448,192,84497,1,0,0:0:0:70:L6#--.wav
192,192,84497,1,8,0:0:0:0:
64,192,84606,1,8,0:0:0:0:
192,192,84714,1,8,0:0:0:0:
320,192,84823,1,8,0:0:0:0:
402,192,84932,1,0,0:0:0:70:6#+.wav
192,192,84932,1,0,0:0:0:70:4+.wav
36,192,84932,1,0,0:0:0:70:L5-.wav
320,192,85149,1,8,0:0:0:0:
64,192,85367,1,0,0:0:0:35:2#+.wav
192,192,85367,1,0,0:0:0:35:2#+.wav
448,192,85367,1,8,0:0:0:0:
320,192,85584,1,8,0:0:0:0:
448,192,85801,1,0,0:0:0:35:5#+.wav
64,192,85801,1,8,0:0:0:0:
320,192,85801,1,0,0:0:0:35:5#+.wav
192,192,85910,1,8,0:0:0:0:
64,192,86019,1,8,0:0:0:0:
192,192,86127,1,8,0:0:0:0:
320,192,86236,1,0,0:0:0:35:6#+.wav
448,192,86236,1,0,0:0:0:35:6#+.wav
64,192,86236,1,8,0:0:0:0:
192,192,86345,1,8,0:0:0:0:
320,192,86454,1,8,0:0:0:0:
448,192,86562,1,8,0:0:0:0:
64,192,86671,1,0,0:0:0:70:6#+.wav
192,192,86671,1,0,0:0:0:70:L6#-.wav
320,192,86671,128,0,87106:0:0:0:70:2#+.wav
448,192,87106,1,0,0:0:0:70:1++.wav
192,192,87106,128,0,87540:0:0:0:70:L2#-.wav
448,192,87540,1,0,0:0:0:70:1++.wav
64,192,87540,1,0,0:0:0:70:L1.wav
320,192,87540,128,0,88845:0:0:0:70:2#+.wav
192,192,87975,1,0,0:0:0:70:L2#-.wav
448,192,88410,1,0,0:0:0:70:L6#-.wav
192,192,88845,1,0,0:0:0:70:L2#-.wav
192,192,89280,1,0,0:0:0:70:L5#-.wav
475,192,89497,1,0,0:0:0:70:5#+.wav
320,192,89714,1,0,0:0:0:70:6#+.wav
36,192,89714,1,0,0:0:0:70:L2#-.wav
192,192,89932,1,0,0:0:0:70:1++.wav
320,192,90149,1,0,0:0:0:70:6#+.wav
448,192,90149,1,0,0:0:0:70:2#+.wav
64,192,90149,1,0,0:0:0:70:L1--.wav
192,192,90149,128,0,90584:0:0:0:70:L1-.wav
64,192,90584,1,0,0:0:0:70:L5-.wav
320,192,90584,128,0,91019:0:0:0:70:2#++.wav
192,192,91019,1,0,0:0:0:70:2#+.wav
475,192,91019,1,0,0:0:0:70:2#++.wav
36,192,91019,128,0,91454:0:0:0:70:L2#.wav
192,192,91454,1,0,0:0:0:70:L5-.wav
402,192,91888,1,0,0:0:0:70:1+.wav
192,192,91888,128,0,92323:0:0:0:70:L1.wav
320,192,91888,128,0,92323:0:0:0:70:5.wav
36,192,92323,1,0,0:0:0:70:L5-.wav
64,192,92758,1,0,0:0:0:70:L2#.wav
475,192,92975,1,0,0:0:0:70:2#++.wav
320,192,93193,1,0,0:0:0:70:4++.wav
36,192,93193,1,0,0:0:0:70:L5-.wav
192,192,93410,1,0,0:0:0:70:5++.wav
402,192,93627,1,0,0:0:0:70:5++.wav
36,192,93627,1,0,0:0:0:70:L4-.wav
329,192,93627,128,0,94062:0:0:0:70:5+.wav
475,192,94062,1,0,0:0:0:70:5#++.wav
64,192,94062,1,0,0:0:0:70:5#+.wav
192,192,94062,128,0,94497:0:0:0:70:L1-.wav
402,192,94497,1,0,0:0:0:70:5#+.wav
320,192,94497,1,0,0:0:0:70:5#++.wav
64,192,94497,128,0,94932:0:0:0:70:L5#-.wav
192,192,94932,1,0,0:0:0:70:L1-.wav
36,192,95367,1,0,0:0:0:70:L4-.wav
448,192,95801,1,0,0:0:0:70:6#++.wav
320,192,95801,1,0,0:0:0:70:6#+.wav
192,192,95801,1,0,0:0:0:70:L1-.wav
448,192,96236,1,0,0:0:0:70:1+++.wav
320,192,96236,1,0,0:0:0:70:1++.wav
36,192,96236,1,0,0:0:0:70:L5#-.wav
448,192,96508,1,0,0:0:0:70:6#++.wav
192,192,96508,1,0,0:0:0:70:6#+.wav
64,192,96671,1,0,0:0:0:70:L1-.wav
475,192,96834,1,0,0:0:0:70:5#+.wav
192,192,96834,1,0,0:0:0:70:5#++.wav
192,192,97106,1,0,0:0:0:70:L2#.wav
320,192,97106,1,0,0:0:0:70:5+.wav
475,192,97106,1,0,0:0:0:70:5++.wav
64,192,97106,128,0,97540:0:0:0:70:1++.wav
320,192,97540,1,0,0:0:0:70:L1-.wav
320,192,97975,128,0,98410:0:0:0:70:L2#-.wav
475,192,97975,128,0,98410:0:0:0:70:1+.wav
36,192,98409,1,0,0:0:0:70:L1.wav
64,192,98845,1,0,0:0:0:70:5.wav
192,192,98845,1,0,0:0:0:70:5+.wav
320,192,98845,1,0,0:0:0:8:5++.wav
448,192,98845,1,0,0:0:0:8:5++.wav
192,192,99280,1,0,0:0:0:35:5#++.wav
448,192,99280,1,0,0:0:0:70:5#+.wav
320,192,99280,128,0,99714:0:0:0:70:L1.wav
64,192,99280,1,0,0:0:0:35:5#++.wav
448,192,99714,1,0,0:0:0:70:5++.wav
192,192,99714,1,0,0:0:0:70:5+.wav
64,192,99714,128,0,100149:0:0:0:70:L2#.wav
320,192,100149,1,0,0:0:0:70:2#++.wav
448,192,100149,1,0,0:0:0:70:2#+.wav
192,192,100149,128,0,100584:0:0:0:70:L2#-.wav
64,192,100367,1,8,0:0:0:0:
475,192,100584,1,0,0:0:0:70:2#++.wav
36,192,100584,1,0,0:0:0:70:L1#.wav
320,192,100584,128,0,101019:0:0:0:70:2#+.wav
192,192,101019,1,0,0:0:0:70:4+.wav
64,192,101019,1,0,0:0:0:70:L5#--.wav
448,192,101019,128,0,101454:0:0:0:70:4++.wav
320,192,101454,128,0,101888:0:0:0:70:4+.wav
192,192,101454,1,0,0:0:0:70:4++.wav
36,192,101454,1,0,0:0:0:70:L2#.wav
36,192,101888,1,0,0:0:0:70:L5#-.wav
64,192,102323,128,0,102758:0:0:0:35:L1#.wav
192,192,102323,1,0,0:0:0:35:L1#.wav
320,192,102758,1,0,0:0:0:35:L5#-.wav
192,192,102758,128,0,103193:0:0:0:35:L5#-.wav
448,192,103193,1,0,0:0:0:35:L2#.wav
320,192,103193,128,0,103627:0:0:0:35:L2#.wav
448,192,103627,1,0,0:0:0:70:2#++.wav
64,192,103627,1,0,0:0:0:70:L5#-.wav
192,192,103845,1,0,0:0:0:70:1#++.wav
448,192,104062,1,0,0:0:0:70:1#+.wav
192,192,104062,1,0,0:0:0:70:1#++.wav
109,192,104062,1,0,0:0:0:70:L1-.wav
448,192,104497,1,0,0:0:0:70:2#++.wav
320,192,104497,1,0,0:0:0:70:2#+.wav
192,192,104497,128,0,104932:0:0:0:70:L5#-.wav
402,192,104932,1,0,0:0:0:70:2#+.wav
36,192,104932,1,0,0:0:0:70:L1.wav
320,192,104932,128,0,105367:0:0:0:70:2#++.wav
192,192,105367,1,0,0:0:0:70:L5#-.wav
192,192,105801,128,0,106236:0:0:0:70:L2#.wav
36,192,106236,128,0,106671:0:0:0:70:L5#-.wav
320,192,106671,128,0,107106:0:0:0:70:L1.wav
475,192,107106,1,0,0:0:0:70:5#+.wav
64,192,107106,1,0,0:0:0:70:L5#-.wav
320,192,107323,1,0,0:0:0:70:6#+.wav
448,192,107540,1,0,0:0:0:70:1++.wav
192,192,107540,1,0,0:0:0:70:4+.wav
109,192,107540,1,0,0:0:0:70:L6#--.wav
475,192,107975,1,0,0:0:0:70:1#++.wav
320,192,107975,128,0,108410:0:0:0:70:L4-.wav
192,192,108410,1,0,0:0:0:70:1#++.wav
36,192,108410,1,0,0:0:0:70:L5#-.wav
448,192,108410,1,0,0:0:0:70:4+.wav
192,192,108845,1,0,0:0:0:70:L4-.wav
320,192,109280,128,0,109714:0:0:0:70:L1#.wav
192,192,109714,128,0,110149:0:0:0:70:L4-.wav
475,192,110149,1,0,0:0:0:70:2#+.wav
36,192,110149,1,0,0:0:0:70:L5#-.wav
320,192,110149,128,0,110584:0:0:0:70:2#++.wav
448,192,110584,1,0,0:0:0:70:1#+.wav
192,192,110584,1,0,0:0:0:70:1#++.wav
64,192,110584,128,0,111019:0:0:0:70:L6#--.wav
320,192,111019,1,0,0:0:0:70:1+.wav
192,192,111019,1,0,0:0:0:70:L2#--.wav
448,192,111019,128,0,111454:0:0:0:70:1++.wav
36,192,111454,128,0,111888:0:0:0:70:L6#--.wav
192,192,111888,128,0,112323:0:0:0:70:L1#.wav
320,192,112323,128,0,112758:0:0:0:70:L5#-.wav
402,192,112758,1,0,0:0:0:70:6#+.wav
192,192,112758,1,0,0:0:0:70:6#.wav
64,192,112758,1,0,0:0:0:70:L2#-.wav
192,192,113193,1,0,0:0:0:70:L6#-.wav
36,192,113627,1,0,0:0:0:70:L5.wav
448,192,113627,128,0,114062:0:0:0:70:5#+.wav
320,192,114062,1,0,0:0:0:70:6#+.wav
192,192,114062,128,0,114497:0:0:0:70:L2#.wav
448,192,114497,1,0,0:0:0:70:2#+.wav
320,192,114497,1,0,0:0:0:70:6#+.wav
64,192,114497,128,0,114932:0:0:0:70:L6#-.wav
192,192,114932,1,0,0:0:0:70:L2#-.wav
320,192,114932,128,0,115367:0:0:0:70:1++.wav
475,192,115367,1,0,0:0:0:70:1++.wav
64,192,115367,1,0,0:0:0:70:1+.wav
192,192,115367,128,0,115801:0:0:0:70:L1.wav
320,192,115801,1,0,0:0:0:70:L2#-.wav
320,192,116236,128,0,117106:0:0:0:70:L6#-.wav
36,192,116671,1,0,0:0:0:70:L2#-.wav
448,192,117106,1,0,0:0:0:70:L5#-.wav
192,192,117323,5,0,0:0:0:70:5#+.wav
448,192,117540,1,0,0:0:0:70:6#+.wav
64,192,117540,1,0,0:0:0:70:L2#-.wav
320,192,117758,1,0,0:0:0:70:1++.wav
402,192,117975,1,0,0:0:0:70:6#+.wav
192,192,117975,1,0,0:0:0:70:2#+.wav
64,192,117975,1,0,0:0:0:70:L1.wav
320,192,117975,128,0,118410:0:0:0:70:L1-.wav
36,192,118410,1,0,0:0:0:70:L5-.wav
475,192,118410,128,0,118845:0:0:0:70:2#++.wav
320,192,118845,1,0,0:0:0:70:2#+.wav
192,192,118845,1,0,0:0:0:70:2#++.wav
64,192,118845,128,0,119280:0:0:0:70:L2#.wav
192,192,119280,1,0,0:0:0:70:L5-.wav
320,192,119714,1,0,0:0:0:70:L2#.wav
192,192,119714,128,0,120584:0:0:0:70:L1+.wav
448,192,120149,1,0,0:0:0:70:L5-.wav
36,192,120584,1,0,0:0:0:70:L2#.wav
320,192,120801,1,0,0:0:0:70:2#+.wav
192,192,121019,1,0,0:0:0:70:4++.wav
448,192,121019,1,0,0:0:0:70:4+.wav
64,192,121019,1,0,0:0:0:70:L5-.wav
320,192,121236,1,0,0:0:0:70:5+.wav
448,192,121454,1,0,0:0:0:70:5++.wav
109,192,121454,1,0,0:0:0:70:L4--.wav
192,192,121454,128,0,121888:0:0:0:70:5+.wav
402,192,121888,1,0,0:0:0:70:5#++.wav
64,192,121888,1,0,0:0:0:70:5#+.wav
320,192,121888,128,0,122323:0:0:0:70:L1-.wav
475,192,122323,1,0,0:0:0:70:5#+.wav
192,192,122323,1,0,0:0:0:70:5#++.wav
64,192,122323,128,0,122758:0:0:0:70:L5#-.wav
192,192,122758,1,0,0:0:0:70:L1-.wav
192,192,123193,1,0,0:0:0:70:L1.wav
320,192,123193,128,0,123627:0:0:0:70:L4.wav
402,192,123627,1,0,0:0:0:70:6#++.wav
192,192,123627,1,0,0:0:0:70:6#+.wav
36,192,123627,1,0,0:0:0:70:L1-.wav
448,192,124062,1,0,0:0:0:70:1+++.wav
192,192,124062,1,0,0:0:0:70:L4-.wav
64,192,124334,1,0,0:0:0:70:6#++.wav
320,192,124334,1,0,0:0:0:70:6#+.wav
192,192,124497,1,0,0:0:0:70:L1-.wav
320,192,124660,1,0,0:0:0:70:5#+.wav
402,192,124660,1,0,0:0:0:70:5#++.wav
448,192,124932,1,0,0:0:0:70:5++.wav
36,192,124932,1,0,0:0:0:70:L2#-.wav
192,192,124932,128,0,125801:0:0:0:70:1++.wav
320,192,125367,1,0,0:0:0:70:L1-.wav
402,192,125801,1,0,0:0:0:70:1+.wav
36,192,125801,1,0,0:0:0:70:L5-.wav
320,192,126236,128,0,126671:0:0:0:70:L1-.wav
64,192,126671,1,0,0:0:0:70:5+.wav
448,192,126671,1,0,0:0:0:70:5++.wav
192,192,126671,1,0,0:0:0:70:L2#.wav
320,192,127106,1,0,0:0:0:70:5#+.wav
192,192,127106,1,0,0:0:0:70:5#++.wav
448,192,127106,128,0,127540:0:0:0:70:L1-.wav
192,192,127540,128,0,127975:0:0:0:70:L5-.wav
320,192,127540,1,0,0:0:0:70:5++.wav
64,192,127540,1,0,0:0:0:70:5+.wav
448,192,127975,1,0,0:0:0:70:2#+.wav
64,192,127975,1,0,0:0:0:70:2#++.wav
320,192,127975,1,0,0:0:0:70:L2#-.wav
475,192,128410,1,0,0:0:0:70:2#+.wav
36,192,128410,1,0,0:0:0:70:L1#-.wav
320,192,128410,128,0,128845:0:0:0:70:2#++.wav
402,192,128845,1,0,0:0:0:70:4+.wav
36,192,128845,1,0,0:0:0:70:L5#-.wav
192,192,128845,128,0,129280:0:0:0:70:4++.wav
475,192,129280,1,0,0:0:0:70:4++.wav
320,192,129280,1,0,0:0:0:70:L2#.wav
64,192,129280,128,0,129714:0:0:0:70:4+.wav
320,192,129714,1,0,0:0:0:70:L5#-.wav
192,192,130149,1,0,0:0:0:70:L1#.wav
448,192,130584,1,0,0:0:0:70:L5#-.wav
192,192,131019,1,0,0:0:0:70:L2#.wav
320,192,131454,1,0,0:0:0:70:2#++.wav
64,192,131454,1,0,0:0:0:70:L5#-.wav
192,192,131671,1,0,0:0:0:70:1#++.wav
475,192,131888,1,0,0:0:0:70:1#++.wav
320,192,131888,1,0,0:0:0:70:5#+.wav
64,192,131888,1,0,0:0:0:70:L1.wav
192,192,131888,128,0,132323:0:0:0:70:L1-.wav
448,192,132323,1,0,0:0:0:70:2#+.wav
64,192,132323,1,0,0:0:0:70:L5#-.wav
320,192,132323,128,0,132758:0:0:0:70:2#++.wav
64,192,132758,1,0,0:0:0:70:2#+.wav
192,192,132758,1,0,0:0:0:70:L1.wav
448,192,132758,128,0,133193:0:0:0:70:2#++.wav
320,192,133193,1,0,0:0:0:70:L5#-.wav
192,192,133627,1,0,0:0:0:70:L2#.wav
320,192,134062,1,0,0:0:0:70:L5#-.wav
64,192,134497,1,0,0:0:0:70:L1.wav
448,192,134932,1,0,0:0:0:70:5#+.wav
64,192,134932,1,0,0:0:0:70:L5#-.wav
192,192,135149,1,0,0:0:0:70:6#+.wav
448,192,135367,1,0,0:0:0:70:4+.wav
109,192,135367,1,0,0:0:0:70:L6#--.wav
320,192,135367,128,0,135801:0:0:0:70:1++.wav
475,192,135801,1,0,0:0:0:70:1#++.wav
192,192,135801,128,0,136236:0:0:0:70:L4-.wav
64,192,136236,1,0,0:0:0:70:L5#-.wav
320,192,136671,128,0,137106:0:0:0:70:4+.wav
402,192,137106,1,0,0:0:0:70:5#+.wav
192,192,137106,1,0,0:0:0:70:1#+.wav
64,192,137106,1,0,0:0:0:70:L2#-.wav
36,192,137540,1,0,0:0:0:70:L6#-.wav
475,192,137975,1,0,0:0:0:70:5+.wav
192,192,137975,128,0,138410:0:0:0:70:L2#.wav
475,192,138845,1,0,0:0:0:70:1#+.wav
192,192,138845,1,0,0:0:0:70:L5#-.wav
320,192,138845,128,0,139280:0:0:0:70:5#+.wav
36,192,139280,128,0,139714:0:0:0:70:L2#.wav
192,192,139714,128,0,140149:0:0:0:70:6#.wav
320,192,140149,128,0,140584:0:0:0:70:1#+.wav
448,192,140584,1,0,0:0:0:70:1+.wav
109,192,140584,1,0,0:0:0:70:L5#-.wav
192,192,140584,128,0,141019:0:0:0:70:L2#.wav
320,192,141019,1,0,0:0:0:70:5#.wav
448,192,141454,1,0,0:0:0:70:1+.wav
320,192,141888,1,0,0:0:0:70:2#+.wav
402,192,142323,1,0,0:0:0:70:5#.wav
320,192,142323,1,0,0:0:0:70:4+.wav
192,192,142323,1,0,0:0:0:70:L1#-.wav
36,192,142758,1,0,0:0:0:70:L5#-.wav
402,192,143193,1,0,0:0:0:70:4.wav
192,192,143193,1,0,0:0:0:70:L2#.wav
320,192,143627,1,0,0:0:0:70:L5#-.wav
402,192,144062,1,0,0:0:0:70:5#.wav
192,192,144062,1,0,0:0:0:70:L1#.wav
320,192,144497,1,0,0:0:0:70:5.wav
64,192,144497,1,0,0:0:0:70:L5#-.wav
320,192,144932,1,0,0:0:0:70:5#.wav
192,192,144932,1,0,0:0:0:70:L2#.wav
402,192,145367,1,0,0:0:0:70:4+.wav
192,192,145367,1,0,0:0:0:70:L5#-.wav
192,192,145801,1,0,0:0:0:70:6#.wav
448,192,145801,1,0,0:0:0:70:2#+.wav
36,192,145801,1,0,0:0:0:70:L1-.wav
448,192,146236,1,0,0:0:0:70:2#.wav
320,192,146236,1,0,0:0:0:70:L5#-.wav
448,192,146671,1,0,0:0:0:70:5#.wav
192,192,146671,1,0,0:0:0:70:L1.wav
320,192,147106,1,0,0:0:0:70:5.wav
36,192,147106,1,0,0:0:0:70:L5#-.wav
402,192,147540,1,0,0:0:0:70:5#.wav
320,192,147540,1,0,0:0:0:70:L1.wav
192,192,147975,1,0,0:0:0:70:5.wav
36,192,147975,1,0,0:0:0:70:L5#-.wav
402,192,148410,1,0,0:0:0:70:5#.wav
192,192,148410,1,0,0:0:0:70:L1.wav
320,192,148845,1,0,0:0:0:70:2#+.wav
36,192,148845,1,0,0:0:0:70:L1-.wav
402,192,149280,1,0,0:0:0:70:2#+.wav
192,192,149280,1,0,0:0:0:70:4.wav
320,192,149280,1,0,0:0:0:70:L5#-.wav
64,192,149280,1,0,0:0:0:70:L6#--.wav
402,192,149714,1,0,0:0:0:70:1#+.wav
36,192,149714,1,0,0:0:0:70:L4-.wav
320,192,150149,1,0,0:0:0:70:1#+.wav
36,192,150149,1,0,0:0:0:70:L5#-.wav
320,192,150584,1,0,0:0:0:70:1+.wav
192,192,150584,1,0,0:0:0:70:L4-.wav
402,192,151019,1,0,0:0:0:70:1+.wav
329,192,151019,1,0,0:0:0:70:5#.wav
192,192,151019,1,0,0:0:0:70:L2#-.wav
320,192,151454,1,0,0:0:0:70:6#.wav
64,192,151454,1,0,0:0:0:70:L6#-.wav
402,192,151888,1,0,0:0:0:70:6#.wav
192,192,151888,1,0,0:0:0:70:L1#.wav
64,192,151888,1,0,0:0:0:70:L4.wav
320,192,152323,1,0,0:0:0:70:5#.wav
448,192,152758,1,0,0:0:0:70:6#.wav
320,192,152758,1,0,0:0:0:70:2#.wav
36,192,152758,1,0,0:0:0:70:L6#-.wav
192,192,152758,1,0,0:0:0:70:L5#--.wav
402,192,153193,1,0,0:0:0:70:1+.wav
192,192,153193,1,0,0:0:0:70:L2#-.wav
402,192,153627,1,0,0:0:0:70:1+.wav
192,192,153627,1,0,0:0:0:70:L6#-.wav
320,192,154062,1,0,0:0:0:70:L2#-.wav
475,192,154497,1,0,0:0:0:70:1.wav
192,192,154497,1,0,0:0:0:70:1+.wav
36,192,154497,1,0,0:0:0:70:L5#-.wav
192,192,154932,1,0,0:0:0:70:5#.wav
320,192,154932,1,0,0:0:0:70:L2#-.wav
475,192,155367,1,0,0:0:0:70:1+.wav
36,192,155367,1,0,0:0:0:70:L6#-.wav
475,192,155801,1,0,0:0:0:70:2#+.wav
192,192,155801,1,0,0:0:0:70:L5#--.wav
402,192,156236,1,0,0:0:0:70:1+.wav
320,192,156236,1,0,0:0:0:70:4+.wav
64,192,156236,1,0,0:0:0:70:5#.wav
192,192,156236,128,8,156454:0:0:0:0:
192,192,156671,1,0,0:0:0:70:1.wav
36,192,156671,1,0,0:0:0:70:L2-.wav
320,192,156671,128,8,156888:0:0:0:0:
475,192,157106,1,0,0:0:0:70:4.wav
192,192,157106,1,0,0:0:0:70:L5#-.wav
64,192,157106,128,8,157323:0:0:0:0:
192,192,157540,128,8,157758:0:0:0:0:
475,192,157540,1,0,0:0:0:70:5#.wav
320,192,157540,1,0,0:0:0:70:L1.wav
402,192,157975,1,0,0:0:0:70:7-.wav
192,192,157975,1,0,0:0:0:70:5.wav
109,192,157975,1,0,0:0:0:70:L5--.wav
320,192,157975,128,8,158193:0:0:0:0:
475,192,158410,1,0,0:0:0:70:5+.wav
320,192,158410,1,0,0:0:0:70:L2-.wav
192,192,158410,128,8,158627:0:0:0:0:
448,192,158845,1,0,0:0:0:70:7.wav
192,192,158845,1,0,0:0:0:70:5+.wav
36,192,158845,1,0,0:0:0:70:L7-.wav
320,192,158845,128,8,159062:0:0:0:0:
448,192,159280,1,0,0:0:0:70:4+.wav
320,192,159280,1,0,0:0:0:70:L2-.wav
64,192,159280,128,8,159497:0:0:0:0:
448,192,159497,1,8,0:0:0:0:
448,192,159606,1,8,0:0:0:0:
64,192,159714,1,0,0:0:0:70:2#+.wav
320,192,159714,1,0,0:0:0:70:5.wav
192,192,159714,1,0,0:0:0:70:L1-.wav
448,192,159714,128,8,159932:0:0:0:0:
320,192,160149,1,0,0:0:0:70:L5-.wav
64,192,160149,128,8,160367:0:0:0:0:
192,192,160584,1,0,0:0:0:70:L2#.wav
320,192,160584,128,8,160801:0:0:0:0:
448,192,161019,1,0,0:0:0:70:1+.wav
64,192,161019,128,8,161236:0:0:0:0:
320,192,161236,1,0,0:0:0:70:1#+.wav
64,192,161454,1,0,0:0:0:70:L4-.wav
192,192,161454,1,0,0:0:0:70:6#.wav
448,192,161454,1,0,0:0:0:70:2#+.wav
320,192,161454,128,8,161671:0:0:0:0:
320,192,161888,1,0,0:0:0:70:6.wav
192,192,161888,1,0,0:0:0:70:L1.wav
448,192,161888,128,8,162106:0:0:0:0:
320,192,162323,1,0,0:0:0:70:1#+.wav
192,192,162323,1,0,0:0:0:70:L4.wav
64,192,162323,128,8,162540:0:0:0:0:
448,192,162758,128,8,162975:0:0:0:0:
320,192,162758,1,0,0:0:0:70:1+.wav
192,192,162975,1,8,0:0:0:0:
192,192,163084,1,8,0:0:0:0:
64,192,163193,1,0,0:0:0:70:L5#-.wav
448,192,163193,1,0,0:0:0:70:1#+.wav
320,192,163193,1,0,0:0:0:70:L6#--.wav
192,192,163193,128,8,163410:0:0:0:0:
320,192,163410,1,8,0:0:0:0:
192,192,163627,1,0,0:0:0:70:L4-.wav
448,192,163627,1,8,0:0:0:0:
320,192,163845,1,8,0:0:0:0:
64,192,164062,1,0,0:0:0:70:L6#-.wav
192,192,164062,128,0,164497:0:0:0:70:2#+.wav
448,192,164062,1,8,0:0:0:0:
320,192,164280,1,8,0:0:0:0:
64,192,164497,1,0,0:0:0:70:L4-.wav
448,192,164497,1,8,0:0:0:0:
320,192,164714,1,8,0:0:0:0:
448,192,164932,1,0,0:0:0:70:4+.wav
320,192,164932,128,0,165367:0:0:0:70:4.wav
192,192,164932,1,8,0:0:0:0:
64,192,165149,1,8,0:0:0:0:
448,192,165367,1,0,0:0:0:70:L4-.wav
192,192,165367,1,8,0:0:0:0:
192,192,165584,1,0,0:0:0:70:5+.wav
320,192,165584,1,0,0:0:0:70:6#.wav
448,192,165584,1,0,0:0:0:70:5.wav
64,192,165584,1,8,0:0:0:0:
448,192,165801,1,0,0:0:0:70:L5#-.wav
192,192,165801,1,8,0:0:0:0:
320,192,166019,1,8,0:0:0:0:
192,192,166236,1,0,0:0:0:70:5#.wav
448,192,166236,1,8,0:0:0:0:
64,192,166236,1,0,0:0:0:70:5#+.wav
320,192,166454,1,8,0:0:0:0:
448,192,166671,1,0,0:0:0:70:1++.wav
320,192,166671,1,0,0:0:0:70:1#+.wav
64,192,166671,1,8,0:0:0:0:
192,192,166780,1,8,0:0:0:0:
320,192,166888,1,8,0:0:0:0:
448,192,166997,1,8,0:0:0:0:
320,192,167106,1,8,0:0:0:70:L6#--.wav
192,192,167214,1,8,0:0:0:0:
64,192,167323,1,8,0:0:0:0:
192,192,167432,1,8,0:0:0:0:
320,192,167540,1,0,0:0:0:70:L5#-.wav
448,192,167540,1,0,0:0:0:70:L1#.wav
64,192,167540,1,8,0:0:0:0:
192,192,167649,1,8,0:0:0:0:
320,192,167758,1,8,0:0:0:0:
448,192,167867,1,8,0:0:0:0:
64,192,167975,1,0,0:0:0:70:5#+.wav
320,192,167975,1,8,0:0:0:0:
192,192,168084,1,8,0:0:0:0:
320,192,168193,1,8,0:0:0:0:
192,192,168301,1,8,0:0:0:0:
448,192,168410,1,0,0:0:0:70:6#.wav
64,192,168410,1,0,0:0:0:70:4+.wav
320,192,168410,1,0,0:0:0:70:6#+.wav
192,192,168627,1,8,0:0:0:0:
448,192,168845,1,0,0:0:0:70:2#+.wav
320,192,168845,1,0,0:0:0:70:L6#-.wav
64,192,168845,1,8,0:0:0:0:
192,192,169062,1,8,0:0:0:0:
448,192,169280,1,8,0:0:0:0:
64,192,169280,1,0,0:0:0:70:L2#.wav
192,192,169280,1,0,0:0:0:70:5#+.wav
320,192,169388,1,8,0:0:0:0:
192,192,169497,1,8,0:0:0:0:
64,192,169606,1,8,0:0:0:0:
475,192,169714,1,0,0:0:0:70:6#+.wav
320,192,169714,1,0,0:0:0:70:L6#-.wav
192,192,169714,1,8,0:0:0:0:
64,192,169823,1,8,0:0:0:0:
192,192,169932,1,8,0:0:0:0:
320,192,170040,1,8,0:0:0:0:
448,192,170149,1,0,0:0:0:70:6#+.wav
36,192,170149,1,0,0:0:0:70:L6#-.wav
192,192,170149,1,0,0:0:0:70:L5#--.wav
320,192,170149,128,0,170584:0:0:0:70:2#+.wav
192,192,170584,1,0,0:0:0:70:1++.wav
64,192,170584,128,0,171019:0:0:0:70:L2#-.wav
475,192,171019,1,0,0:0:0:70:2#+.wav
192,192,171019,1,0,0:0:0:70:L1.wav
320,192,171019,128,0,172758:0:0:0:70:1++.wav
64,192,171454,1,0,0:0:0:70:L2#-.wav
192,192,171888,1,0,0:0:0:70:L2#.wav
448,192,171888,1,0,0:0:0:70:L6#-.wav
64,192,172323,1,0,0:0:0:70:L2#-.wav
192,192,172758,1,0,0:0:0:70:L5#-.wav
402,192,172975,1,0,0:0:0:70:5#+.wav
320,192,173193,1,0,0:0:0:70:6#+.wav
36,192,173193,1,0,0:0:0:70:L5#--.wav
192,192,173410,1,0,0:0:0:70:1++.wav
320,192,173627,1,0,0:0:0:70:6#+.wav
36,192,173627,1,0,0:0:0:70:L1-.wav
448,192,173627,128,0,174062:0:0:0:70:2#+.wav
192,192,174062,1,0,0:0:0:70:2#++.wav
320,192,174062,128,0,174497:0:0:0:70:L5-.wav
64,192,174497,1,0,0:0:0:70:2#++.wav
448,192,174497,1,0,0:0:0:70:2#+.wav
192,192,174497,128,0,176236:0:0:0:70:L2#.wav
320,192,174932,1,0,0:0:0:70:L5-.wav
320,192,175367,1,0,0:0:0:70:6#.wav
448,192,175367,1,0,0:0:0:70:2#+.wav
64,192,175367,1,0,0:0:0:70:L1.wav
320,192,175801,1,0,0:0:0:70:L5-.wav
64,192,176236,1,0,0:0:0:70:L2#.wav
448,192,176454,1,0,0:0:0:70:2#++.wav
320,192,176671,1,0,0:0:0:70:4++.wav
36,192,176671,1,0,0:0:0:70:L5-.wav
402,192,176889,1,0,0:0:0:70:5++.wav
320,192,177106,1,0,0:0:0:70:5+.wav
64,192,177106,1,0,0:0:0:70:L4--.wav
192,192,177106,128,0,177540:0:0:0:70:5++.wav
448,192,177540,1,0,0:0:0:70:5#++.wav
320,192,177540,1,0,0:0:0:70:5#+.wav
64,192,177540,128,0,177975:0:0:0:70:L1-.wav
448,192,177975,1,0,0:0:0:70:5#++.wav
192,192,177975,1,0,0:0:0:70:L5#-.wav
320,192,177975,128,0,179714:0:0:0:70:5#+.wav
64,192,178410,1,0,0:0:0:70:L1-.wav
192,192,178845,1,0,0:0:0:70:L5-.wav
192,192,179280,1,0,0:0:0:70:6#++.wav
448,192,179280,1,0,0:0:0:70:6#+.wav
36,192,179280,1,0,0:0:0:70:L1-.wav
64,192,179714,1,0,0:0:0:70:1+++.wav
475,192,179714,1,0,0:0:0:70:1++.wav
192,192,179714,1,0,0:0:0:70:L4-.wav
402,192,179986,1,0,0:0:0:70:6#+.wav
64,192,179986,1,0,0:0:0:70:6#++.wav
192,192,180149,1,0,0:0:0:70:L4--.wav
448,192,180312,1,0,0:0:0:70:5#++.wav
64,192,180312,1,0,0:0:0:70:5#+.wav
402,192,180584,1,0,0:0:0:70:1++.wav
192,192,180584,1,0,0:0:0:70:5+.wav
109,192,180584,1,0,0:0:0:70:L2#--.wav
329,192,180584,128,0,181019:0:0:0:70:5++.wav
36,192,181019,1,0,0:0:0:70:L1-.wav
320,192,181454,1,0,0:0:0:70:1++.wav
192,192,181454,128,0,181888:0:0:0:70:L2#-.wav
36,192,181888,1,0,0:0:0:70:L1.wav
475,192,181888,1,0,0:0:0:70:5+.wav
320,192,181888,128,0,182323:0:0:0:70:5++.wav
36,192,182323,1,0,0:0:0:70:L5.wav
475,192,182758,1,0,0:0:0:70:5#++.wav
64,192,182758,1,0,0:0:0:70:L1.wav
192,192,182758,128,0,183193:0:0:0:70:5#+.wav
475,192,183193,1,0,0:0:0:70:5+.wav
320,192,183193,1,0,0:0:0:70:5++.wav
36,192,183193,128,0,183627:0:0:0:70:L2#.wav
320,192,183627,128,0,184062:0:0:0:70:2#++.wav
192,192,183627,1,0,0:0:0:70:L2#-.wav
448,192,183627,1,0,0:0:0:70:2#+.wav
192,192,184062,1,0,0:0:0:70:2#++.wav
36,192,184062,1,0,0:0:0:70:L1#-.wav
448,192,184062,128,0,184497:0:0:0:70:2#+.wav
320,192,184497,1,0,0:0:0:70:4+.wav
36,192,184497,1,0,0:0:0:70:L5#--.wav
192,192,184497,128,0,184932:0:0:0:70:4++.wav
448,192,184932,1,0,0:0:0:70:4+.wav
36,192,184932,1,0,0:0:0:70:L2#.wav
320,192,184932,128,0,186671:0:0:0:70:4++.wav
192,192,185367,1,0,0:0:0:70:L5#-.wav
36,192,185801,1,0,0:0:0:70:L1#.wav
448,192,185801,1,0,0:0:0:70:L4.wav
192,192,186236,1,0,0:0:0:70:L5#-.wav
448,192,186671,1,0,0:0:0:70:L2#.wav
64,192,186888,1,0,0:0:0:70:2#+.wav
448,192,187106,1,0,0:0:0:70:2#++.wav
192,192,187106,1,0,0:0:0:70:L6#-.wav
320,192,187323,1,0,0:0:0:70:1#++.wav
448,192,187540,1,0,0:0:0:70:5#+.wav
109,192,187540,1,0,0:0:0:70:L1-.wav
320,192,187540,128,0,187975:0:0:0:70:1#++.wav
448,192,187975,1,0,0:0:0:70:2#++.wav
192,192,187975,128,0,188410:0:0:0:70:L5#-.wav
64,192,188410,1,0,0:0:0:70:L1.wav
448,192,188410,128,0,190149:0:0:0:70:2#++.wav
320,192,188410,1,0,0:0:0:70:5#+.wav
192,192,188845,1,0,0:0:0:70:L5#-.wav
320,192,189280,1,0,0:0:0:70:L2#.wav
64,192,189714,1,0,0:0:0:70:L5#-.wav
192,192,190149,1,0,0:0:0:70:L1.wav
320,192,190584,1,0,0:0:0:70:5#+.wav
64,192,190584,1,0,0:0:0:70:L5#-.wav
192,192,190801,1,0,0:0:0:70:6#+.wav
64,192,191019,1,0,0:0:0:70:1++.wav
475,192,191019,1,0,0:0:0:70:4+.wav
192,192,191019,128,0,191454:0:0:0:70:1#+.wav
36,192,191454,1,0,0:0:0:70:L4-.wav
320,192,191454,128,0,191888:0:0:0:70:1#++.wav
448,192,191888,1,0,0:0:0:70:L5#-.wav
320,192,192323,1,0,0:0:0:70:4+.wav
192,192,192323,128,0,192758:0:0:0:70:L6#--.wav
448,192,192758,1,0,0:0:0:70:5#+.wav
36,192,192758,1,0,0:0:0:70:L2#-.wav
320,192,192758,128,0,193193:0:0:0:70:1#+.wav
64,192,193193,1,0,0:0:0:70:L6#--.wav
448,192,193627,1,0,0:0:0:70:1#+.wav
192,192,193627,1,0,0:0:0:70:5.wav
329,192,193627,128,0,194062:0:0:0:70:5+.wav
64,192,193627,128,0,194062:0:0:0:70:L5-.wav
192,192,194062,1,0,0:0:0:70:L6#--.wav
64,192,194497,1,0,0:0:0:70:6.wav
320,192,194497,1,0,0:0:0:70:2+.wav
448,192,194497,128,0,194932:0:0:0:70:4#+.wav
192,192,194497,128,0,194932:0:0:0:70:6+.wav
36,192,194932,1,0,0:0:0:70:L3-.wav
448,192,195367,1,0,0:0:0:70:4#.wav
64,192,195367,1,0,0:0:0:70:2.wav
192,192,195367,128,0,195801:0:0:0:70:L6-.wav
320,192,195801,128,0,196236:0:0:0:70:6.wav
402,192,196236,1,0,0:0:0:70:3.wav
192,192,196236,1,0,0:0:0:70:5#.wav
64,192,196236,128,0,196671:0:0:0:70:L3-.wav
320,192,196671,1,0,0:0:0:70:3+.wav
192,192,197106,1,0,0:0:0:70:6+.wav
64,192,197540,1,0,0:0:0:70:7+.wav
320,192,197975,1,0,0:0:0:70:7+.wav
192,192,197975,128,0,198410:0:0:0:70:L6-.wav
320,192,198410,1,0,0:0:0:70:1#++.wav
64,192,198410,128,0,198845:0:0:0:70:L3.wav
320,192,198845,1,0,0:0:0:70:1#++.wav
192,192,198845,1,0,0:0:0:70:L7.wav
448,192,198845,128,0,200584:0:0:0:70:3+.wav
192,192,199280,1,0,0:0:0:70:L3.wav
320,192,199714,1,0,0:0:0:70:L6.wav
64,192,200149,1,0,0:0:0:70:L3.wav
192,192,200584,1,0,0:0:0:70:L1#+.wav
320,192,200801,1,0,0:0:0:70:6+.wav
192,192,201019,1,0,0:0:0:70:7+.wav
64,192,201236,1,0,0:0:0:70:1#++.wav
320,192,201454,1,0,0:0:0:70:3+.wav
192,192,201454,128,0,201888:0:0:0:70:L1#.wav
448,192,201454,128,0,201888:0:0:0:70:7+.wav
320,192,201888,1,0,0:0:0:70:3++.wav
36,192,201888,128,0,202323:0:0:0:70:L5#.wav
448,192,202323,1,0,0:0:0:70:7+.wav
192,192,202323,1,0,0:0:0:70:L3+.wav
320,192,202323,128,0,204062:0:0:0:70:3++.wav
64,192,202758,1,0,0:0:0:70:L5#.wav
448,192,203193,1,0,0:0:0:70:1#+.wav
64,192,203627,1,0,0:0:0:70:L5#.wav
448,192,204062,1,0,0:0:0:70:L3+.wav
192,192,204280,1,0,0:0:0:70:3++.wav
64,192,204497,1,0,0:0:0:70:4#++.wav
192,192,204714,1,0,0:0:0:70:5#++.wav
448,192,204932,1,0,0:0:0:70:5#++.wav
64,192,204932,128,0,205367:0:0:0:70:L5#.wav
320,192,204932,128,0,205367:0:0:0:70:7+.wav
192,192,205367,1,0,0:0:0:70:6++.wav
448,192,205367,128,0,205801:0:0:0:70:L1#.wav
329,192,205801,1,0,0:0:0:70:1#++.wav
36,192,205801,1,0,0:0:0:70:L6.wav
192,192,205801,128,0,207540:0:0:0:70:6++.wav
320,192,206236,1,0,0:0:0:70:L1#.wav
448,192,206671,1,0,0:0:0:70:L5#.wav
320,192,207106,1,0,0:0:0:70:7++.wav
64,192,207106,1,0,0:0:0:70:L1#.wav
402,192,207323,1,0,0:0:0:70:7++.wav
320,192,207540,1,0,0:0:0:70:1#+++.wav
64,192,207540,1,0,0:0:0:70:L4#.wav
448,192,207758,1,0,0:0:0:70:7++.wav
320,192,208084,1,0,0:0:0:70:6++.wav
448,192,208410,1,0,0:0:0:70:5#++.wav
192,192,208410,128,0,208845:0:0:0:70:L3-.wav
36,192,208845,128,0,209280:0:0:0:70:L1#.wav
402,192,209280,1,0,0:0:0:70:5#++.wav
192,192,209280,1,0,0:0:0:70:L3.wav
320,192,209280,128,0,209714:0:0:0:70:5#+.wav
36,192,209714,1,0,0:0:0:70:L1#.wav
320,192,210149,1,0,0:0:0:70:1#+.wav
192,192,210149,1,0,0:0:0:70:L3.wav
448,192,210584,1,0,0:0:0:70:6+.wav
192,192,210584,128,0,211019:0:0:0:70:L1#.wav
36,192,211019,1,0,0:0:0:70:L3.wav
402,192,211019,128,0,211454:0:0:0:70:5#+.wav
320,192,211454,1,0,0:0:0:70:3+.wav
64,192,211454,128,0,211888:0:0:0:70:L3-.wav
402,192,211888,1,0,0:0:0:70:3+.wav
192,192,211888,1,0,0:0:0:70:6.wav
320,192,211888,128,0,212323:0:0:0:70:L2--.wav
192,192,212323,1,0,0:0:0:70:4#+.wav
36,192,212323,128,0,212758:0:0:0:70:L6-.wav
320,192,212758,1,0,0:0:0:70:4#+.wav
192,192,212758,1,0,0:0:0:70:L3.wav
448,192,212758,128,0,214497:0:0:0:70:6.wav
64,192,213193,1,0,0:0:0:70:L6-.wav
192,192,213627,1,0,0:0:0:70:4#+.wav
320,192,213627,1,0,0:0:0:70:4#.wav
64,192,213627,1,0,0:0:0:70:L2.wav
192,192,214062,1,0,0:0:0:70:L6-.wav
320,192,214497,1,0,0:0:0:70:6.wav
36,192,214497,1,0,0:0:0:70:L3.wav
320,192,214932,1,0,0:0:0:70:3+.wav
36,192,214932,1,0,0:0:0:70:L2-.wav
192,192,215149,1,0,0:0:0:70:2+.wav
402,192,215366,1,0,0:0:0:70:2+.wav
192,192,215367,128,0,215801:0:0:0:70:7.wav
109,192,215367,128,0,215801:0:0:0:70:L1#--.wav
402,192,215801,1,0,0:0:0:70:3+.wav
320,192,215801,128,0,216236:0:0:0:70:L6--.wav
448,192,216236,1,0,0:0:0:70:7.wav
64,192,216236,1,0,0:0:0:70:L3.wav
192,192,216236,128,0,217975:0:0:0:70:3+.wav
320,192,216671,1,0,0:0:0:70:L6-.wav
402,192,217106,1,0,0:0:0:70:3+.wav
64,192,217106,1,0,0:0:0:70:L1#.wav
320,192,217106,1,0,0:0:0:70:6.wav
320,192,217540,1,0,0:0:0:70:L6-.wav
448,192,217975,1,0,0:0:0:70:L1#.wav
320,192,218193,1,0,0:0:0:70:3.wav
192,192,218410,1,0,0:0:0:70:6.wav
64,192,218627,1,0,0:0:0:70:7.wav
448,192,218845,1,0,0:0:0:70:1#+.wav
320,192,218845,128,0,219280:0:0:0:70:4#.wav
192,192,218845,128,0,219280:0:0:0:70:L6-.wav
64,192,219280,1,0,0:0:0:70:L4#-.wav
402,192,219280,128,0,219714:0:0:0:70:2+.wav
192,192,219714,1,0,0:0:0:70:L6-.wav
192,192,220149,128,0,220584:0:0:0:70:4#.wav
448,192,220584,1,0,0:0:0:70:4#.wav
64,192,220584,1,0,0:0:0:70:6.wav
329,192,220584,128,0,221019:0:0:0:70:2.wav
36,192,221019,1,0,0:0:0:70:L7--.wav
320,192,221454,1,0,0:0:0:70:2.wav
448,192,221454,1,0,0:0:0:70:L5#-.wav
192,192,221454,128,0,221888:0:0:0:70:5#.wav
64,192,222323,1,0,0:0:0:70:L6--.wav
320,192,222323,128,0,222758:0:0:0:70:6.wav
448,192,222758,128,0,223193:0:0:0:70:L3-.wav
36,192,223193,128,0,223627:0:0:0:70:7-.wav
192,192,223627,128,0,224062:0:0:0:70:L2.wav
448,192,224062,1,0,0:0:0:70:L1#.wav
320,192,224062,128,0,224497:0:0:0:70:L6-.wav
64,192,224932,1,0,0:0:0:70:7+.wav
192,192,225367,1,0,0:0:0:70:1#++.wav
402,192,225801,1,0,0:0:0:70:1#++.wav
64,192,225801,1,0,0:0:0:70:L7-.wav
320,192,225801,1,0,0:0:0:70:L6.wav
192,192,225801,128,0,226236:0:0:0:70:4#+.wav
320,192,226236,1,0,0:0:0:70:L4#.wav
402,192,226236,128,0,226671:0:0:0:70:2++.wav
36,192,226671,1,0,0:0:0:70:L6.wav
192,192,227323,128,0,227758:0:0:0:70:4#+.wav
402,192,227758,1,0,0:0:0:70:6+.wav
64,192,227758,1,0,0:0:0:70:L3.wav
329,192,227758,128,0,228193:0:0:0:70:4#+.wav
192,192,228845,128,0,229280:0:0:0:70:5#+.wav
320,192,229932,1,0,0:0:0:70:6+.wav
448,192,229932,1,0,0:0:0:70:L6--.wav
192,192,229932,128,0,230367:0:0:0:70:7.wav
64,192,230367,128,0,230801:0:0:0:70:L3-.wav
320,192,230801,128,0,231236:0:0:0:70:L7-.wav
64,192,231236,128,0,231671:0:0:0:70:L3-.wav
109,192,232323,128,0,233736:0:0:0:70:L6--.wav
192,192,232323,128,0,233845:0:0:0:70:L6-.wav
329,192,232323,128,0,233954:0:0:0:70:6.wav
402,192,232323,128,0,234062:0:0:0:70:1#.wav
64,192,234280,1,4,0:0:0:0:
448,192,234280,1,4,0:0:0:0:
