osu file format v13

[General]
AudioFilename: kiss the of rain1.mp3
AudioLeadIn: 0
PreviewTime: 489
Countdown: 0
SampleSet: Normal
StackLeniency: 0.7
Mode: 3
LetterboxInBreaks: 0
SpecialStyle: 0
WidescreenStoryboard: 1

[Editor]
DistanceSpacing: 0.5
BeatDivisor: 4
GridSize: 4
TimelineZoom: 1

[Metadata]
Title:Kiss the Rain
TitleUnicode:Kiss the Rain
Artist:Yiruma
ArtistUnicode:Yiruma
Creator:KawaEE
Version:4K EASY
Source:
Tags:
BeatmapID:519873
BeatmapSetID:222376

[Difficulty]
HPDrainRate:5
CircleSize:4
OverallDifficulty:5
ApproachRate:5
SliderMultiplier:1.4
SliderTickRate:1

[Events]
//Background and Video events
0,0,"BG.png",0,0
//Break Periods
//Storyboard Layer 0 (Background)
//Storyboard Layer 1 (Fail)
//Storyboard Layer 2 (Pass)
//Storyboard Layer 3 (Foreground)
//Storyboard Sound Samples
//Background Colour Transformations
3,100,163,162,255

[TimingPoints]
3193,434.782608695652,4,1,1,100,1,0
86671,-100,4,1,1,100,0,1
138845,-100,4,1,1,100,0,0
170149,-100,4,1,1,100,0,1
222323,-100,4,1,1,100,0,0

[HitObjects]
64,192,3193,5,0,0:0:0:100:L5#-.wav
192,192,3627,1,0,0:0:0:100:L2#.wav
320,192,4062,1,0,0:0:0:100:L6#.wav
448,192,4497,1,0,0:0:0:100:L2#.wav
320,192,4932,1,0,0:0:0:100:L5#.wav
448,192,6671,1,0,0:0:0:100:L1.wav
320,192,7106,1,0,0:0:0:100:L5.wav
192,192,7540,1,0,0:0:0:100:L2#+.wav
36,192,7975,1,0,0:0:0:100:L5.wav
192,192,8410,1,0,0:0:0:100:L1+.wav
64,192,10149,1,0,0:0:0:100:L4.wav
192,192,10584,1,0,0:0:0:100:L1+.wav
320,192,11019,1,0,0:0:0:100:L5+.wav
192,192,11454,1,0,0:0:0:100:L1+.wav
448,192,11888,1,0,0:0:0:100:L5#+.wav
448,192,13627,1,0,0:0:0:100:L2#.wav
320,192,14062,1,0,0:0:0:100:L1+.wav
192,192,14497,1,0,0:0:0:100:L2#+.wav
320,192,14932,1,0,0:0:0:100:L1+.wav
36,192,15367,1,0,0:0:0:100:L2#+.wav
36,192,17106,1,0,0:0:0:100:L1#.wav
448,192,17540,1,0,0:0:0:100:L5#.wav
192,192,17975,1,0,0:0:0:100:L2#+.wav
320,192,18410,1,0,0:0:0:100:L5#.wav
64,192,18845,1,0,0:0:0:100:1#+.wav
448,192,20584,1,0,0:0:0:100:L1.wav
36,192,21019,1,0,0:0:0:100:L5#.wav
320,192,21454,1,0,0:0:0:100:L1+.wav
192,192,21888,1,0,0:0:0:100:L5#.wav
448,192,22323,1,0,0:0:0:100:L1#+.wav
320,192,24062,1,0,0:0:0:100:L6#-.wav
192,192,24497,1,0,0:0:0:100:L4.wav
320,192,24932,1,0,0:0:0:100:L1#+.wav
36,192,25367,1,0,0:0:0:100:L4.wav
448,192,25801,1,0,0:0:0:100:L5#.wav
192,192,27540,1,0,0:0:0:100:L2#-.wav
320,192,27975,1,0,0:0:0:100:L6#-.wav
192,192,28410,1,0,0:0:0:100:L5#.wav
448,192,28845,1,0,0:0:0:100:L6#-.wav
36,192,29280,1,0,0:0:0:100:L5.wav
192,192,31019,1,0,0:0:0:100:L5#--.wav
320,192,31454,1,0,0:0:0:100:L2#-.wav
192,192,31888,1,0,0:0:0:100:L1.wav
320,192,32323,1,0,0:0:0:100:L2#-.wav
64,192,32758,1,0,0:0:0:100:L6#-.wav
448,192,33193,1,0,0:0:0:100:L2#-.wav
36,192,33627,1,0,0:0:0:100:L5#-.wav
448,192,34062,1,0,0:0:0:100:L2#-.wav
192,192,34497,1,0,0:0:0:100:L1-.wav
320,192,34932,1,0,0:0:0:100:L5-.wav
192,192,35367,1,0,0:0:0:100:L2#.wav
320,192,35801,1,0,0:0:0:100:L5-.wav
36,192,36236,1,0,0:0:0:100:L1.wav
448,192,36671,1,0,0:0:0:100:L5-.wav
192,192,37106,1,0,0:0:0:100:L2#.wav
109,192,37975,1,0,0:0:0:100:L4-.wav
320,192,38410,1,0,0:0:0:100:L1-.wav
64,192,38845,1,0,0:0:0:100:L5#-.wav
448,192,39280,1,0,0:0:0:100:L1-.wav
192,192,39714,1,0,0:0:0:100:L5-.wav
448,192,40149,1,0,0:0:0:100:L1-.wav
36,192,40584,1,0,0:0:0:100:L4-.wav
320,192,41019,1,0,0:0:0:100:L1-.wav
36,192,41454,1,0,0:0:0:100:L2#-.wav
448,192,41888,1,0,0:0:0:100:L1-.wav
192,192,42323,1,0,0:0:0:100:L5-.wav
448,192,42758,1,0,0:0:0:100:L1-.wav
64,192,43193,1,0,0:0:0:100:L2#-.wav
36,192,44932,1,0,0:0:0:100:L1#-.wav
448,192,45367,1,0,0:0:0:100:L5#-.wav
192,192,45801,1,0,0:0:0:100:L1#.wav
64,192,46236,1,0,0:0:0:100:L5#-.wav
320,192,46671,1,0,0:0:0:100:L4.wav
192,192,47106,1,0,0:0:0:100:L5#-.wav
448,192,47540,1,0,0:0:0:100:L1#.wav
64,192,47975,1,0,0:0:0:100:L5#-.wav
192,192,48410,1,0,0:0:0:100:L1.wav
448,192,48845,1,0,0:0:0:100:L5#-.wav
192,192,49280,1,0,0:0:0:100:L2#.wav
320,192,49714,1,0,0:0:0:100:L5#-.wav
64,192,50149,1,0,0:0:0:100:L1.wav
448,192,50584,1,0,0:0:0:100:L5#-.wav
320,192,51019,1,0,0:0:0:100:L2#.wav
192,192,51888,1,0,0:0:0:100:L5#-.wav
320,192,52323,1,0,0:0:0:100:L4-.wav
448,192,52758,1,0,0:0:0:100:L5#-.wav
64,192,53627,1,0,0:0:0:100:L2#-.wav
192,192,54062,1,0,0:0:0:100:L6#-.wav
320,192,54497,1,0,0:0:0:100:L2#.wav
64,192,55367,1,0,0:0:0:100:L5#-.wav
448,192,55801,1,0,0:0:0:100:L2#.wav
320,192,56236,1,0,0:0:0:35:6#.wav
448,192,56671,1,0,0:0:0:35:1#+.wav
64,192,57106,1,0,0:0:0:70:1+.wav
192,192,57106,1,0,0:0:0:100:L5#-.wav
64,192,58845,1,0,0:0:0:100:L1#-.wav
192,192,59280,1,0,0:0:0:100:L5#-.wav
320,192,59714,1,0,0:0:0:100:L2#.wav
448,192,60149,1,0,0:0:0:100:L5#-.wav
36,192,60584,1,0,0:0:0:100:L1#.wav
192,192,61019,1,0,0:0:0:100:L5#-.wav
320,192,61454,1,0,0:0:0:100:L2#.wav
448,192,61888,1,0,0:0:0:100:L5#-.wav
36,192,62323,1,0,0:0:0:100:L1-.wav
192,192,62758,1,0,0:0:0:100:L5#-.wav
320,192,63193,1,0,0:0:0:100:L1.wav
448,192,63627,1,0,0:0:0:100:L5#-.wav
36,192,64062,1,0,0:0:0:100:L1.wav
192,192,64497,1,0,0:0:0:100:L5#-.wav
320,192,64932,1,0,0:0:0:100:L1.wav
448,192,65367,1,0,0:0:0:100:L1-.wav
36,192,65801,1,0,0:0:0:100:L5#-.wav
192,192,66236,1,0,0:0:0:100:L4-.wav
320,192,66671,1,0,0:0:0:100:L5#-.wav
448,192,67106,1,0,0:0:0:100:L6#--.wav
320,192,67540,1,0,0:0:0:100:L2#-.wav
192,192,67975,1,0,0:0:0:100:L6#-.wav
64,192,68410,1,0,0:0:0:100:L2#.wav
448,192,69280,1,0,0:0:0:100:L6#-.wav
320,192,69714,1,0,0:0:0:100:L2#-.wav
192,192,70149,1,0,0:0:0:100:L6#-.wav
36,192,70584,1,0,0:0:0:100:L2#-.wav
448,192,71019,1,0,0:0:0:100:L5#-.wav
320,192,71454,1,0,0:0:0:100:L2#-.wav
192,192,71888,1,0,0:0:0:100:L6#-.wav
36,192,72323,1,0,0:0:0:100:L5#--.wav
448,192,72758,1,0,0:0:0:100:L2--.wav
320,192,73193,1,0,0:0:0:100:L2-.wav
192,192,73627,1,0,0:0:0:100:L5#-.wav
36,192,74062,1,0,0:0:0:100:L1.wav
448,192,74497,1,0,0:0:0:100:L5--.wav
320,192,74932,1,0,0:0:0:100:L2-.wav
192,192,75367,1,0,0:0:0:100:L7-.wav
36,192,75801,1,0,0:0:0:100:L2-.wav
192,192,76236,1,0,0:0:0:100:L1-.wav
320,192,76671,1,0,0:0:0:100:L5-.wav
448,192,77106,1,0,0:0:0:100:L2#.wav
192,192,77975,1,0,0:0:0:100:L4-.wav
320,192,78410,1,0,0:0:0:100:L1.wav
192,192,78845,1,0,0:0:0:100:L4.wav
36,192,79714,1,0,0:0:0:100:L6#--.wav
192,192,80149,1,0,0:0:0:100:L4-.wav
320,192,80584,1,0,0:0:0:100:L6#-.wav
448,192,81019,1,0,0:0:0:100:L4-.wav
320,192,81454,1,0,0:0:0:100:L1#.wav
192,192,81888,1,0,0:0:0:100:L4-.wav
64,192,82323,1,0,0:0:0:100:L5#-.wav
192,192,82758,1,0,0:0:0:100:L6#--.wav
320,192,83193,1,0,0:0:0:100:L2#--.wav
192,192,83627,1,0,0:0:0:100:L6#--.wav
320,192,84062,1,0,0:0:0:100:L5#-.wav
192,192,84497,1,0,0:0:0:100:L6#--.wav
320,192,84932,1,0,0:0:0:100:L5-.wav
64,192,86671,1,0,0:0:0:100:L5#--.wav
36,192,87106,1,0,0:0:0:100:L2#-.wav
192,192,87540,1,0,0:0:0:100:L1.wav
192,192,87975,1,0,0:0:0:100:L2#-.wav
320,192,88410,1,0,0:0:0:100:L6#-.wav
320,192,88845,1,0,0:0:0:100:L2#-.wav
448,192,89280,1,0,0:0:0:100:L5#-.wav
448,192,89714,1,0,0:0:0:100:L2#-.wav
320,192,90149,1,0,0:0:0:100:L1--.wav
320,192,90584,1,0,0:0:0:100:L5-.wav
192,192,91019,1,0,0:0:0:100:L2#.wav
192,192,91454,1,0,0:0:0:100:L5-.wav
64,192,91888,1,0,0:0:0:100:L1.wav
64,192,92323,1,0,0:0:0:100:L5-.wav
192,192,92758,1,0,0:0:0:100:L2#.wav
192,192,93193,1,0,0:0:0:100:L5-.wav
320,192,93627,1,0,0:0:0:100:L4--.wav
320,192,94062,1,0,0:0:0:100:L1-.wav
448,192,94497,1,0,0:0:0:100:L5#-.wav
448,192,94932,1,0,0:0:0:100:L1-.wav
36,192,95367,1,0,0:0:0:100:L4-.wav
320,192,95801,1,0,0:0:0:100:L1-.wav
36,192,96236,1,0,0:0:0:100:L5#-.wav
320,192,96671,1,0,0:0:0:100:L1-.wav
192,192,97106,1,0,0:0:0:100:L2#--.wav
448,192,97540,1,0,0:0:0:100:L1-.wav
192,192,97975,1,0,0:0:0:100:L2#-.wav
448,192,98410,1,0,0:0:0:100:L1.wav
320,192,99280,1,0,0:0:0:100:L1.wav
36,192,99714,1,0,0:0:0:100:L2#.wav
320,192,100149,1,0,0:0:0:100:L2#-.wav
192,192,100584,1,0,0:0:0:100:L1#.wav
448,192,101019,1,0,0:0:0:100:L5#--.wav
192,192,101454,1,0,0:0:0:100:L2#.wav
448,192,101888,1,0,0:0:0:100:L5#-.wav
320,192,102323,1,0,0:0:0:100:L1#.wav
64,192,102758,1,0,0:0:0:100:L5#-.wav
320,192,103193,1,0,0:0:0:100:L2#.wav
36,192,103627,1,0,0:0:0:100:L5#-.wav
448,192,104062,1,0,0:0:0:100:L1-.wav
448,192,104497,1,0,0:0:0:100:L5#-.wav
192,192,104932,1,0,0:0:0:100:L1.wav
192,192,105367,1,0,0:0:0:100:L5#-.wav
320,192,105801,1,0,0:0:0:100:L2#.wav
320,192,106236,1,0,0:0:0:100:L5#-.wav
36,192,106671,1,0,0:0:0:100:L1.wav
36,192,107106,1,0,0:0:0:100:L5#-.wav
320,192,107540,1,0,0:0:0:100:L6#--.wav
320,192,107975,1,0,0:0:0:100:L4-.wav
192,192,108410,1,0,0:0:0:100:L5#-.wav
192,192,108845,1,0,0:0:0:100:L4-.wav
448,192,109280,1,0,0:0:0:100:L1#.wav
448,192,109714,1,0,0:0:0:100:L4-.wav
36,192,110149,1,0,0:0:0:100:L5#-.wav
36,192,110584,1,0,0:0:0:100:L6#--.wav
320,192,111019,1,0,0:0:0:100:L2#--.wav
320,192,111454,1,0,0:0:0:100:L6#--.wav
192,192,111888,1,0,0:0:0:100:L1#.wav
192,192,112323,1,0,0:0:0:100:L5#-.wav
64,192,112758,1,0,0:0:0:100:L2#-.wav
320,192,113193,1,0,0:0:0:100:L6#-.wav
36,192,113627,1,0,0:0:0:100:L5.wav
192,192,114062,1,0,0:0:0:100:L2#.wav
448,192,114497,1,0,0:0:0:100:L6#-.wav
192,192,114932,1,0,0:0:0:100:L2#-.wav
448,192,115367,1,0,0:0:0:100:L1.wav
192,192,115801,1,0,0:0:0:100:L2#-.wav
448,192,116236,1,0,0:0:0:100:L6#-.wav
320,192,116671,1,0,0:0:0:100:L2#-.wav
64,192,117106,1,0,0:0:0:100:L5#-.wav
320,192,117540,1,0,0:0:0:100:L2#-.wav
64,192,117975,1,0,0:0:0:100:L1.wav
320,192,118410,1,0,0:0:0:100:L5-.wav
36,192,118845,1,0,0:0:0:100:L2#.wav
192,192,119280,1,0,0:0:0:100:L5-.wav
448,192,119714,1,0,0:0:0:100:L2#.wav
192,192,120149,1,0,0:0:0:100:L5-.wav
448,192,120584,1,0,0:0:0:100:L2#.wav
192,192,121019,1,0,0:0:0:100:L5-.wav
448,192,121454,1,0,0:0:0:100:L4-.wav
36,192,121888,1,0,0:0:0:100:L1-.wav
448,192,122323,1,0,0:0:0:100:L5#-.wav
36,192,122758,1,0,0:0:0:100:L1-.wav
320,192,123193,1,0,0:0:0:100:L4.wav
192,192,123627,1,0,0:0:0:100:L1-.wav
320,192,124062,1,0,0:0:0:100:L4-.wav
192,192,124497,1,0,0:0:0:100:L1-.wav
448,192,124932,1,0,0:0:0:100:L2#--.wav
36,192,125367,1,0,0:0:0:100:L1-.wav
448,192,125801,1,0,0:0:0:100:L5-.wav
36,192,126236,1,0,0:0:0:100:L1-.wav
320,192,126671,1,0,0:0:0:100:L2#.wav
192,192,127106,1,0,0:0:0:100:L1-.wav
320,192,127540,1,0,0:0:0:100:L5-.wav
192,192,127975,1,0,0:0:0:100:L2#-.wav
448,192,128410,1,0,0:0:0:100:L1#-.wav
36,192,128845,1,0,0:0:0:100:L5#-.wav
448,192,129280,1,0,0:0:0:100:L2#.wav
36,192,129714,1,0,0:0:0:100:L5#-.wav
448,192,130149,1,0,0:0:0:100:L1#.wav
320,192,130584,1,0,0:0:0:100:L5#-.wav
192,192,131019,1,0,0:0:0:100:L2#.wav
36,192,131454,1,0,0:0:0:100:L5#-.wav
109,192,131888,1,0,0:0:0:100:L1.wav
192,192,132323,1,0,0:0:0:100:L5#-.wav
320,192,132758,1,0,0:0:0:100:L1.wav
448,192,133193,1,0,0:0:0:100:L5#-.wav
448,192,133627,1,0,0:0:0:100:L2#.wav
320,192,134062,1,0,0:0:0:100:L5#-.wav
192,192,134497,1,0,0:0:0:100:L1.wav
36,192,134932,1,0,0:0:0:100:L5#-.wav
109,192,135367,1,0,0:0:0:100:L6#--.wav
192,192,135801,1,0,0:0:0:100:L4-.wav
320,192,136236,1,0,0:0:0:100:L5#-.wav
36,192,137106,1,0,0:0:0:100:L2#-.wav
192,192,137540,1,0,0:0:0:100:L6#-.wav
320,192,137975,1,0,0:0:0:100:L2#.wav
64,192,138845,1,0,0:0:0:100:L5#-.wav
192,192,139280,1,0,0:0:0:100:L2#.wav
448,192,139714,1,0,0:0:0:35:6#.wav
64,192,140149,1,0,0:0:0:35:1#+.wav
448,192,140584,1,0,0:0:0:70:1+.wav
192,192,140584,1,0,0:0:0:100:L2#.wav
36,192,142323,1,0,0:0:0:100:L1#-.wav
448,192,142758,1,0,0:0:0:100:L5#-.wav
36,192,143193,1,0,0:0:0:100:L2#.wav
448,192,143627,1,0,0:0:0:100:L5#-.wav
36,192,144062,1,0,0:0:0:100:L1#.wav
448,192,144497,1,0,0:0:0:100:L5#-.wav
36,192,144932,1,0,0:0:0:100:L2#.wav
448,192,145367,1,0,0:0:0:100:L5#-.wav
192,192,145801,1,0,0:0:0:100:L1-.wav
320,192,146236,1,0,0:0:0:100:L5#-.wav
192,192,146671,1,0,0:0:0:100:L1.wav
320,192,147106,1,0,0:0:0:100:L5#-.wav
192,192,147540,1,0,0:0:0:100:L1.wav
320,192,147975,1,0,0:0:0:100:L5#-.wav
192,192,148410,1,0,0:0:0:100:L1.wav
320,192,148845,1,0,0:0:0:100:L1-.wav
36,192,149280,1,0,0:0:0:100:L5#-.wav
448,192,149714,1,0,0:0:0:100:L4-.wav
192,192,150149,1,0,0:0:0:100:L5#-.wav
320,192,150584,1,0,0:0:0:100:L4-.wav
36,192,151019,1,0,0:0:0:100:L2#-.wav
448,192,151454,1,0,0:0:0:100:L6#-.wav
192,192,151888,1,0,0:0:0:100:L4.wav
448,192,152758,1,0,0:0:0:100:L5#--.wav
320,192,153193,1,0,0:0:0:100:L2#-.wav
192,192,153627,1,0,0:0:0:100:L6#-.wav
36,192,154062,1,0,0:0:0:100:L2#-.wav
448,192,154497,1,0,0:0:0:100:L5#-.wav
320,192,154932,1,0,0:0:0:100:L2#-.wav
192,192,155367,1,0,0:0:0:100:L6#-.wav
64,192,155801,1,0,0:0:0:100:L5#--.wav
320,192,156236,1,0,0:0:0:100:L2--.wav
320,192,156671,1,0,0:0:0:100:L2-.wav
448,192,157106,1,0,0:0:0:100:L5#-.wav
448,192,157540,1,0,0:0:0:100:L1.wav
320,192,157975,1,0,0:0:0:100:L5--.wav
320,192,158410,1,0,0:0:0:100:L2-.wav
192,192,158845,1,0,0:0:0:100:L7-.wav
192,192,159280,1,0,0:0:0:100:L2-.wav
36,192,159714,1,0,0:0:0:100:L1-.wav
36,192,160149,1,0,0:0:0:100:L5-.wav
64,192,160584,1,0,0:0:0:100:L2#.wav
448,192,161454,1,0,0:0:0:100:L4-.wav
448,192,161888,1,0,0:0:0:100:L1.wav
448,192,162323,1,0,0:0:0:100:L4.wav
192,192,163193,1,0,0:0:0:100:L5#-.wav
320,192,163627,1,0,0:0:0:100:L4-.wav
36,192,164062,1,0,0:0:0:100:L6#-.wav
448,192,164497,1,0,0:0:0:100:L4-.wav
192,192,164932,1,0,0:0:0:100:L1#.wav
320,192,165367,1,0,0:0:0:100:L4-.wav
36,192,165801,1,0,0:0:0:100:L5#-.wav
448,192,166236,1,0,0:0:0:100:L6#--.wav
192,192,166671,1,0,0:0:0:100:L2#--.wav
320,192,167106,1,0,0:0:0:100:L6#--.wav
36,192,167540,1,0,0:0:0:100:L1#.wav
448,192,167540,1,0,0:0:0:100:L5#-.wav
192,192,168410,1,0,0:0:0:100:L2#-.wav
320,192,168845,1,0,0:0:0:100:L6#-.wav
448,192,169280,1,0,0:0:0:100:L5.wav
320,192,169714,1,0,0:0:0:100:L6#-.wav
192,192,170149,1,0,0:0:0:100:L5#--.wav
320,192,170584,1,0,0:0:0:100:L2#-.wav
448,192,171019,1,0,0:0:0:100:L1.wav
320,192,171454,1,0,0:0:0:100:L2#-.wav
192,192,171888,1,0,0:0:0:100:L6#-.wav
36,192,172323,1,0,0:0:0:100:L2#-.wav
192,192,172758,1,0,0:0:0:100:L5#-.wav
320,192,173193,1,0,0:0:0:100:L5#--.wav
448,192,173627,1,0,0:0:0:100:L1-.wav
320,192,174062,1,0,0:0:0:100:L5-.wav
192,192,174497,1,0,0:0:0:100:L2#.wav
64,192,174932,1,0,0:0:0:100:L5-.wav
192,192,175367,1,0,0:0:0:100:L1.wav
320,192,175801,1,0,0:0:0:100:L5-.wav
192,192,176236,1,0,0:0:0:100:L2#.wav
36,192,176671,1,0,0:0:0:100:L5-.wav
448,192,177106,1,0,0:0:0:100:L4-.wav
320,192,177106,1,0,0:0:0:100:L4--.wav
64,192,177540,128,0,177975:0:0:0:100:L1-.wav
192,192,177975,128,0,178410:0:0:0:100:L5#-.wav
320,192,178410,128,0,178845:0:0:0:100:L1-.wav
448,192,178845,128,0,179280:0:0:0:100:L5-.wav
64,192,179280,128,0,179714:0:0:0:100:L1-.wav
192,192,179714,128,0,180149:0:0:0:100:L4-.wav
320,192,180149,128,0,180584:0:0:0:100:L4--.wav
448,192,180584,128,0,181019:0:0:0:100:L2#--.wav
64,192,181019,128,0,181454:0:0:0:100:L1-.wav
448,192,181454,128,0,181888:0:0:0:100:L2#-.wav
64,192,181888,128,0,182323:0:0:0:100:L1.wav
448,192,182323,128,0,182758:0:0:0:100:L5.wav
64,192,182758,1,0,0:0:0:100:L1.wav
192,192,183193,1,0,0:0:0:100:L2#.wav
320,192,183627,1,0,0:0:0:100:L2#-.wav
192,192,184062,1,0,0:0:0:100:L1#--.wav
36,192,184497,1,0,0:0:0:100:L5#--.wav
192,192,184932,1,0,0:0:0:100:L2#.wav
320,192,185367,1,0,0:0:0:100:L5#-.wav
448,192,185801,1,0,0:0:0:100:L4.wav
320,192,186236,1,0,0:0:0:100:L5#-.wav
192,192,186671,1,0,0:0:0:100:L2#.wav
36,192,187106,1,0,0:0:0:100:L6#-.wav
192,192,187540,1,0,0:0:0:100:L1.wav
320,192,187975,1,0,0:0:0:100:L5#-.wav
192,192,188410,1,0,0:0:0:100:L1.wav
36,192,188845,1,0,0:0:0:100:L5#-.wav
192,192,189280,1,0,0:0:0:100:L2#.wav
320,192,189714,1,0,0:0:0:100:L5#-.wav
448,192,190149,1,0,0:0:0:100:L1.wav
320,192,190584,1,0,0:0:0:100:L5#-.wav
448,192,191019,1,0,0:0:0:100:L6#--.wav
64,192,191454,1,0,0:0:0:100:L4-.wav
448,192,191888,128,0,192323:0:0:0:100:L5#-.wav
320,192,192323,128,0,192758:0:0:0:100:L6#--.wav
192,192,192758,128,0,193193:0:0:0:100:L2#-.wav
36,192,193193,128,0,193627:0:0:0:100:L6#--.wav
448,192,193627,128,0,194062:0:0:0:100:L5-.wav
320,192,194062,128,0,194497:0:0:0:100:L6#--.wav
192,192,194497,128,0,194932:0:0:0:100:L3--.wav
36,192,194932,128,0,195367:0:0:0:100:L3-.wav
448,192,195367,128,0,195801:0:0:0:100:L6-.wav
64,192,195801,128,0,196236:0:0:0:35:6.wav
448,192,196236,128,0,196671:0:0:0:35:5#.wav
320,192,197975,1,0,0:0:0:100:L6-.wav
192,192,198410,1,0,0:0:0:100:L3.wav
64,192,198845,1,0,0:0:0:100:L7.wav
448,192,199280,1,0,0:0:0:100:L3.wav
320,192,199714,1,0,0:0:0:100:L6.wav
192,192,200149,1,0,0:0:0:100:L3.wav
64,192,200584,1,0,0:0:0:100:L1#+.wav
192,192,201454,1,0,0:0:0:100:L1#.wav
448,192,201888,1,0,0:0:0:100:L5#.wav
64,192,202323,1,0,0:0:0:100:L3+.wav
320,192,202758,1,0,0:0:0:100:L5#.wav
64,192,203193,1,0,0:0:0:100:1#+.wav
448,192,203627,1,0,0:0:0:100:L5#.wav
192,192,204062,1,0,0:0:0:100:L3+.wav
320,192,204932,1,0,0:0:0:100:L5#.wav
36,192,205367,1,0,0:0:0:100:L1#.wav
448,192,205801,1,0,0:0:0:100:L6.wav
192,192,206236,1,0,0:0:0:100:L1#.wav
448,192,206671,1,0,0:0:0:100:L5#.wav
64,192,207106,1,0,0:0:0:100:L1#.wav
320,192,207540,1,0,0:0:0:100:L4#.wav
36,192,208410,1,0,0:0:0:100:L3-.wav
192,192,208845,1,0,0:0:0:100:L1#.wav
320,192,209280,1,0,0:0:0:100:L3.wav
448,192,209714,1,0,0:0:0:100:L1#.wav
448,192,210149,1,0,0:0:0:100:L3.wav
320,192,210584,1,0,0:0:0:100:L1#.wav
192,192,211019,1,0,0:0:0:100:L3.wav
64,192,211454,1,0,0:0:0:100:L3-.wav
64,192,211888,1,0,0:0:0:100:L2-.wav
192,192,212323,1,0,0:0:0:100:L6-.wav
320,192,212758,1,0,0:0:0:100:L3.wav
448,192,213193,1,0,0:0:0:100:L6-.wav
448,192,213627,1,0,0:0:0:100:L2.wav
320,192,214062,1,0,0:0:0:100:L6-.wav
192,192,214497,1,0,0:0:0:100:L3.wav
36,192,214932,1,0,0:0:0:100:L2-.wav
64,192,215367,1,0,0:0:0:100:L1#--.wav
448,192,215801,1,0,0:0:0:100:L6--.wav
448,192,216236,1,0,0:0:0:100:L3.wav
64,192,216671,1,0,0:0:0:100:L6-.wav
64,192,217106,1,0,0:0:0:100:L1#.wav
448,192,217540,1,0,0:0:0:100:L6-.wav
448,192,217975,1,0,0:0:0:100:L1#.wav
36,192,218845,1,0,0:0:0:100:L7--.wav
448,192,219280,1,0,0:0:0:100:L4#-.wav
192,192,219714,1,0,0:0:0:100:L6-.wav
36,192,220584,1,0,0:0:0:100:L3--.wav
448,192,221019,1,0,0:0:0:100:L7--.wav
192,192,221454,1,0,0:0:0:100:L5#-.wav
448,192,222323,128,0,222758:0:0:0:100:L6--.wav
320,192,222758,128,0,223193:0:0:0:100:L3-.wav
192,192,223193,128,0,223627:0:0:0:100:7-.wav
36,192,223627,128,0,224062:0:0:0:100:L2.wav
448,192,224062,1,0,0:0:0:100:L1#.wav
192,192,225801,1,0,0:0:0:100:L7-.wav
320,192,226236,1,0,0:0:0:100:L4#.wav
448,192,226671,1,0,0:0:0:100:L6.wav
448,192,227758,128,0,228193:0:0:0:35:6+.wav
64,192,227758,128,0,228193:0:0:0:100:L3.wav
192,192,228845,1,0,0:0:0:35:5#+.wav
36,192,229932,128,0,230367:0:0:0:100:L6--.wav
192,192,230367,128,0,230801:0:0:0:100:L3-.wav
320,192,230801,128,0,231236:0:0:0:100:L7-.wav
448,192,231236,128,0,231671:0:0:0:100:L3-.wav
192,192,232323,128,0,234280:0:0:0:100:L6--.wav
320,192,232323,128,0,234280:0:0:0:100:L6-.wav
109,192,234280,1,4,0:0:0:100:
448,192,234280,1,4,0:0:0:100:
