osu file format v13

[General]
AudioFilename: River Flows In You (A Love Note).mp3
AudioLeadIn: 0
PreviewTime: 54000
Countdown: 1
SampleSet: Soft
StackLeniency: 0.7
Mode: 0
LetterboxInBreaks: 1
WidescreenStoryboard: 1

[Editor]
Bookmarks: 131142
DistanceSpacing: 0.8
BeatDivisor: 4
GridSize: 8
TimelineZoom: 1

[Metadata]
Title:River Flows In You(A Love Note)
TitleUnicode:River Flows In You(A Love Note)
Artist:Yiruma & Skullee
ArtistUnicode:Yiruma & Skullee
Creator:jjm1487
Version:I Love You
Source:
Tags:
BeatmapID:533014
BeatmapSetID:228989

[Difficulty]
HPDrainRate:6
CircleSize:4
OverallDifficulty:7
ApproachRate:9
SliderMultiplier:2.1
SliderTickRate:1

[Events]
//Background and Video events
//Break Periods
2,3200,6150
2,10056,13007
2,82485,85114
//Storyboard Layer 0 (Background)
//Storyboard Layer 1 (Fail)
//Storyboard Layer 2 (Pass)
//Storyboard Layer 3 (Foreground)
//Storyboard Sound Samples
//Background Colour Transformations
3,100,163,162,255

[TimingPoints]
0,428.571428571429,4,2,0,100,1,0
0,-200,4,2,0,5,0,0
8571,-100,4,2,0,5,0,0
9857,-200,4,2,0,5,0,0
44571,-133.333333333333,4,2,0,5,0,0
54857,-66.6666666666667,4,2,0,50,0,1
82285,-133.333333333333,4,2,0,5,0,0
112285,-133.333333333333,4,2,0,20,0,0
113142,-66.6666666666667,4,2,0,15,0,1
140464,-133.333333333333,4,2,0,30,0,0

[HitObjects]
256,72,0,5,0,0:0:0:0:
400,192,428,1,0,0:0:0:0:
256,320,857,1,0,0:0:0:0:
128,192,1285,1,0,0:0:0:0:
400,72,1714,1,0,0:0:0:0:
400,320,2142,1,0,0:0:0:0:
128,320,2571,1,0,0:0:0:0:
128,72,3000,1,0,0:0:0:0:
176,120,6750,6,0,L|208:104,1,26.25
392,176,7285,1,0,0:0:0:0:
224,304,7714,1,0,0:0:0:0:
176,120,8142,1,0,0:0:0:0:
320,312,8571,2,0,P|208:224|200:232,1,210
192,312,9428,2,0,P|304:224|312:232,1,210
256,96,13607,6,0,L|288:104,1,26.25
248,248,14142,1,0,0:0:0:0:
256,96,14357,1,0,0:0:0:0:
264,248,14571,2,0,P|296:224|304:208,1,52.5
328,160,15000,1,0,0:0:0:0:
176,184,15214,1,0,0:0:0:0:
256,96,15428,2,0,P|256:128|240:136,1,52.5
328,296,15857,1,0,0:0:0:0:
416,248,16071,1,0,0:0:0:0:
184,296,16285,1,0,0:0:0:0:
96,248,16500,1,0,0:0:0:0:
256,352,16714,1,0,0:0:0:0:
256,256,16928,6,0,L|256:240,3,13.125,0|0|0|0,0:0|0:0|0:0|0:0,0:0:0:0:
256,48,17571,1,0,0:0:0:0:
184,144,18000,1,0,0:0:0:0:
256,128,18428,1,0,0:0:0:0:
328,144,18857,1,0,0:0:0:0:
64,72,19285,1,0,0:0:0:0:
448,72,19714,1,0,0:0:0:0:
88,288,20142,6,0,L|88:216,1,52.5
168,160,20571,2,0,P|112:152|104:112,1,105
192,72,21428,1,0,0:0:0:0:
280,48,21642,2,0,P|304:56|328:88,3,52.5,0|0|0|0,0:0|0:0|0:0|0:0,0:0:0:0:
368,136,22714,1,0,0:0:0:0:
384,288,23142,1,0,0:0:0:0:
200,264,23571,2,0,P|240:240|240:232,2,52.5,0|0|0,0:0|0:0|0:0,0:0:0:0:
112,192,24428,1,0,0:0:0:0:
152,80,24857,1,0,0:0:0:0:
256,152,25285,2,0,P|280:176|280:200,2,52.5,0|0|0,0:0|0:0|0:0,0:0:0:0:
384,144,26142,1,0,0:0:0:0:
424,272,26571,1,0,0:0:0:0:
256,256,27428,6,0,L|240:240,1,13.125,0|0,0:0|0:0,0:0:0:0:
128,192,27857,1,0,0:0:0:0:
216,120,28071,1,0,0:0:0:0:
312,304,28285,1,0,0:0:0:0:
128,192,28500,1,0,0:0:0:0:
216,120,28714,1,0,0:0:0:0:
368,352,28928,1,0,0:0:0:0:
128,192,29142,1,0,0:0:0:0:
216,120,29357,1,0,0:0:0:0:
72,48,29571,1,0,0:0:0:0:
120,88,29785,1,0,0:0:0:0:
120,88,30214,1,0,0:0:0:0:
200,32,30428,2,0,L|272:32,1,52.5
328,56,30750,6,0,L|344:64,3,13.125,0|0|0|0,0:0|0:0|0:0|0:0,0:0:0:0:
368,168,31285,1,0,0:0:0:0:
288,216,31714,2,0,P|272:272|296:320,1,105
360,288,32571,2,0,P|408:304|448:256,1,105
424,104,33214,2,0,P|440:144|432:168,1,52.5
336,144,33642,1,0,0:0:0:0:
272,208,33857,2,0,P|264:248|240:264,2,52.5,0|0|0,0:0|0:0|0:0,0:0:0:0:
136,104,34714,2,0,P|128:144|144:216,1,105
240,128,35571,1,0,0:0:0:0:
256,112,35785,1,0,0:0:0:0:
272,96,36000,2,0,P|248:72|168:64,2,105,0|0|0,0:0|0:0|0:0,0:0:0:0:
296,304,37285,5,0,0:0:0:0:
272,320,37500,1,0,0:0:0:0:
240,320,37714,2,0,P|216:296|240:232,2,105,0|0|0,0:0|0:0|0:0,0:0:0:0:
296,112,39000,2,0,L|344:160,1,52.5
416,224,39428,2,0,P|448:216|456:144,1,105,0|0,0:0|0:0,0:0:0:0:
304,56,40285,5,0,0:0:0:0:
208,56,40500,1,0,0:0:0:0:
96,152,40714,1,0,0:0:0:0:
408,152,40928,1,0,0:0:0:0:
224,160,41142,2,0,L|224:224,1,52.5
296,160,41571,2,0,L|296:224,1,52.5,0|0,0:0|0:0,0:0:0:0:
304,328,42000,5,0,0:0:0:0:
208,328,42215,1,0,0:0:0:0:
96,232,42429,1,0,0:0:0:0:
408,232,42643,1,0,0:0:0:0:
224,224,42857,2,0,L|224:160,1,52.5
296,224,43286,2,0,L|296:160,1,52.5,0|0,0:0|0:0,0:0:0:0:
192,152,43714,2,0,L|232:112,1,52.5
320,224,44142,6,0,L|272:272,1,52.5
136,104,44571,2,0,L|208:40,1,78.7500030040742
376,272,45000,2,0,L|296:344,1,78.7500030040742
176,280,45428,1,0,0:0:0:0:
344,72,45642,1,0,0:0:0:0:
176,280,45857,1,0,0:0:0:0:
344,72,46071,1,0,0:0:0:0:
208,128,46285,2,0,B|184:128|184:128|224:184,1,78.7500030040742
304,256,46714,2,0,B|328:256|328:256|288:200,1,78.7500030040742
416,176,47142,5,0,0:0:0:0:
432,200,47357,1,0,0:0:0:0:
432,232,47571,1,0,0:0:0:0:
424,256,47785,1,0,0:0:0:0:
408,280,48000,2,0,P|384:312|328:304,1,78.7500030040742
347,315,48428,2,0,P|304:304|288:264,1,78.7500030040742
304,208,48857,1,0,0:0:0:0:
184,176,49071,1,0,0:0:0:0:
304,208,49285,1,0,0:0:0:0:
184,176,49500,1,0,0:0:0:0:
372,168,49714,6,0,P|356:120|332:112,1,78.7500030040742
328,112,50142,2,0,P|288:112|272:64,1,78.7500030040742
192,48,50571,1,0,0:0:0:0:
208,272,50785,1,0,0:0:0:0:
192,48,51000,1,0,0:0:0:0:
296,328,51214,1,0,0:0:0:0:
80,56,51428,2,0,P|62:106|62:146,1,78.7500030040742
136,128,51857,2,0,P|142:172|174:212,1,78.7500030040742
112,256,52285,1,0,0:0:0:0:
160,328,52500,1,0,0:0:0:0:
240,344,52714,1,0,0:0:0:0:
320,320,52928,1,0,0:0:0:0:
256,192,53142,5,0,0:0:0:0:
256,192,53571,5,0,0:0:0:0:
256,192,54000,5,0,0:0:0:0:
200,88,54214,1,0,0:0:0:0:
256,56,54321,1,0,0:0:0:0:
312,88,54428,1,0,0:0:0:0:
256,192,54642,1,0,0:0:0:0:
216,232,54857,2,0,P|136:312|120:288,1,157.500006008148
296,232,55285,2,0,P|376:312|392:288,1,157.500006008148
256,192,55714,5,0,0:0:0:0:
360,136,55928,1,0,0:0:0:0:
392,192,56035,1,0,0:0:0:0:
360,248,56142,1,0,0:0:0:0:
256,192,56356,1,0,0:0:0:0:
216,152,56571,2,0,P|136:72|160:56,1,157.500006008148
216,232,56999,2,0,P|136:312|160:328,1,157.500006008148
256,192,57428,5,0,0:0:0:0:
312,296,57642,1,0,0:0:0:0:
256,328,57749,1,0,0:0:0:0:
200,296,57856,1,0,0:0:0:0:
256,192,58070,1,0,0:0:0:0:
256,256,58285,5,0,0:0:0:0:
144,192,58500,1,0,0:0:0:0:
256,128,58714,1,0,0:0:0:0:
360,192,58928,1,0,0:0:0:0:
256,256,59142,1,0,0:0:0:0:
144,40,59357,1,0,0:0:0:0:
256,256,59571,1,0,0:0:0:0:
360,40,59785,1,0,0:0:0:0:
256,256,60000,1,0,0:0:0:0:
256,40,60428,1,0,0:0:0:0:
256,192,60857,5,0,0:0:0:0:
152,136,61071,1,0,0:0:0:0:
120,192,61178,1,0,0:0:0:0:
152,248,61285,1,0,0:0:0:0:
256,192,61499,1,0,0:0:0:0:
312,96,61714,2,0,L|456:200,1,157.500006008148
311,280,62142,2,0,L|439:188,1,157.500006008148
256,128,62571,5,0,0:0:0:0:
256,192,62785,1,0,0:0:0:0:
256,192,62892,1,0,0:0:0:0:
256,192,63000,1,0,0:0:0:0:
256,248,63214,1,0,0:0:0:0:
216,120,63428,2,0,P|176:192|216:264,1,157.500006008148
296,120,63857,2,0,P|336:192|296:264,1,157.500006008148
216,120,64285,5,0,0:0:0:0:
296,56,64500,1,0,0:0:0:0:
304,256,64714,1,0,0:0:0:0:
216,312,64928,1,0,0:0:0:0:
112,192,65142,5,0,0:0:0:0:
256,192,65357,1,0,0:0:0:0:
392,192,65571,1,0,0:0:0:0:
256,192,65785,1,0,0:0:0:0:
112,64,66000,5,0,0:0:0:0:
392,328,66214,1,0,0:0:0:0:
392,64,66428,1,0,0:0:0:0:
112,328,66642,1,0,0:0:0:0:
256,128,66857,5,12,0:0:0:0:
320,192,67285,5,8,0:0:0:0:
256,256,67714,5,8,0:0:0:0:
192,192,68142,5,8,0:0:0:0:
64,192,68571,6,0,L|64:16,1,157.500006008148
440,192,69000,2,0,L|440:360,1,157.500006008148
256,256,69428,1,0,0:0:0:0:
192,192,69642,1,0,0:0:0:0:
256,152,69750,1,0,0:0:0:0:
320,192,69857,1,0,0:0:0:0:
256,256,70071,1,0,0:0:0:0:
192,40,70285,6,0,L|80:184,1,157.500006008148
320,40,70714,2,0,L|432:176,1,157.500006008148
256,152,71142,1,0,0:0:0:0:
320,216,71356,1,0,0:0:0:0:
256,256,71464,1,0,0:0:0:0:
192,216,71571,1,0,0:0:0:0:
256,152,71785,1,0,0:0:0:0:
160,40,72000,5,0,0:0:0:0:
80,136,72214,1,0,0:0:0:0:
80,248,72428,1,0,0:0:0:0:
160,344,72642,1,0,0:0:0:0:
344,344,72857,5,0,0:0:0:0:
448,248,73071,1,0,0:0:0:0:
448,136,73285,1,0,0:0:0:0:
344,40,73499,1,0,0:0:0:0:
256,192,73714,1,0,0:0:0:0:
256,192,74142,1,0,0:0:0:0:
256,192,74571,5,0,0:0:0:0:
192,144,74785,1,0,0:0:0:0:
256,128,74893,1,0,0:0:0:0:
320,144,75000,1,0,0:0:0:0:
256,248,75214,1,0,0:0:0:0:
192,144,75428,2,0,L|192:304,1,157.500006008148
248,352,75857,2,0,L|408:352,1,157.500006008148
256,248,76285,5,0,0:0:0:0:
320,144,76500,1,0,0:0:0:0:
256,128,76608,1,0,0:0:0:0:
192,144,76714,1,0,0:0:0:0:
256,192,76928,1,0,0:0:0:0:
320,144,77142,2,0,L|320:304,1,157.500006008148
264,352,77571,2,0,L|104:352,1,157.500006008148
106,352,78000,5,0,0:0:0:0:
264,296,78214,1,0,0:0:0:0:
384,216,78428,1,0,0:0:0:0:
448,64,78642,1,0,0:0:0:0:
304,32,78857,1,0,0:0:0:0:
176,96,79071,1,0,0:0:0:0:
96,208,79285,1,0,0:0:0:0:
64,352,79500,1,0,0:0:0:0:
256,32,79714,1,0,0:0:0:0:
256,352,79928,1,0,0:0:0:0:
256,32,80142,1,0,0:0:0:0:
256,352,80357,1,0,0:0:0:0:
382,148,80571,1,0,0:0:0:0:
127,152,81000,1,0,0:0:0:0:
336,298,81428,1,0,0:0:0:0:
253,58,81857,1,0,0:0:0:0:
179,301,82285,1,0,0:0:0:0:
256,192,85714,5,0,0:0:0:0:
192,120,86142,2,0,L|304:120,1,78.7500030040742
320,264,86571,2,0,L|224:264,1,78.7500030040742
328,64,87000,2,0,L|328:168,1,78.7500030040742
176,328,87428,2,0,L|176:232,1,78.7500030040742
224,184,87857,2,0,L|280:184,2,39.3750015020371,0|0|0,0:0|0:0|0:0,0:0:0:0:
120,192,88285,1,0,0:0:0:0:
208,256,88500,1,0,0:0:0:0:
312,192,88714,2,0,L|304:152,1,39.3750015020371
232,80,88928,6,0,L|208:96,3,19.6875007510186,0|0|0|0,0:0|0:0|0:0|0:0,0:0:0:0:
384,64,89571,1,0,0:0:0:0:
456,192,90000,1,0,0:0:0:0:
384,320,90428,1,0,0:0:0:0:
384,64,90857,1,0,0:0:0:0:
304,192,91285,1,0,0:0:0:0:
456,192,91714,1,0,0:0:0:0:
384,336,92142,5,0,0:0:0:0:
360,320,92357,1,0,0:0:0:0:
336,304,92571,2,0,P|288:304|232:208,1,157.500006008148
272,64,93642,1,0,0:0:0:0:
256,88,93857,1,0,0:0:0:0:
240,112,94071,1,0,0:0:0:0:
216,144,94285,2,0,P|248:168|256:216,3,78.7500030040742,0|0|0|0,0:0|0:0|0:0|0:0,0:0:0:0:
176,224,95142,2,0,P|192:272|240:288,2,78.7500030040742,0|0|0,0:0|0:0|0:0,0:0:0:0:
88,256,95785,5,0,0:0:0:0:
112,168,96000,2,0,L|96:80,2,78.7500030040742,0|0|0,0:0|0:0|0:0,0:0:0:0:
216,288,96642,1,0,0:0:0:0:
264,144,96857,2,0,L|248:64,2,78.7500030040742,0|0|0,0:0|0:0|0:0,0:0:0:0:
384,280,97500,1,0,0:0:0:0:
392,152,97714,2,0,P|448:144|448:104,1,78.7500030040742,0|0,0:0|0:0,0:0:0:0:
400,64,98142,1,0,0:0:0:0:
264,144,98357,1,0,0:0:0:0:
176,232,98571,2,0,P|200:272|248:288,1,78.7500030040742
320,224,99000,1,0,0:0:0:0:
432,224,99428,5,0,0:0:0:0:
216,48,99857,2,0,L|128:48,1,78.7500030040742
88,128,100285,1,0,0:0:0:0:
192,240,100500,1,0,0:0:0:0:
344,272,100714,2,0,L|416:312,1,78.7500030040742
456,216,101142,1,0,0:0:0:0:
368,88,101357,1,0,0:0:0:0:
256,48,101571,2,0,L|168:72,1,78.7500030040742
224,152,102000,1,0,0:0:0:0:
344,192,102214,1,0,0:0:0:0:
296,304,102428,1,0,0:0:0:0:
176,272,102642,6,4,L|200:264,3,19.6875007510186,0|0|0|0,0:0|0:0|0:0|0:0,0:0:0:0:
336,96,103285,2,0,P|392:88|456:160,1,157.500006008148
392,192,104142,2,0,P|416:256|368:336,1,157.500006008148
280,304,105000,1,0,0:0:0:0:
184,272,105321,2,0,L|144:232,1,39.3750015020371
136,152,105642,1,0,0:0:0:0:
192,72,105857,1,0,0:0:0:0:
280,32,106071,1,0,0:0:0:0:
352,104,106285,2,0,P|320:168|384:240,2,157.500006008148,0|0|0,0:0|0:0|0:0,0:0:0:0:
424,176,107571,5,0,0:0:0:0:
416,288,107785,1,0,0:0:0:0:
264,208,108000,2,0,L|200:152,1,78.7500030040742,0|0,0:0|0:0,0:0:0:0:
152,112,108428,1,0,0:0:0:0:
96,72,108642,1,0,0:0:0:0:
272,328,108857,2,0,L|184:272,1,78.7500030040742
144,248,109285,1,0,0:0:0:0:
80,208,109500,1,0,0:0:0:0:
272,104,109714,6,0,L|360:72,1,78.7500030040742
416,56,110142,1,0,0:0:0:0:
472,160,110357,1,0,0:0:0:0:
272,280,110571,2,0,L|360:312,1,78.7500030040742
416,328,111000,1,0,0:0:0:0:
472,224,111214,1,0,0:0:0:0:
304,192,111428,2,8,L|408:192,1,78.7500030040742
208,192,111857,1,2,0:0:0:0:
144,88,112285,5,2,0:0:0:0:
360,88,112500,5,10,0:0:0:0:
360,304,112714,5,2,0:0:0:0:
144,304,112928,5,2,0:0:0:0:
224,192,113142,6,0,L|48:192,1,157.500006008148
288,192,113571,2,10,L|464:192,1,157.500006008148
256,272,114000,1,2,0:0:0:0:
256,72,114214,1,0,0:0:0:0:
256,104,114321,1,8,0:0:0:0:
256,128,114428,1,0,0:0:0:0:
256,272,114642,1,8,0:0:0:0:
168,112,114857,6,2,P|168:200|88:200,1,157.500006008148
344,112,115285,2,8,P|344:200|424:200,1,157.500006008148
128,192,115714,5,0,0:0:0:0:
280,152,115928,1,8,0:0:0:0:
256,192,116035,1,0,0:0:0:0:
280,224,116142,1,0,0:0:0:0:
392,192,116357,1,2,0:0:0:0:
192,192,116571,6,0,L|192:32,1,157.500006008148
328,192,117000,2,8,L|328:352,1,157.500006008148
192,120,117428,2,10,L|24:120,1,157.500006008148
328,272,117857,2,8,L|408:272,3,78.7500030040742,0|0|0|0,0:0|0:0|0:0|0:0,0:0:0:0:
424,152,118285,2,8,L|304:40,1,157.500006008148
96,224,118714,2,2,L|208:336,1,157.500006008148
208,64,119142,6,2,P|160:136|192:144,1,157.500006008148
200,144,119464,1,2,0:0:0:0:
216,136,119571,1,0,0:0:0:0:
224,96,119785,1,2,0:0:0:0:
336,48,120000,2,8,L|336:208,1,157.500006008148
408,160,120428,2,8,L|456:336,1,157.500006008148
328,336,120857,5,0,0:0:0:0:
224,312,121071,1,8,0:0:0:0:
200,304,121178,1,0,0:0:0:0:
184,288,121285,1,8,0:0:0:0:
152,184,121500,1,2,0:0:0:0:
216,64,121714,2,10,L|376:144,1,157.500006008148
464,200,122142,2,0,L|304:256,1,157.500006008148
256,192,122571,5,2,0:0:0:0:
336,56,122785,2,0,L|336:136,2,78.7500030040742,0|0|0,0:0|0:0|0:0,0:0:0:0:
440,88,123214,1,8,0:0:0:0:
112,56,123428,2,0,L|112:224,1,157.500006008148
48,264,123857,1,0,0:0:0:0:
184,264,124071,1,0,0:0:0:0:
400,328,124285,6,2,L|400:160,1,157.500006008148
336,80,124714,1,2,0:0:0:0:
368,112,124821,1,0,0:0:0:0:
400,80,124928,1,0,0:0:0:0:
432,112,125035,1,2,0:0:0:0:
464,80,125142,1,2,0:0:0:0:
120,312,125571,1,0,0:0:0:0:
256,192,126000,5,0,0:0:0:0:
184,240,126214,1,2,0:0:0:0:
256,288,126321,1,0,0:0:0:0:
328,240,126428,1,0,0:0:0:0:
256,192,126642,1,0,0:0:0:0:
144,88,126857,2,0,B|224:88|224:88|152:144,1,157.500006008148,0|0,0:0|0:0,0:0:0:0:
368,88,127285,2,2,B|288:88|288:88|360:144,1,157.500006008148,0|0,0:0|0:0,0:0:0:0:
224,192,127714,5,0,0:0:0:0:
352,336,127928,1,0,0:0:0:0:
160,336,128142,1,2,0:0:0:0:
288,192,128357,1,0,0:0:0:0:
200,64,128571,2,0,B|224:96|224:96|104:192,1,157.500006008148,0|0,0:0|0:0,0:0:0:0:
312,64,129000,2,2,B|288:96|288:96|408:192,1,157.500006008148,0|0,0:0|0:0,0:0:0:0:
256,272,129428,5,0,0:0:0:0:
224,192,129642,1,0,0:0:0:0:
256,208,129750,1,2,0:0:0:0:
288,192,129857,1,2,0:0:0:0:
256,336,130071,1,0,0:0:0:0:
104,48,130285,6,2,L|280:104,1,157.500006008148
128,264,130714,1,0,0:0:0:0:
128,264,130928,1,0,0:0:0:0:
408,48,131142,2,0,L|232:104,1,157.500006008148
384,264,131571,1,0,0:0:0:0:
384,264,131785,1,0,0:0:0:0:
224,48,132000,1,10,0:0:0:0:
256,272,132214,1,0,0:0:0:0:
288,48,132428,1,10,0:0:0:0:
256,272,132642,1,0,0:0:0:0:
112,192,132857,5,0,0:0:0:0:
232,200,133071,1,0,0:0:0:0:
256,192,133178,1,2,0:0:0:0:
288,184,133285,1,0,0:0:0:0:
416,192,133500,1,2,0:0:0:0:
104,56,133714,2,8,L|280:56,1,157.500006008148
432,320,134142,2,0,L|240:320,1,157.500006008148,0|0,0:0|0:0,0:0:0:0:
64,312,134571,6,0,P|88:224|144:200,1,157.500006008148
168,232,134892,1,0,0:0:0:0:
176,256,135000,1,2,0:0:0:0:
200,344,135214,1,0,0:0:0:0:
304,328,135428,2,2,L|432:224,1,157.500006008148
304,64,135857,2,0,L|304:232,1,157.500006008148
64,72,136285,6,0,P|88:160|144:184,1,157.500006008148
168,152,136606,1,0,0:0:0:0:
176,128,136714,1,2,0:0:0:0:
200,40,136928,1,6,0:0:0:0:
304,64,137142,1,4,0:0:0:0:
304,328,137357,1,0,0:0:0:0:
304,152,137571,1,4,0:0:0:0:
304,240,137785,1,4,0:0:0:0:
104,152,138000,2,0,B|136:80|136:80|168:152,1,157.500006008148
384,240,138428,2,0,B|416:312|416:312|448:240,1,157.500006008148
472,192,138857,1,2,0:0:0:0:
256,192,139285,1,8,0:0:0:0:
32,192,139714,1,2,0:0:0:0:
256,192,140142,1,8,0:0:0:0:
256,112,140464,6,4,L|256:32,1,78.7500030040742
