osu file format v13

[General]
AudioFilename: Nightcore - River Flows In You (A Love Note).mp3
AudioLeadIn: 0
PreviewTime: 46900
Countdown: 0
SampleSet: Soft
StackLeniency: 0.7
Mode: 0
LetterboxInBreaks: 1
WidescreenStoryboard: 0

[Editor]
DistanceSpacing: 1.1
BeatDivisor: 4
GridSize: 4
TimelineZoom: 1

[Metadata]
Title:River Flows In You (Speed Up Ver.)
TitleUnicode:River Flows In You (Speed Up Ver.)
Artist:Yiruma & Skullee
ArtistUnicode:Yiruma & Skullee
Creator:-Ziam-
Version:Insane
Source:
Tags:river flows in you ziam speed up yiruma skullee
BeatmapID:519268
BeatmapSetID:222050

[Difficulty]
HPDrainRate:8
CircleSize:4
OverallDifficulty:8
ApproachRate:9
SliderMultiplier:1.8
SliderTickRate:2

[Events]
//Background and Video events
0,0,"1920x1200yr3.jpg",0,0
//Break Periods
//Storyboard Layer 0 (Background)
//Storyboard Layer 1 (Fail)
//Storyboard Layer 2 (Pass)
//Storyboard Layer 3 (Foreground)
//Storyboard Sound Samples

[TimingPoints]
130,372.670807453416,4,2,1,20,1,0
47831,-100,4,2,1,20,0,1
58266,-100,4,2,1,20,0,0
59757,-100,4,2,1,20,0,1
71682,-100,4,2,1,20,0,0
98544,-100,4,2,1,20,0,1
108949,-100,4,2,1,20,0,0
110440,-100,4,2,1,20,0,1
122366,-100,4,2,1,20,0,0
146216,-100,4,2,1,20,0,1
156651,-100,4,2,1,20,0,0
158142,-100,4,2,1,20,0,1
170067,-100,4,2,1,20,0,0

[HitObjects]
144,92,130,5,2,0:0:0:0:
300,216,502,1,0,0:0:0:0:
140,256,875,1,0,0:0:0:0:
296,84,1248,1,0,0:0:0:0:
404,208,1620,1,2,0:0:0:0:
208,172,1993,1,0,0:0:0:0:
368,128,2366,5,0,0:0:0:0:
288,308,2738,1,2,0:0:0:0:
256,192,2987,12,0,5720,0:0:0:0:
340,84,6092,5,2,0:0:0:0:
256,264,6465,1,0,0:0:0:0:
96,148,6838,1,0,0:0:0:0:
268,56,7210,2,2,B|336:56|336:56|376:124|376:124|412:124,1,180
268,296,7956,2,0,B|232:268|232:268|192:296|192:296|104:296,1,180
200,132,8701,1,2,0:0:0:0:
256,192,8887,12,0,11682,0:0:0:0:
92,80,12055,5,2,0:0:0:0:
184,80,12241,2,0,B|240:80|240:80|284:44,2,90,0|0|0,0:0|0:0|0:0,0:0:0:0:
184,192,12800,1,2,0:0:0:0:
124,272,12987,2,0,B|76:272|76:272|44:236,2,90,0|0|0,0:0|0:0|0:0,0:0:0:0:
256,272,13546,1,2,0:0:0:0:
300,140,13732,2,0,B|252:140|252:140|208:96,2,90,0|0|0,0:0|0:0|0:0,0:0:0:0:
400,140,14291,5,2,0:0:0:0:
400,140,14477,1,2,0:0:0:0:
400,140,14664,1,2,0:0:0:0:
432,232,14850,6,0,L|448:212,4,22.5,0|0|0|0|0,0:0|0:0|0:0|0:0|0:0,0:0:0:0:
308,316,15409,1,2,0:0:0:0:
164,280,15782,1,2,0:0:0:0:
100,144,16154,1,2,0:0:0:0:
248,144,16527,1,0,0:0:0:0:
348,144,16900,6,0,B|400:164|400:164|408:232|408:232|472:268,1,180
460,344,17645,2,0,L|336:344,2,90,0|0|0,0:0|0:0|0:0,0:0:0:0:
460,244,18390,1,0,0:0:0:0:
460,144,18763,1,0,0:0:0:0:
376,92,18949,6,0,B|328:92|328:92|284:36,3,90,0|0|0|0,0:0|0:0|0:0|0:0,0:0:0:0:
200,60,19881,1,2,0:0:0:0:
200,60,20254,1,2,0:0:0:0:
156,148,20626,1,0,0:0:0:0:
136,244,20813,1,0,0:0:0:0:
44,280,20999,1,0,0:0:0:0:
252,148,21372,5,2,0:0:0:0:
252,148,21744,1,2,0:0:0:0:
352,148,22117,1,0,0:0:0:0:
380,244,22303,1,0,0:0:0:0:
472,280,22490,1,0,0:0:0:0:
384,328,22862,6,2,B|344:304|260:348|200:320,1,180
80,148,23980,1,2,0:0:0:0:
168,96,24167,2,0,L|264:40,2,90,0|0|0,0:0|0:0|0:0,0:0:0:0:
245,50,24726,1,2,0:0:0:0:
324,112,24912,2,0,L|220:172,2,90,0|0|0,0:0|0:0|0:0,0:0:0:0:
424,112,25471,1,2,0:0:0:0:
424,112,25657,2,0,L|424:224,2,90,0|0|0,0:0|0:0|0:0,0:0:0:0:
336,168,26216,5,2,0:0:0:0:
336,64,26403,5,2,0:0:0:0:
236,64,26589,1,2,0:0:0:0:
156,120,26775,2,0,L|140:140,4,22.5,0|0|0|0|0,0:0|0:0|0:0|0:0|0:0,0:0:0:0:
72,244,27334,1,2,0:0:0:0:
160,292,27707,1,2,0:0:0:0:
260,292,28080,1,2,0:0:0:0:
344,244,28452,1,2,0:0:0:0:
396,104,28825,5,2,0:0:0:0:
396,104,29011,2,2,L|412:88,4,22.5,0|0|0|0|0,0:0|0:0|0:0|0:0|0:0,0:0:0:0:
308,60,29384,1,0,0:0:0:0:
220,104,29570,1,0,0:0:0:0:
132,60,29757,1,0,0:0:0:0:
44,104,29943,1,0,0:0:0:0:
44,204,30316,6,0,B|72:296|72:296|168:344,1,180
296,336,31061,2,0,L|400:264,2,90,0|0|0,0:0|0:0|0:0,0:0:0:0:
296,336,31807,1,2,0:0:0:0:
296,336,32179,1,2,0:0:0:0:
196,336,32552,2,0,L|104:272,2,90,0|0|0,0:0|0:0|0:0,0:0:0:0:
196,336,33297,1,2,0:0:0:0:
196,336,33670,1,2,0:0:0:0:
248,252,34043,6,0,L|248:144,2,90,0|0|0,0:0|0:0|0:0,0:0:0:0:
248,252,34788,1,2,0:0:0:0:
248,252,35161,1,2,0:0:0:0:
348,252,35347,1,2,0:0:0:0:
384,160,35533,1,2,0:0:0:0:
348,252,35720,1,2,0:0:0:0:
268,308,35906,6,2,L|156:288,1,90
120,212,36279,1,0,0:0:0:0:
120,112,36465,1,0,0:0:0:0:
204,60,36651,5,2,0:0:0:0:
276,188,36838,1,2,0:0:0:0:
348,60,37024,1,2,0:0:0:0:
276,188,37210,1,2,0:0:0:0:
380,188,37397,2,2,L|456:120,2,90,0|0|0,0:0|0:0|0:0,0:0:0:0:
380,188,37956,5,0,0:0:0:0:
348,60,38142,1,2,0:0:0:0:
212,124,38328,5,2,0:0:0:0:
256,36,38515,1,2,0:0:0:0:
316,172,38701,1,2,0:0:0:0:
372,252,38887,2,2,B|412:252|412:252|476:212,2,90,0|0|0,0:0|0:0|0:0,0:0:0:0:
284,300,39446,2,2,B|240:300|240:300|188:244,2,90,0|0|0,0:0|0:0|0:0,0:0:0:0:
372,344,40005,1,0,0:0:0:0:
372,344,40192,1,0,0:0:0:0:
372,344,40378,1,0,0:0:0:0:
412,200,40751,5,0,0:0:0:0:
352,120,41123,1,2,0:0:0:0:
264,72,41310,1,2,0:0:0:0:
164,72,41496,1,2,0:0:0:0:
80,120,41682,1,2,0:0:0:0:
56,220,41869,2,2,B|68:268|68:268|124:312,1,90
256,292,42241,2,2,B|288:268|288:268|308:200,1,90
240,152,42614,5,2,0:0:0:0:
80,36,42800,5,2,0:0:0:0:
116,232,42987,1,2,0:0:0:0:
192,48,43173,1,2,0:0:0:0:
28,156,43359,1,2,0:0:0:0:
28,256,43546,6,2,B|52:304|52:304|116:340,2,90,0|0|0,0:0|0:0|0:0,0:0:0:0:
88,176,44105,1,0,0:0:0:0:
152,100,44291,2,0,B|200:100|200:100|248:76,1,90
260,200,44664,2,0,B|312:200|312:200|352:220,1,90
348,316,45036,1,2,0:0:0:0:
248,316,45223,5,2,0:0:0:0:
208,224,45409,2,2,B|256:224|256:224|296:184,1,90
128,160,45782,2,2,B|80:160|80:160|20:124,1,90
148,44,46154,1,0,0:0:0:0:
148,44,46341,1,0,0:0:0:0:
296,44,46713,1,0,0:0:0:0:
388,164,47086,5,2,0:0:0:0:
328,256,47272,1,2,0:0:0:0:
328,256,47334,2,0,L|260:300,1,60
156,300,47645,1,0,0:0:0:0:
108,212,47831,1,0,0:0:0:0:
84,116,48018,6,0,L|36:32,2,90,0|0|0,0:0|0:0|0:0,0:0:0:0:
176,148,48577,1,8,0:0:0:0:
348,88,48763,6,2,L|376:48,2,45,0|0|0,0:0|0:0|0:0,0:0:0:0:
232,72,49136,1,0,0:0:0:0:
388,192,49322,1,0,0:0:0:0:
388,292,49508,6,0,B|336:292|336:292|292:244,2,90,0|0|0,0:0|0:0|0:0,0:0:0:0:
388,192,50067,1,8,0:0:0:0:
336,108,50254,2,0,L|372:76,2,45,0|0|0,0:0|0:0|0:0,0:0:0:0:
264,176,50626,1,2,0:0:0:0:
268,324,50813,1,2,0:0:0:0:
264,176,50999,5,2,0:0:0:0:
160,284,51185,1,2,0:0:0:0:
264,176,51372,1,2,0:0:0:0:
116,168,51558,1,10,0:0:0:0:
116,68,51744,2,0,L|32:20,2,90,0|0|0,0:0|0:0|0:0,0:0:0:0:
116,68,52303,1,0,0:0:0:0:
36,176,52676,1,0,0:0:0:0:
96,300,53049,5,10,0:0:0:0:
236,288,53235,1,2,0:0:0:0:
236,288,53328,2,2,L|300:256,1,45
356,168,53608,5,2,0:0:0:0:
436,44,53794,1,2,0:0:0:0:
340,60,53980,1,2,0:0:0:0:
460,144,54167,1,2,0:0:0:0:
340,60,54353,1,0,0:0:0:0:
240,60,54539,6,8,B|188:60|188:60|148:96,1,90
159,85,54819,1,0,0:0:0:0:
159,85,54912,1,0,0:0:0:0:
92,156,55098,5,2,0:0:0:0:
92,304,55285,1,2,0:0:0:0:
240,304,55471,1,2,0:0:0:0:
240,156,55657,1,2,0:0:0:0:
168,232,55844,1,0,0:0:0:0:
268,232,56030,6,8,L|372:184,1,90
352,96,56403,2,0,L|248:56,1,90
168,64,56775,1,0,0:0:0:0:
92,128,56962,2,0,B|56:156|56:156|56:216,1,90
156,196,57334,2,0,B|192:220|192:220|192:280,1,90
312,272,57707,2,8,B|356:272|356:272|408:232,2,90,8|0|0,0:0|0:0|0:0,0:0:0:0:
212,272,58266,5,2,0:0:0:0:
112,164,58639,1,8,0:0:0:0:
212,56,59011,1,2,0:0:0:0:
312,164,59384,1,8,0:0:0:0:
368,304,59757,2,0,L|432:232,2,90,0|0|0,0:0|0:0|0:0,0:0:0:0:
427,236,60316,1,0,0:0:0:0:
428,140,60502,2,8,L|348:64,1,90
362,78,60782,1,0,0:0:0:0:
362,78,60875,1,0,0:0:0:0:
264,80,61061,5,2,0:0:0:0:
152,176,61248,1,2,0:0:0:0:
264,80,61434,1,2,0:0:0:0:
268,180,61620,2,0,L|356:256,2,90,0|0|0,0:0|0:0|0:0,0:0:0:0:
164,72,62179,6,4,L|120:32,2,45,8|0|0,0:0|0:0|0:0,0:0:0:0:
308,108,62552,1,2,0:0:0:0:
440,40,62738,1,2,0:0:0:0:
240,188,62925,1,2,0:0:0:0:
196,332,63111,1,2,0:0:0:0:
364,228,63297,6,0,L|448:300,2,90,0|8|0,0:0|0:0|0:0,0:0:0:0:
200,80,63856,2,8,L|120:16,2,90,0|8|8,0:0|0:0|0:0,0:0:0:0:
332,68,64415,6,0,L|456:24,1,90
180,216,64788,2,0,L|128:312,1,90
288,304,65161,1,0,0:0:0:0:
324,324,65254,1,0,0:0:0:0:
360,304,65347,1,0,0:0:0:0:
408,208,65533,5,2,0:0:0:0:
312,36,65720,1,10,0:0:0:0:
224,208,65906,1,2,0:0:0:0:
416,96,66092,1,2,0:0:0:0:
208,96,66279,1,2,0:0:0:0:
64,172,66465,6,0,B|60:224|60:224|108:268,1,90
87,249,66745,1,0,0:0:0:0:
87,249,66838,1,0,0:0:0:0:
176,296,67024,5,2,0:0:0:0:
368,252,67210,1,10,0:0:0:0:
228,208,67397,1,2,0:0:0:0:
364,148,67583,1,2,0:0:0:0:
276,100,67769,2,0,L|356:44,2,90,0|0|0,0:0|0:0|0:0,0:0:0:0:
176,100,68328,5,2,0:0:0:0:
92,152,68515,1,2,0:0:0:0:
96,252,68701,1,10,0:0:0:0:
176,308,68887,1,2,0:0:0:0:
260,256,69074,1,2,0:0:0:0:
292,156,69260,6,0,L|372:68,1,90
452,92,69633,1,2,0:0:0:0:
452,288,69819,1,2,0:0:0:0:
380,160,70005,1,2,0:0:0:0:
384,356,70192,1,2,0:0:0:0:
240,348,70564,5,8,0:0:0:0:
124,256,70937,1,2,0:0:0:0:
120,108,71310,1,8,0:0:0:0:
256,192,71682,1,0,0:0:0:0:
256,192,71869,12,0,73173,0:0:0:0:
360,88,74664,5,2,0:0:0:0:
256,88,74850,2,0,L|160:88,2,90,0|0|0,0:0|0:0|0:0,0:0:0:0:
166,88,75409,1,2,0:0:0:0:
76,172,75595,2,0,B|76:224|76:224|112:276,2,90,0|0|0,0:0|0:0|0:0,0:0:0:0:
156,112,76154,5,2,0:0:0:0:
156,112,76341,2,0,B|156:64|156:64|120:16,2,90,0|0|0,0:0|0:0|0:0,0:0:0:0:
156,112,76900,1,2,0:0:0:0:
188,208,77086,1,2,0:0:0:0:
264,272,77272,1,2,0:0:0:0:
340,208,77459,2,0,L|360:192,4,22.5,0|0|0|0|0,0:0|0:0|0:0|0:0|0:0,0:0:0:0:
316,112,78018,5,2,0:0:0:0:
232,60,78390,1,2,0:0:0:0:
132,60,78763,1,2,0:0:0:0:
48,112,79136,1,0,0:0:0:0:
48,212,79508,2,0,B|104:220|104:220|132:284|132:284|216:292,1,180
336,292,80254,2,0,B|380:292|380:292|432:240,2,90,0|0|0,0:0|0:0|0:0,0:0:0:0:
236,292,80999,5,0,0:0:0:0:
128,192,81558,5,2,0:0:0:0:
192,116,81745,1,2,0:0:0:0:
256,192,81931,1,2,0:0:0:0:
356,192,82117,2,0,L|424:96,1,90
280,40,82490,6,0,L|148:40,1,90
80,140,82862,2,0,L|32:252,1,90
164,236,83235,2,0,L|216:340,1,90,0|0,0:0|0:0,0:0:0:0:
304,320,83608,1,2,0:0:0:0:
380,260,83794,1,2,0:0:0:0:
304,196,83980,1,2,0:0:0:0:
376,128,84167,6,0,B|416:128|416:128|456:68,2,90,0|0|0,0:0|0:0|0:0,0:0:0:0:
228,128,84726,2,0,B|188:128|188:128|136:72,2,90,0|0|0,0:0|0:0|0:0,0:0:0:0:
304,196,85285,1,2,0:0:0:0:
256,284,85471,1,2,0:0:0:0:
164,324,85657,1,2,0:0:0:0:
64,324,85844,1,2,0:0:0:0:
64,176,86216,1,0,0:0:0:0:
128,100,86403,6,0,L|152:72,4,22.5,0|0|0|0|0,0:0|0:0|0:0|0:0|0:0,0:0:0:0:
244,92,86962,6,0,L|356:92,1,90
420,144,87334,1,2,0:0:0:0:
336,192,87521,2,0,B|280:192|280:192|236:240,2,90,0|0|0,0:0|0:0|0:0,0:0:0:0:
236,292,88080,1,2,0:0:0:0:
336,292,88266,2,0,B|396:292|396:292|440:328,2,90,0|0|0,0:0|0:0|0:0,0:0:0:0:
288,192,88825,5,2,0:0:0:0:
236,292,89011,1,2,0:0:0:0:
152,240,89198,1,2,0:0:0:0:
112,148,89384,2,0,L|136:124,4,22.5,0|0|0|0|0,0:0|0:0|0:0|0:0|0:0,0:0:0:0:
220,152,89943,5,2,0:0:0:0:
332,56,90316,1,2,0:0:0:0:
336,208,90689,1,2,0:0:0:0:
224,44,91061,1,0,0:0:0:0:
80,72,91434,5,0,0:0:0:0:
80,172,91621,1,0,0:0:0:0:
44,208,91714,1,0,0:0:0:0:
80,240,91807,1,0,0:0:0:0:
180,244,91993,5,2,0:0:0:0:
260,184,92179,1,2,0:0:0:0:
336,244,92365,1,2,0:0:0:0:
416,184,92552,1,2,0:0:0:0:
364,100,92925,5,0,0:0:0:0:
276,52,93297,1,0,0:0:0:0:
128,52,93670,2,0,L|40:16,2,90,0|0|0,0:0|0:0|0:0,0:0:0:0:
128,52,94229,1,2,0:0:0:0:
132,152,94415,2,0,L|240:104,2,90,0|0|0,0:0|0:0|0:0,0:0:0:0:
132,152,94974,1,2,0:0:0:0:
132,252,95161,6,0,B|88:252|88:252|44:300,2,90,0|0|0,0:0|0:0|0:0,0:0:0:0:
132,252,95720,1,2,0:0:0:0:
232,252,95906,1,0,0:0:0:0:
324,224,96092,1,0,0:0:0:0:
372,136,96279,1,0,0:0:0:0:
372,36,96465,1,2,0:0:0:0:
280,68,96651,6,0,B|260:112|260:112|204:148,2,90,0|0|0,0:0|0:0|0:0,0:0:0:0:
180,68,97210,2,0,B|132:68|132:68|72:28,2,90,0|0|0,0:0|0:0|0:0,0:0:0:0:
120,144,97769,5,2,0:0:0:0:
300,312,97956,1,0,0:0:0:0:
308,112,98142,1,2,0:0:0:0:
96,320,98329,1,0,0:0:0:0:
244,316,98515,2,8,L|328:256,1,90
232,84,98888,2,0,L|140:148,1,90
160,280,99260,5,2,0:0:0:0:
344,244,99446,1,2,0:0:0:0:
344,244,99539,2,2,L|288:280,1,45
372,104,99819,2,8,L|448:48,2,90,0|8|0,0:0|0:0|0:0,0:0:0:0:
372,104,100378,1,0,0:0:0:0:
288,172,100564,5,0,0:0:0:0:
160,100,100751,1,2,0:0:0:0:
168,252,100937,1,0,0:0:0:0:
184,288,101030,1,0,0:0:0:0:
220,304,101123,1,0,0:0:0:0:
388,316,101310,2,8,L|472:252,2,90,0|8|0,0:0|0:0|0:0,0:0:0:0:
240,312,101869,5,2,0:0:0:0:
108,244,102055,1,2,0:0:0:0:
108,96,102241,1,2,0:0:0:0:
256,96,102428,1,2,0:0:0:0:
256,244,102614,5,0,0:0:0:0:
292,260,102676,1,0,0:0:0:0:
328,276,102800,2,0,L|360:276,3,30,0|0|0|0,0:0|0:0|0:0|0:0,0:0:0:0:
412,148,103173,6,0,B|412:100|412:100|472:48,2,90,0|0|0,0:0|0:0|0:0,0:0:0:0:
264,148,103732,1,2,0:0:0:0:
120,88,103918,6,0,L|88:44,2,45,0|0|0,0:0|0:0|0:0,0:0:0:0:
72,224,104291,6,8,L|128:320,2,90,0|8|8,0:0|0:0|0:0,0:0:0:0:
117,301,104850,1,0,0:0:0:0:
216,304,105036,5,2,0:0:0:0:
332,212,105223,1,2,0:0:0:0:
348,360,105409,2,0,L|320:328,3,30,0|0|0|0,0:0|0:0|0:0|0:0,0:0:0:0:
200,164,105782,1,0,0:0:0:0:
260,84,105968,2,0,L|348:32,2,90,0|8|0,0:0|0:0|0:0,0:0:0:0:
260,84,106527,1,0,0:0:0:0:
160,84,106713,5,0,0:0:0:0:
84,148,106900,1,0,0:0:0:0:
64,192,106993,1,0,0:0:0:0:
84,232,107086,1,0,0:0:0:0:
168,292,107272,2,0,B|208:292|208:292|252:244,2,90,0|8|0,0:0|0:0|0:0,0:0:0:0:
172,192,107831,1,0,0:0:0:0:
320,60,108018,5,2,0:0:0:0:
364,252,108204,1,2,0:0:0:0:
160,36,108390,1,2,0:0:0:0:
364,252,108577,1,0,0:0:0:0:
364,252,108670,1,0,0:0:0:0:
364,252,108763,1,0,0:0:0:0:
364,252,108856,1,0,0:0:0:0:
364,252,108949,1,8,0:0:0:0:
392,136,109136,6,0,L|472:72,2,90,0|0|0,0:0|0:0|0:0,0:0:0:0:
244,136,109695,1,2,0:0:0:0:
120,56,109881,1,0,0:0:0:0:
76,84,109975,1,0,0:0:0:0:
76,136,110068,1,0,0:0:0:0:
72,244,110254,5,2,0:0:0:0:
272,248,110440,1,8,0:0:0:0:
144,324,110627,1,2,0:0:0:0:
240,152,110813,1,2,0:0:0:0:
388,152,110999,6,0,B|436:152|436:152|472:104,2,90,0|0|0,0:0|0:0|0:0,0:0:0:0:
280,48,111558,1,2,0:0:0:0:
180,220,111744,1,2,0:0:0:0:
80,48,111931,1,8,0:0:0:0:
292,176,112117,2,0,B|340:176|340:176|368:128,2,90,0|0|0,0:0|0:0|0:0,0:0:0:0:
144,180,112676,5,2,0:0:0:0:
124,300,112862,1,0,0:0:0:0:
124,300,112956,2,0,L|64:300,1,45
272,304,113235,2,0,B|320:304|320:304|352:272,2,90,0|8|0,0:0|0:0|0:0,0:0:0:0:
272,160,113794,2,0,B|228:160|228:160|192:128,2,90,0|0|0,0:0|0:0|0:0,0:0:0:0:
420,156,114353,5,2,0:0:0:0:
272,288,114539,1,2,0:0:0:0:
276,140,114726,1,2,0:0:0:0:
124,268,114912,1,8,0:0:0:0:
128,120,115098,6,0,B|168:120|168:120|216:64,2,90,0|0|0,0:0|0:0|0:0,0:0:0:0:
68,200,115657,5,2,0:0:0:0:
168,308,115844,1,0,0:0:0:0:
204,324,115937,1,0,0:0:0:0:
244,308,116030,1,0,0:0:0:0:
344,252,116216,5,0,0:0:0:0:
456,92,116403,1,8,0:0:0:0:
464,240,116589,1,0,0:0:0:0:
284,72,116775,2,0,L|192:72,1,90
72,160,117148,2,0,B|72:208|72:208|112:264,1,90
96,242,117428,1,0,0:0:0:0:
96,242,117521,1,0,0:0:0:0:
244,244,117707,5,2,0:0:0:0:
244,44,117893,1,10,0:0:0:0:
360,136,118080,1,2,0:0:0:0:
64,140,118266,2,0,P|72:188|116:224,1,90
224,300,118639,5,0,0:0:0:0:
304,180,118824,1,0,0:0:0:0:
292,132,118918,1,0,0:0:0:0:
244,124,119011,1,0,0:0:0:0:
140,92,119198,2,0,L|64:32,2,90,0|8|0,0:0|0:0|0:0,0:0:0:0:
84,172,119757,5,2,0:0:0:0:
124,316,119943,1,2,0:0:0:0:
320,316,120130,1,2,0:0:0:0:
344,172,120316,1,2,0:0:0:0:
220,92,120502,2,0,L|156:20,2,90,0|0|0,0:0|0:0|0:0,0:0:0:0:
220,200,121248,5,8,0:0:0:0:
220,348,121620,1,0,0:0:0:0:
220,200,121993,1,8,0:0:0:0:
316,88,122179,2,0,L|344:60,5,22.5,0|0|0|0|0|0,0:0|0:0|0:0|0:0|0:0|0:0,0:0:0:0:
160,92,122738,1,2,0:0:0:0:
80,152,123111,1,2,0:0:0:0:
84,252,123484,5,2,0:0:0:0:
164,308,123856,2,0,B|224:300|224:300|288:320|288:320|344:296,2,180,0|0|0,0:0|0:0|0:0,0:0:0:0:
164,208,124974,5,2,0:0:0:0:
244,84,125347,1,2,0:0:0:0:
324,212,125720,1,2,0:0:0:0:
404,88,126092,2,0,P|472:152|488:260,2,180,0|0|0,0:0|0:0|0:0,0:0:0:0:
256,88,127583,2,0,B|196:80|196:80|176:140|176:140|84:152,1,180
120,147,128328,1,2,0:0:0:0:
64,264,128701,5,0,0:0:0:0:
164,264,129074,1,0,0:0:0:0:
260,148,129446,5,2,0:0:0:0:
344,28,129633,1,2,0:0:0:0:
368,176,129819,1,2,0:0:0:0:
264,280,130192,5,0,0:0:0:0:
264,280,130564,1,0,0:0:0:0:
260,148,130937,1,2,0:0:0:0:
172,28,131123,1,2,0:0:0:0:
152,176,131310,1,2,0:0:0:0:
48,280,131682,5,0,0:0:0:0:
48,280,132055,1,0,0:0:0:0:
196,280,132428,2,0,B|240:280|240:280|284:232,2,90,0|0|0,0:0|0:0|0:0,0:0:0:0:
196,280,133173,1,2,0:0:0:0:
196,280,133546,1,2,0:0:0:0:
192,140,134291,5,2,0:0:0:0:
48,140,134664,1,2,0:0:0:0:
124,268,135036,1,2,0:0:0:0:
48,140,135409,1,2,0:0:0:0:
196,140,135595,2,0,L|228:100,2,45,0|0|0,0:0|0:0|0:0,0:0:0:0:
344,140,136154,6,0,B|392:168|392:168|376:232|376:232|444:288,1,180,0|0,0:0|0:0,0:0:0:0:
272,268,136900,1,2,0:0:0:0:
140,120,137272,1,2,0:0:0:0:
140,256,137645,1,2,0:0:0:0:
308,96,138018,1,2,0:0:0:0:
424,188,138390,6,0,B|388:268|388:268|276:312,1,180
302,301,139136,1,0,0:0:0:0:
302,301,139508,1,0,0:0:0:0:
160,256,139881,6,0,L|64:184,2,90,0|0|0,0:0|0:0|0:0,0:0:0:0:
160,256,140626,1,0,0:0:0:0:
160,256,140999,1,0,0:0:0:0:
248,176,141372,1,2,0:0:0:0:
320,108,141558,1,2,0:0:0:0:
392,176,141744,1,2,0:0:0:0:
396,276,142117,6,0,B|336:264|336:264|300:312|300:312|204:328,1,180
92,324,142862,2,2,L|40:236,2,90,0|0|0,0:0|0:0|0:0,0:0:0:0:
192,324,143608,1,0,0:0:0:0:
292,324,143980,1,0,0:0:0:0:
376,200,144353,2,0,L|452:128,2,90,0|2|0,0:0|0:0|0:0,0:0:0:0:
376,200,145098,1,0,0:0:0:0:
376,200,145471,1,0,0:0:0:0:
64,192,146216,6,0,L|112:104,1,90
356,112,146589,2,0,L|416:212,1,90
316,312,146962,1,8,0:0:0:0:
188,168,147148,1,0,0:0:0:0:
188,168,147241,2,0,L|220:212,1,45
296,92,147521,6,0,L|372:44,2,90,0|0|0,0:0|0:0|0:0,0:0:0:0:
188,164,148080,1,2,0:0:0:0:
72,256,148266,1,2,0:0:0:0:
208,312,148452,2,0,L|312:276,1,90,8|0,0:0|0:0,0:0:0:0:
293,282,148732,1,0,0:0:0:0:
293,282,148825,1,0,0:0:0:0:
400,180,149011,5,2,0:0:0:0:
188,52,149198,1,2,0:0:0:0:
188,300,149384,1,2,0:0:0:0:
356,56,149570,1,2,0:0:0:0:
112,192,149757,1,2,0:0:0:0:
240,188,149943,6,0,L|312:124,1,90,8|0,0:0|0:0,0:0:0:0:
456,132,150316,1,2,0:0:0:0:
436,176,150409,1,2,0:0:0:0:
456,220,150502,1,2,0:0:0:0:
476,264,150596,1,2,0:0:0:0:
460,312,150689,1,2,0:0:0:0:
312,316,150875,6,0,L|228:256,2,90,0|0|0,0:0|0:0|0:0,0:0:0:0:
312,168,151434,1,8,0:0:0:0:
200,72,151620,1,0,0:0:0:0:
156,96,151713,1,0,0:0:0:0:
112,72,151806,1,0,0:0:0:0:
68,160,151993,5,2,0:0:0:0:
196,312,152179,1,2,0:0:0:0:
96,312,152366,1,2,0:0:0:0:
220,160,152552,1,2,0:0:0:0:
324,56,152738,5,2,0:0:0:0:
472,56,152925,1,10,0:0:0:0:
368,176,153110,1,0,0:0:0:0:
360,224,153204,1,0,0:0:0:0:
316,236,153297,1,0,0:0:0:0:
168,252,153484,6,0,L|96:180,2,90,0|0|0,0:0|0:0|0:0,0:0:0:0:
168,252,154043,1,2,0:0:0:0:
168,252,154229,1,2,0:0:0:0:
256,136,154415,2,0,B|300:136|300:136|344:72,1,90,8|0,0:0|0:0,0:0:0:0:
326,98,154695,1,0,0:0:0:0:
326,98,154788,1,0,0:0:0:0:
376,184,154974,5,2,0:0:0:0:
172,324,155161,1,2,0:0:0:0:
320,324,155347,1,2,0:0:0:0:
116,188,155533,1,2,0:0:0:0:
376,184,155720,1,2,0:0:0:0:
264,88,155906,6,0,L|156:88,1,90,8|0,0:0|0:0,0:0:0:0:
116,192,156279,1,2,0:0:0:0:
152,212,156372,1,2,0:0:0:0:
188,220,156465,2,2,L|220:220,3,30,0|0|0|0,0:0|0:0|0:0|0:0,0:0:0:0:
384,220,156838,6,0,L|460:160,2,90,0|0|0,0:0|0:0|0:0,0:0:0:0:
88,220,157397,1,8,0:0:0:0:
264,128,157583,1,0,0:0:0:0:
288,92,157676,1,0,0:0:0:0:
332,88,157769,1,0,0:0:0:0:
308,216,157956,6,0,B|360:248|360:248|360:284,1,90
120,216,158328,2,0,B|72:252|72:252|72:284,1,90
204,348,158701,1,0,0:0:0:0:
352,348,158887,1,8,0:0:0:0:
396,156,159074,5,2,0:0:0:0:
192,16,159260,1,2,0:0:0:0:
204,212,159446,1,2,0:0:0:0:
364,24,159633,1,2,0:0:0:0:
204,212,159819,2,0,L|120:268,2,90,0|0|0,0:0|0:0|0:0,0:0:0:0:
324,124,160378,6,0,B|368:108|368:108|424:128,1,90,8|0,0:0|0:0,0:0:0:0:
408,122,160658,1,0,0:0:0:0:
408,122,160751,1,0,0:0:0:0:
372,212,160937,5,2,0:0:0:0:
216,336,161123,1,2,0:0:0:0:
372,212,161310,1,2,0:0:0:0:
124,188,161496,1,2,0:0:0:0:
372,212,161682,1,2,0:0:0:0:
232,76,161869,2,0,B|272:76|272:76|312:32,2,90,8|0|0,0:0|0:0|0:0,0:0:0:0:
232,76,162428,5,0,0:0:0:0:
232,76,162614,1,0,0:0:0:0:
88,112,162987,5,0,0:0:0:0:
88,260,163359,2,0,L|168:304,1,90,8|0,0:0|0:0,0:0:0:0:
166,303,163639,1,0,0:0:0:0:
166,303,163732,1,0,0:0:0:0:
316,304,163918,1,2,0:0:0:0:
452,160,164105,1,2,0:0:0:0:
428,308,164291,5,2,0:0:0:0:
320,84,164477,1,2,0:0:0:0:
428,308,164664,1,2,0:0:0:0:
300,232,164850,1,10,0:0:0:0:
144,112,165036,2,0,L|104:72,2,45,0|0|0,0:0|0:0|0:0,0:0:0:0:
84,248,165408,2,0,L|172:332,1,90
212,176,165782,2,0,L|284:244,2,90,0|0|0,0:0|0:0|0:0,0:0:0:0:
268,36,166341,1,8,0:0:0:0:
392,76,166527,6,0,L|432:40,2,45,0|0|0,0:0|0:0|0:0,0:0:0:0:
392,76,166900,1,2,0:0:0:0:
396,208,167086,5,2,0:0:0:0:
284,308,167272,1,2,0:0:0:0:
136,292,167458,1,2,0:0:0:0:
60,164,167645,1,2,0:0:0:0:
132,36,167831,1,10,0:0:0:0:
236,140,168017,6,0,L|332:96,2,90,0|0|0,0:0|0:0|0:0,0:0:0:0:
236,140,168576,1,2,0:0:0:0:
120,236,168949,1,8,0:0:0:0:
228,336,169322,1,2,0:0:0:0:
328,336,169695,1,8,0:0:0:0:
436,236,170067,1,2,0:0:0:0:
328,132,170440,6,0,B|236:112|236:112|152:40,2,180,0|0|0,0:0|0:0|0:0,0:0:0:0:
332,232,171558,1,2,0:0:0:0:
244,280,171931,1,2,0:0:0:0:
156,236,172303,1,2,0:0:0:0:
108,148,172676,2,0,B|168:136|168:136|196:84|196:84|272:52,2,180,0|0|0,0:0|0:0|0:0,0:0:0:0:
68,292,173794,5,2,0:0:0:0:
168,292,174167,1,2,0:0:0:0:
68,292,174539,1,4,0:0:0:0:
120,144,175285,1,0,0:0:0:0:
196,80,175657,1,0,0:0:0:0:
272,144,176030,1,0,0:0:0:0:
384,44,176403,6,0,B|396:104|396:104|376:160|376:160|384:244,1,180,0|0,0:0|0:0,0:0:0:0:
244,276,177148,2,0,L|160:320,2,90,0|0|0,0:0|0:0|0:0,0:0:0:0:
244,176,177893,1,2,0:0:0:0:
244,176,178266,1,2,0:0:0:0:
244,76,178639,2,0,L|324:136,2,90,0|0|0,0:0|0:0|0:0,0:0:0:0:
244,176,179384,1,2,0:0:0:0:
244,176,179757,1,2,0:0:0:0:
128,84,180129,6,0,L|68:160,2,90,2|0|0,0:0|0:0|0:0,0:0:0:0:
228,84,180875,1,0,0:0:0:0:
328,84,181248,1,0,0:0:0:0:
272,152,181993,6,0,B|336:140|336:140|360:84|360:84|440:56,2,180,0|0|0,0:0|0:0|0:0,0:0:0:0:
124,152,183111,1,0,0:0:0:0:
200,280,183297,2,0,L|128:320,2,45,0|0|0,0:0|0:0|0:0,0:0:0:0:
340,232,183856,5,2,0:0:0:0:
396,152,184229,1,2,0:0:0:0:
396,52,184602,1,2,0:0:0:0:
248,52,184974,6,0,B|176:88|192:124|192:124|120:184,2,180,0|0|0,0:0|0:0|0:0,0:0:0:0:
324,116,186092,1,2,0:0:0:0:
324,264,186465,1,2,0:0:0:0:
188,308,186838,6,0,B|164:248|164:248|104:224|104:224|60:148,1,180
204,100,187583,2,0,L|264:32,2,90,0|0|0,0:0|0:0|0:0,0:0:0:0:
116,220,188328,1,2,0:0:0:0:
116,220,188701,1,2,0:0:0:0:
208,292,189074,2,0,B|244:324|244:324|292:324,2,90,0|0|0,0:0|0:0|0:0,0:0:0:0:
276,220,189819,1,2,0:0:0:0:
276,220,190192,1,2,0:0:0:0:
368,104,190564,6,0,L|448:48,2,90,0|0|0,0:0|0:0|0:0,0:0:0:0:
368,104,191310,1,2,0:0:0:0:
368,104,191682,1,2,0:0:0:0:
220,104,192055,2,0,L|132:40,2,90,0|0|0,0:0|0:0|0:0,0:0:0:0:
220,204,192800,1,2,0:0:0:0:
332,300,193173,1,2,0:0:0:0:
