osu file format v12

[General]
AudioFilename: Yiruma & Skullee - River Flows In You (A Love Note).mp3
AudioLeadIn: 0
PreviewTime: 53892
Countdown: 0
SampleSet: Soft
StackLeniency: 0.4
Mode: 0
LetterboxInBreaks: 0

[Editor]
DistanceSpacing: 1
BeatDivisor: 4
GridSize: 4

[Metadata]
Title:River Flows In You (A Love Note)
TitleUnicode:River Flows In You (A Love Note)
Artist:Yiruma & Skullee
ArtistUnicode:Yiruma & Skullee
Creator:Andrea
Version:Hard
Source:
Tags:osuplayer111 Dubstep Piano Remix Techno Kanojo to Ore Koibito
BeatmapID:264370
BeatmapSetID:99401

[Difficulty]
HPDrainRate:7
CircleSize:4
OverallDifficulty:7
ApproachRate:8
SliderMultiplier:1.6
SliderTickRate:1

[Events]
//Background and Video events
0,0,"Love.jpg",0,0
//Break Periods
2,82485,84964
//Storyboard Layer 0 (Background)
//Storyboard Layer 1 (Fail)
//Storyboard Layer 2 (Pass)
//Storyboard Layer 3 (Foreground)
//Storyboard Sound Samples
//Background Colour Transformations
3,100,128,128,192

[TimingPoints]
0,428.571428571429,4,2,1,40,1,0
3428,-100,4,2,1,5,0,0
6857,-100,4,2,1,40,0,0
10285,-100,4,2,1,5,0,0
13714,-100,4,2,1,40,0,0
54857,-100,4,2,1,60,0,1
66857,-100,4,2,1,40,0,0
68571,-100,4,2,1,60,0,1
80571,-100,4,2,1,40,0,0
113142,-100,4,2,1,60,0,1
125142,-100,4,2,1,40,0,0
126857,-100,4,2,1,60,0,1
138857,-100,4,2,1,40,0,0

[Colours]
Combo1 : 255,128,255
Combo2 : 255,64,64
Combo3 : 255,255,128
Combo4 : 0,128,255
Combo5 : 64,255,64
Combo6 : 0,0,255
Combo7 : 128,0,255

[HitObjects]
44,48,0,2,0,P|124:48|184:96,1,160,0|2,0:0|0:0,0:0:0:0:
120,244,857,1,0,0:0:0:0:
256,328,1285,1,2,0:0:0:0:
392,244,1714,1,0,0:0:0:0:
328,96,2142,2,0,P|388:48|468:48,2,160,2|0|2,0:0|0:0|0:0,0:0:0:0:
256,192,3428,12,0,6000,0:0:0:0:
468,336,6857,6,0,P|388:336|328:288,1,160,0|2,0:0|0:0,0:0:0:0:
392,140,7714,1,0,0:0:0:0:
256,56,8142,1,2,0:0:0:0:
120,140,8571,1,0,0:0:0:0:
184,288,9000,2,0,P|124:336|44:336,2,160,2|0|2,0:0|0:0|0:0,0:0:0:0:
256,192,10285,12,0,12857,0:0:0:0:
344,64,13714,6,0,P|344:144|296:208,1,160,0|2,0:0|0:0,0:0:0:0:
213,206,14357,2,0,P|168:144|168:64,1,160
256,64,15000,1,2,0:0:0:0:
344,64,15214,2,0,P|424:64|480:116,1,160
452,192,15857,1,2,0:0:0:0:
480,268,16071,6,0,P|424:320|344:320,1,160
308,248,16714,1,2,0:0:0:0:
256,308,16928,2,0,L|256:344,3,20,0|0|0|0,0:0|0:0|0:0|0:0,0:0:0:0:
108,192,17571,2,0,B|160:128|160:128|160:48,1,160,2|0,0:0|0:0,0:0:0:0:
352,50,18428,2,0,B|352:128|352:128|404:192,1,160,2|0,0:0|0:0,0:0:0:0:
180,240,19285,6,0,B|256:216|256:216|332:240,2,160,2|0|2,0:0|0:0|0:0,0:0:0:0:
256,296,20357,1,0,0:0:0:0:
256,296,20571,2,0,L|256:120,2,160,0|2|0,0:0|0:0|0:0,0:0:0:0:
176,296,21642,1,0,0:0:0:0:
216,368,21857,1,2,0:0:0:0:
296,368,22071,1,0,0:0:0:0:
336,296,22285,2,0,P|392:236|392:156,2,160,0|2|0,0:0|0:0|0:0,0:0:0:0:
316,136,23571,5,2,0:0:0:0:
256,84,23785,1,0,0:0:0:0:
196,32,24000,2,0,B|112:32|112:32|52:80,2,160,0|2|0,0:0|0:0|0:0,0:0:0:0:
184,192,25285,1,2,0:0:0:0:
256,228,25500,1,0,0:0:0:0:
328,264,25714,2,0,P|408:264|464:208,2,160,0|2|0,0:0|0:0|0:0,0:0:0:0:
64,84,27428,6,0,B|136:84|136:124|216:124,1,160,0|2,0:0|0:0,0:0:0:0:
296,124,28071,2,0,B|376:124|376:84|448:84,1,160
492,152,28714,1,2,0:0:0:0:
464,228,28928,2,0,P|412:276|328:260,1,160
256,228,29571,1,2,0:0:0:0:
182,261,29785,2,0,P|100:276|48:228,1,160
20,152,30428,1,2,0:0:0:0:
60,84,30642,6,0,L|76:56,3,20,0|0|0|0,0:0|0:0|0:0|0:0,0:0:0:0:
240,36,31285,2,0,P|320:36|384:88,1,160,2|0,0:0|0:0,0:0:0:0:
480,212,32142,2,0,P|400:212|336:160,2,160,2|0|2,0:0|0:0|0:0,0:0:0:0:
480,104,33285,2,0,L|480:48,1,53.3333333333333,0|0,0:0|0:0,0:0:0:0:
400,64,33642,1,0,0:0:0:0:
324,36,33857,1,2,0:0:0:0:
256,80,34071,1,0,0:0:0:0:
188,36,34285,6,0,P|108:36|48:84,2,160,0|2|0,0:0|0:0|0:0,0:0:0:0:
84,156,35571,1,2,0:0:0:0:
124,224,35785,1,0,0:0:0:0:
164,292,36000,2,0,B|244:292|244:292|312:340,2,160,0|2|0,0:0|0:0|0:0,0:0:0:0:
256,160,37285,5,2,0:0:0:0:
320,108,37500,1,0,0:0:0:0:
380,52,37714,2,0,P|460:52|516:104,2,160,0|2|0,0:0|0:0|0:0,0:0:0:0:
256,160,39000,1,2,0:0:0:0:
192,108,39214,1,0,0:0:0:0:
132,52,39428,6,0,P|52:52|-4:104,2,160,0|2|0,0:0|0:0|0:0,0:0:0:0:
192,108,40500,2,0,L|216:184,1,80,0|2,0:0|0:0,0:0:0:0:
320,108,40928,2,0,L|296:184,1,80
256,252,41357,1,0,0:0:0:0:
196,304,41571,1,2,0:0:0:0:
256,356,41785,1,0,0:0:0:0:
316,304,42000,6,0,P|356:304|388:280,1,80
420,208,42428,1,2,0:0:0:0:
420,128,42642,2,0,L|360:60,1,80
312,8,43071,1,0,0:0:0:0:
256,64,43285,1,2,0:0:0:0:
200,8,43500,1,0,0:0:0:0:
144,68,43714,6,0,L|92:128,1,80
40,188,44142,1,2,0:0:0:0:
104,236,44357,1,0,0:0:0:0:
156,176,44571,2,0,P|196:176|232:196,1,80
284,256,45000,1,2,0:0:0:0:
344,312,45214,2,0,P|384:312|416:288,1,80
472,232,45642,1,0,0:0:0:0:
472,152,45857,2,0,L|424:84,1,80,2|0,0:0|0:0,0:0:0:0:
376,24,46285,6,0,P|296:24|240:76,2,160,0|2|0,0:0|0:0|0:0,0:0:0:0:
424,88,47357,1,0,0:0:0:0:
472,152,47571,1,2,0:0:0:0:
472,232,47785,1,0,0:0:0:0:
424,296,48000,2,0,P|384:296|352:320,1,80
296,376,48428,1,2,0:0:0:0:
216,376,48642,1,0,0:0:0:0:
159,318,48857,6,0,P|128:296|88:296,1,80
40,232,49285,1,2,0:0:0:0:
40,152,49500,1,0,0:0:0:0:
88,88,49714,2,0,P|128:88|159:65,1,80
216,8,50142,1,2,0:0:0:0:
296,8,50357,6,0,L|364:52,1,80
320,120,50785,2,0,L|388:164,1,80,0|2,0:0|0:0,0:0:0:0:
448,212,51214,1,0,0:0:0:0:
392,268,51428,2,0,B|352:268|352:268|320:292,1,80
256,340,51857,1,2,0:0:0:0:
192,292,52071,2,0,B|160:268|160:268|120:268,1,80
116,188,52500,1,0,0:0:0:0:
44,152,52714,1,2,0:0:0:0:
44,72,52928,1,0,0:0:0:0:
116,36,53142,6,0,B|168:36|168:36|212:64|212:64|268:64,2,160,0|2|0,0:0|0:0|0:0,0:0:0:0:
44,72,54214,1,0,0:0:0:0:
44,92,54321,1,0,0:0:0:0:
44,112,54428,1,2,0:0:0:0:
92,176,54642,1,0,0:0:0:0:
148,236,54857,6,0,P|188:236|220:264,1,80,4|0,1:2|0:0,0:0:0:0:
364,236,55285,2,0,P|324:236|292:264,1,80,2|0,0:0|0:0,0:0:0:0:
256,328,55714,1,0,1:0:0:0:
328,360,55928,1,0,0:0:0:0:
348,360,56035,1,0,0:0:0:0:
368,360,56142,2,0,P|408:360|440:336,1,80,2|0,0:0|0:0,0:0:0:0:
472,264,56571,1,0,1:0:0:0:
472,184,56785,2,0,B|472:144|472:144|448:108,1,80,0|2,0:0|0:0,0:0:0:0:
400,48,57214,1,0,0:0:0:0:
320,48,57428,5,0,1:0:0:0:
256,92,57642,1,0,0:0:0:0:
256,92,57750,1,0,0:0:0:0:
256,92,57857,2,0,P|216:92|180:68,1,80,2|0,0:0|0:0,0:0:0:0:
32,116,58285,2,0,P|72:116|108:140,1,80,0|0,1:0|0:0,0:0:0:0:
105,247,58714,2,0,P|72:268|32:268,1,80,2|0,0:0|0:0,0:0:0:0:
182,312,59142,2,0,P|216:292|256:292,1,80,0|0,1:0|0:0,0:0:0:0:
324,336,59571,1,2,0:0:0:0:
388,288,59785,1,0,0:0:0:0:
448,236,60000,6,0,P|448:152|400:92,2,160,0|2|0,1:0|0:0|1:0,0:0:0:0:
388,288,61071,1,0,0:0:0:0:
368,272,61178,1,0,0:0:0:0:
348,256,61285,2,0,P|320:224|320:188,1,80,2|0,0:0|0:0,0:0:0:0:
256,140,61714,1,0,1:0:0:0:
192,188,61928,2,0,P|192:224|164:256,2,80,0|2|0,0:0|0:0|0:0,0:0:0:0:
256,140,62571,5,0,1:0:0:0:
256,60,62785,1,0,0:0:0:0:
256,60,62892,1,0,0:0:0:0:
256,60,63000,1,2,0:0:0:0:
336,60,63214,2,0,P|376:60|412:84,1,80,0|0,0:0|1:0,0:0:0:0:
176,60,63642,2,0,P|136:60|100:84,1,80,0|2,0:0|0:0,0:0:0:0:
160,136,64071,1,0,0:0:0:0:
216,192,64285,5,0,1:0:0:0:
296,192,64500,1,0,0:0:0:0:
352,136,64714,1,2,0:0:0:0:
416,184,64928,2,0,L|484:236,1,80,0|0,0:0|1:0,0:0:0:0:
496,344,65357,2,0,L|428:292,1,80,0|2,0:0|0:0,0:0:0:0:
384,360,65785,1,0,0:0:0:0:
352,288,66000,1,0,1:0:0:0:
296,344,66214,1,0,0:0:0:0:
216,344,66428,5,2,0:0:0:0:
160,288,66642,1,0,0:0:0:0:
128,360,66857,2,0,P|52:328|52:256,1,160,2|2,1:2|1:2,0:0:0:0:
128,24,67714,2,0,P|52:56|52:128,1,160,2|0,1:2|1:0,0:0:0:0:
256,84,68571,6,0,P|296:84|328:60,1,80,4|0,1:2|0:0,0:0:0:0:
408,60,69000,1,2,0:0:0:0:
468,116,69214,1,0,0:0:0:0:
440,192,69428,1,0,1:0:0:0:
468,268,69642,1,0,0:0:0:0:
452,280,69750,1,0,0:0:0:0:
436,292,69857,2,0,P|396:292|360:316,1,80,2|0,0:0|0:0,0:0:0:0:
296,356,70285,5,0,1:0:0:0:
216,356,70500,1,0,0:0:0:0:
149,312,70714,2,0,P|116:292|76:292,2,80,2|0|0,0:0|0:0|1:0,0:0:0:0:
216,272,71357,1,0,0:0:0:0:
216,252,71464,1,0,0:0:0:0:
216,232,71571,2,0,L|216:152,1,80,2|0,0:0|0:0,0:0:0:0:
296,152,72000,6,0,L|296:232,1,80,0|0,1:0|0:0,0:0:0:0:
256,84,72428,1,2,0:0:0:0:
320,36,72642,2,0,P|360:36|396:56,1,80,0|0,0:0|1:0,0:0:0:0:
192,36,73071,2,0,P|152:36|116:56,1,80,0|2,0:0|0:0,0:0:0:0:
172,112,73500,1,0,0:0:0:0:
192,188,73714,2,0,P|256:229|320:188,2,160,0|2|0,1:0|0:0|1:0,0:0:0:0:
116,208,74785,1,0,0:0:0:0:
96,216,74892,1,0,0:0:0:0:
76,224,75000,2,0,P|40:240|20:276,1,80,2|0,0:0|0:0,0:0:0:0:
96,300,75428,5,0,1:0:0:0:
160,348,75642,2,0,P|200:336|216:300,1,80,0|2,0:0|0:0,0:0:0:0:
352,348,76071,2,0,P|312:336|296:300,1,80,0|0,0:0|1:0,0:0:0:0:
256,236,76500,1,0,0:0:0:0:
256,236,76607,1,0,0:0:0:0:
256,236,76714,2,0,L|256:152,1,80,2|0,0:0|0:0,0:0:0:0:
296,88,77142,6,0,P|336:88|372:64,1,80,0|0,1:0|0:0,0:0:0:0:
216,88,77571,2,0,P|176:88|140:64,1,80,2|0,0:0|0:0,0:0:0:0:
200,12,78000,1,0,1:0:0:0:
312,12,78214,1,0,0:0:0:0:
256,156,78428,2,0,L|256:236,1,80,2|0,0:0|0:0,0:0:0:0:
212,304,78857,6,0,L|176:376,1,80,0|0,1:0|0:0,0:0:0:0:
336,376,79285,2,0,L|300:304,1,80,2|0,0:0|0:0,0:0:0:0:
256,236,79714,1,0,1:0:0:0:
188,192,79928,1,0,0:0:0:0:
216,116,80142,1,2,0:0:0:0:
296,116,80357,1,0,0:0:0:0:
324,192,80571,6,0,P|404:192|460:244,1,160,2|2,1:2|1:2,0:0:0:0:
188,192,81428,2,0,P|108:192|52:244,1,160,2|0,1:2|1:0,0:0:0:0:
256,336,82285,1,4,1:2:0:0:
68,48,85714,6,0,B|148:48|148:48|220:92,1,160,0|2,0:0|0:0,0:0:0:0:
295,89,86357,2,0,B|364:48|364:48|444:48,1,160
444,128,87000,1,2,0:0:0:0:
392,188,87214,2,0,B|348:232|348:232|356:276|356:276|320:316,1,160
256,364,87857,1,2,0:0:0:0:
192,316,88071,2,0,B|156:276|156:276|164:232|164:232|120:188,1,160
68,128,88714,1,2,0:0:0:0:
68,48,88928,6,0,L|40:28,3,20,0|0|0|0,0:0|0:0|0:0|0:0,0:0:0:0:
256,48,89571,2,0,P|336:48|400:96,2,160,2|0|2,0:0|0:0|0:0,0:0:0:0:
398,290,90857,2,0,P|336:336|256:336,2,160,0|2|0,0:0|0:0|0:0,0:0:0:0:
116,260,92142,5,2,0:0:0:0:
72,192,92357,1,0,0:0:0:0:
116,124,92571,2,0,P|196:124|256:76,1,160,0|2,0:0|0:0,0:0:0:0:
408,260,93642,6,0,L|368:336,1,80,0|2,0:0|0:0,0:0:0:0:
296,300,94071,1,0,0:0:0:0:
216,300,94285,1,0,0:0:0:0:
141,330,94500,2,0,L|104:260,1,80,0|2,0:0|0:0,0:0:0:0:
176,224,94928,1,0,0:0:0:0:
216,156,95142,1,0,0:0:0:0:
296,156,95357,1,0,0:0:0:0:
336,224,95571,1,2,0:0:0:0:
296,300,95785,5,0,0:0:0:0:
216,300,96000,1,0,0:0:0:0:
256,228,96214,1,0,0:0:0:0:
216,156,96428,2,0,L|164:92,1,80,2|0,0:0|0:0,0:0:0:0:
296,156,96857,2,0,L|348:92,1,80
256,88,97285,2,0,L|256:8,2,80,2|0|0,0:0|0:0|0:0,0:0:0:0:
216,156,97928,1,0,0:0:0:0:
256,228,98142,1,2,0:0:0:0:
296,300,98357,1,0,0:0:0:0:
216,300,98571,6,0,P|136:300|68:256,2,160,0|2|0,0:0|0:0|0:0,0:0:0:0:
336,192,99857,1,2,0:0:0:0:
384,120,100071,2,0,P|415:192|384:264,1,160
336,192,100714,1,2,0:0:0:0:
336,192,100928,2,0,L|496:192,1,160
500,272,101571,1,2,0:0:0:0:
444,328,101785,2,0,P|364:328|304:376,1,160
256,312,102428,1,2,0:0:0:0:
208,376,102642,6,0,L|172:376,3,20
76,244,103285,1,2,0:0:0:0:
76,84,103714,1,0,0:0:0:0:
228,32,104142,1,2,0:0:0:0:
388,32,104571,2,0,P|452:80|452:156,1,160,0|2,0:0|0:0,0:0:0:0:
436,260,105285,2,0,L|392:304,1,53.3333333333333
320,284,105642,1,0,0:0:0:0:
256,332,105857,1,2,0:0:0:0:
192,284,106071,1,0,0:0:0:0:
116,304,106285,6,0,P|52:256|52:180,1,160,0|2,0:0|0:0,0:0:0:0:
128,40,107142,2,0,P|192:88|192:164,1,160,0|2,0:0|0:0,0:0:0:0:
256,212,107785,1,0,0:0:0:0:
320,164,108000,1,0,0:0:0:0:
384,116,108214,2,0,P|424:116|456:140,1,80,0|2,0:0|0:0,0:0:0:0:
456,220,108642,1,0,0:0:0:0:
456,300,108857,6,0,P|416:300|384:324,1,80
312,352,109285,1,2,0:0:0:0:
256,296,109500,1,0,0:0:0:0:
200,352,109714,1,0,0:0:0:0:
127,322,109928,2,0,P|96:300|56:300,1,80,0|2,0:0|0:0,0:0:0:0:
56,220,110357,1,0,0:0:0:0:
136,208,110571,6,0,P|180:208|208:228,1,80
256,296,111000,1,2,0:0:0:0:
304,228,111214,2,0,P|332:208|376:208,1,80
360,284,111642,2,0,L|392:360,1,80,0|2,0:0|0:0,0:0:0:0:
152,284,112071,2,0,L|120:360,1,80
256,296,112500,2,0,L|256:216,1,80,0|2,0:0|0:0,0:0:0:0:
256,216,112928,1,0,0:0:0:0:
364,148,113142,6,0,P|324:148|292:120,1,80,4|0,1:2|0:0,0:0:0:0:
148,148,113571,2,0,P|188:148|220:120,1,80,2|0,0:0|0:0,0:0:0:0:
256,56,114000,1,0,1:0:0:0:
184,24,114214,1,0,0:0:0:0:
164,24,114321,1,0,0:0:0:0:
144,24,114428,2,0,P|104:24|72:48,1,80,2|0,0:0|0:0,0:0:0:0:
40,120,114857,1,0,1:0:0:0:
40,200,115071,2,0,B|40:240|40:240|64:276,1,80,0|2,0:0|0:0,0:0:0:0:
112,336,115500,1,0,0:0:0:0:
192,336,115714,5,0,1:0:0:0:
256,292,115928,1,0,0:0:0:0:
256,292,116035,1,0,0:0:0:0:
256,292,116142,2,0,P|296:292|332:316,1,80,2|0,0:0|0:0,0:0:0:0:
480,268,116571,2,0,P|440:268|404:244,1,80,0|0,1:0|0:0,0:0:0:0:
407,137,117000,2,0,P|440:116|480:116,1,80,2|0,0:0|0:0,0:0:0:0:
330,72,117428,2,0,P|296:92|256:92,1,80,0|0,1:0|0:0,0:0:0:0:
188,48,117857,5,2,0:0:0:0:
168,60,117964,1,0,0:0:0:0:
148,72,118071,1,0,0:0:0:0:
128,84,118178,1,0,0:0:0:0:
108,96,118285,2,0,P|108:180|156:240,2,160,0|2|0,1:0|0:0|1:0,0:0:0:0:
216,188,119357,5,0,0:0:0:0:
216,164,119464,1,0,0:0:0:0:
216,140,119571,2,0,P|188:108|188:72,1,80,2|2,0:0|0:0,0:0:0:0:
256,28,120000,1,0,1:0:0:0:
324,72,120214,2,0,P|324:108|296:140,1,80,0|2,0:0|0:0,0:0:0:0:
332,212,120642,1,0,0:0:0:0:
256,244,120857,5,0,1:0:0:0:
256,324,121071,1,0,0:0:0:0:
256,324,121178,1,0,0:0:0:0:
256,324,121285,1,2,0:0:0:0:
176,324,121500,2,0,P|136:324|100:300,1,80,0|0,0:0|1:0,0:0:0:0:
336,324,121928,2,0,P|376:324|412:300,1,80,0|2,0:0|0:0,0:0:0:0:
352,248,122357,1,0,0:0:0:0:
296,192,122571,5,0,1:0:0:0:
216,192,122785,1,0,0:0:0:0:
204,212,122892,1,0,0:0:0:0:
192,232,123000,1,2,0:0:0:0:
116,212,123214,2,0,L|48:160,1,80,0|0,0:0|1:0,0:0:0:0:
16,40,123642,2,0,L|84:92,1,80,0|2,0:0|0:0,0:0:0:0:
128,24,124071,1,0,0:0:0:0:
160,96,124285,1,0,1:0:0:0:
216,40,124500,1,0,0:0:0:0:
296,40,124714,5,2,0:0:0:0:
312,56,124821,1,0,0:0:0:0:
328,72,124928,1,0,0:0:0:0:
344,88,125035,1,0,0:0:0:0:
360,104,125142,2,0,P|360:184|312:244,1,160,2|2,1:2|1:2,0:0:0:0:
396,348,126000,2,0,P|316:348|256:300,1,160,2|0,1:2|1:0,0:0:0:0:
256,300,126857,6,0,P|216:300|184:324,1,80,4|0,1:2|0:0,0:0:0:0:
104,324,127285,1,2,0:0:0:0:
44,268,127500,1,0,0:0:0:0:
72,192,127714,1,0,1:0:0:0:
12,140,127928,1,0,0:0:0:0:
76,92,128142,2,0,P|116:92|152:68,1,80,2|0,0:0|0:0,0:0:0:0:
216,28,128571,5,0,1:0:0:0:
296,28,128785,1,0,0:0:0:0:
363,72,129000,2,0,P|396:92|436:92,2,80,2|0|0,0:0|0:0|1:0,0:0:0:0:
296,112,129642,1,0,0:0:0:0:
296,132,129750,1,0,0:0:0:0:
296,152,129857,2,0,L|296:232,1,80,2|0,0:0|0:0,0:0:0:0:
216,232,130285,6,0,L|216:152,1,80,0|0,1:0|0:0,0:0:0:0:
256,300,130714,1,2,0:0:0:0:
192,348,130928,2,0,P|152:348|116:328,1,80,0|0,0:0|1:0,0:0:0:0:
320,348,131357,2,0,P|360:348|396:328,1,80,0|2,0:0|0:0,0:0:0:0:
340,272,131785,1,0,0:0:0:0:
320,196,132000,2,0,P|256:155|192:196,2,160,0|2|0,1:0|0:0|1:0,0:0:0:0:
396,176,133071,1,0,0:0:0:0:
416,168,133178,1,0,0:0:0:0:
436,160,133285,2,0,P|472:144|492:108,1,80,2|0,0:0|0:0,0:0:0:0:
416,84,133714,5,0,1:0:0:0:
352,36,133928,2,0,P|312:48|296:84,1,80,0|2,0:0|0:0,0:0:0:0:
160,36,134357,2,0,P|200:48|216:84,1,80,0|0,0:0|1:0,0:0:0:0:
256,148,134785,1,0,0:0:0:0:
256,148,134892,1,0,0:0:0:0:
256,148,135000,2,0,L|256:232,1,80,2|0,0:0|0:0,0:0:0:0:
216,296,135428,6,0,P|176:296|140:320,1,80,0|0,1:0|0:0,0:0:0:0:
296,296,135857,2,0,P|336:296|372:320,1,80,2|0,0:0|0:0,0:0:0:0:
256,368,136285,1,0,1:0:0:0:
256,228,136500,1,0,0:0:0:0:
256,228,136607,1,0,0:0:0:0:
256,228,136714,2,0,L|256:144,1,80,2|0,0:0|0:0,0:0:0:0:
300,80,137142,6,0,L|336:8,1,80,0|0,1:0|0:0,0:0:0:0:
212,80,137571,2,0,L|176:8,1,80,2|0,0:0|0:0,0:0:0:0:
256,148,138000,1,0,1:0:0:0:
324,192,138214,1,0,0:0:0:0:
296,268,138428,1,2,0:0:0:0:
216,268,138642,1,0,0:0:0:0:
188,192,138857,6,0,P|108:192|52:140,1,160,2|2,1:2|1:2,0:0:0:0:
324,192,139714,2,0,P|404:192|460:140,1,160,2|0,1:2|1:0,0:0:0:0:
256,48,140571,1,4,0:2:0:0:
