osu file format v14

[General]
AudioFilename: Skyscraper (cut vers.).mp3
AudioLeadIn: 0
PreviewTime: 30020
Countdown: 0
SampleSet: Normal
StackLeniency: 0.6
Mode: 0
LetterboxInBreaks: 0
WidescreenStoryboard: 1

[Editor]
Bookmarks: 15020,30000,45000,60020
DistanceSpacing: 1
BeatDivisor: 4
GridSize: 4
TimelineZoom: 1.9

[Metadata]
Title:Skyscraper
TitleUnicode:Skyscraper
Artist:Yirsi
ArtistUnicode:Yirsi
Creator:Yirsi
Version:Insane
Source:
Tags:Electro EDM House
BeatmapID:822883
BeatmapSetID:375455

[Difficulty]
HPDrainRate:7
CircleSize:5
OverallDifficulty:8
ApproachRate:9
SliderMultiplier:2
SliderTickRate:1

[Events]
//Background and Video events
0,0,"BackgroundYirsi.jpg",0,0
//Break Periods
//Storyboard Layer 0 (Background)
//Storyboard Layer 1 (Fail)
//Storyboard Layer 2 (Pass)
//Storyboard Layer 3 (Foreground)
//Storyboard Sound Samples

[TimingPoints]
20,468.75,4,1,0,0,1,0
30020,-66.6666666666667,4,1,0,0,0,0

[HitObjects]
256,260,20,6,0,L|136:260,1,100
256,116,488,2,0,L|368:116,1,100
168,228,957,2,0,L|168:108,1,100
352,148,1426,2,0,L|352:288,1,100
172,96,1895,6,0,L|68:200,1,100
208,172,2363,2,0,L|104:276,1,100
336,172,2832,2,0,L|424:260,1,100
192,300,3301,2,0,L|312:300,1,100
372,224,3770,6,0,L|240:224,1,100
252,148,4238,2,0,L|120:148,1,100
412,84,4707,2,0,L|284:84,1,100
104,72,5176,2,0,L|224:72,1,100
216,296,5645,6,0,L|296:216,1,100
332,68,6113,2,0,L|248:152,1,100
128,124,6582,2,0,L|204:200,1,100
380,248,7051,2,0,L|292:160,1,100
140,276,7520,6,0,L|256:276,1,100
280,280,7871,1,0,0:0:0:0:
384,184,8223,1,0,0:0:0:0:
336,72,8457,2,0,L|252:156,1,100
384,184,8809,1,0,0:0:0:0:
240,128,9160,1,0,0:0:0:0:
104,76,9395,6,0,L|104:180,1,100
180,320,9863,2,0,L|180:208,1,100
216,76,10332,2,0,L|216:200,1,100
284,320,10801,1,0,0:0:0:0:
136,228,11035,6,0,P|184:256|236:216,1,100
348,200,11621,1,0,0:0:0:0:
300,68,11973,2,0,P|256:56|204:84,1,100
128,196,12559,1,0,0:0:0:0:
376,260,12910,6,0,P|328:296|280:280,1,100
248,216,13379,2,0,P|276:136|320:144,1,100
392,124,13848,2,0,P|360:64|296:72,1,100
164,152,14316,2,0,P|168:88|220:68,1,100
376,200,14785,2,0,P|352:244|272:228,1,100
256,248,15254,5,0,0:0:0:0:
112,240,15488,2,0,L|192:160,1,100
280,96,15957,1,0,0:0:0:0:
416,236,16191,1,0,0:0:0:0:
160,144,16426,2,0,L|240:224,1,100
368,300,16895,5,0,0:0:0:0:
360,180,17129,1,0,0:0:0:0:
272,252,17363,2,0,L|384:308,1,100
328,132,17832,5,0,0:0:0:0:
164,140,18066,1,0,0:0:0:0:
112,296,18301,1,0,0:0:0:0:
216,68,18535,2,0,L|120:164,1,100
260,296,19004,5,0,0:0:0:0:
372,224,19238,1,0,0:0:0:0:
248,160,19473,1,0,0:0:0:0:
368,92,19707,5,0,0:0:0:0:
372,224,19941,1,0,0:0:0:0:
260,296,20176,1,0,0:0:0:0:
104,156,20410,2,0,L|180:232,1,100
216,92,20879,5,0,0:0:0:0:
352,136,21113,1,0,0:0:0:0:
372,224,21348,5,0,0:0:0:0:
148,128,21582,1,0,0:0:0:0:
136,200,21816,5,0,0:0:0:0:
320,272,22051,1,0,0:0:0:0:
284,104,22285,1,0,0:0:0:0:
189,69,22520,5,0,0:0:0:0:
154,105,22637,1,0,0:0:0:0:
139,152,22754,1,0,0:0:0:0:
136,200,22871,1,0,0:0:0:0:
149,248,22988,1,0,0:0:0:0:
190,276,23105,1,0,0:0:0:0:
238,291,23223,1,0,0:0:0:0:
287,283,23340,1,0,0:0:0:0:
331,260,23457,2,0,L|387:215,3,50
338,189,23926,2,0,L|283:239,3,50
284,175,24395,5,0,0:0:0:0:
151,245,24863,2,0,L|237:332,1,100
353,272,25332,5,0,0:0:0:0:
319,96,25566,1,0,0:0:0:0:
263,246,25801,1,0,0:0:0:0:
406,101,26035,1,0,0:0:0:0:
206,80,26270,6,0,L|129:157,1,100
345,149,26738,2,0,L|221:149,1,100
153,247,27207,2,0,L|266:247,1,100
329,301,27676,2,0,L|414:216,1,100
256,192,28145,12,0,29785,0:0:0:0:
184,104,30020,6,0,P|103:190|102:241,1,150.000005722046
154,270,30371,1,0,0:0:0:0:
356,224,30723,1,0,0:0:0:0:
329,109,30957,2,0,P|240:73|145:125,1,150.000005722046
147,121,31309,1,0,0:0:0:0:
276,285,31660,5,0,0:0:0:0:
171,270,31895,2,0,P|113:194|139:105,1,150.000005722046
147,121,32246,1,0,0:0:0:0:
270,69,32598,2,0,P|351:83|402:181,1,150.000005722046
382,229,33066,5,0,0:0:0:0:
153,295,33301,1,0,0:0:0:0:
336,69,33535,1,0,0:0:0:0:
382,229,33770,1,0,0:0:0:0:
286,143,34121,5,0,0:0:0:0:
113,213,34473,2,0,L|278:213,1,150.000005722046
191,287,35059,1,0,0:0:0:0:
