osu file format v14

[General]
AudioFilename: Skyscraper (cut vers.).mp3
AudioLeadIn: 0
PreviewTime: 30020
Countdown: 0
SampleSet: Normal
StackLeniency: 0.7
Mode: 3
LetterboxInBreaks: 0
SpecialStyle: 0
WidescreenStoryboard: 0

[Editor]
Bookmarks: 30000,45000
DistanceSpacing: 1
BeatDivisor: 4
GridSize: 4
TimelineZoom: 2.4

[Metadata]
Title:Skyscraper
TitleUnicode:Skyscraper
Artist:Yirsi
ArtistUnicode:Yirsi
Creator:Yirsi
Version:4K NM
Source:
Tags:Electro EDM House
BeatmapID:822299
BeatmapSetID:375455

[Difficulty]
HPDrainRate:7
CircleSize:4
OverallDifficulty:6
ApproachRate:5
SliderMultiplier:1.4
SliderTickRate:1

[Events]
//Background and Video events
0,0,"BackgroundYirsi.jpg",0,0
//Break Periods
//Storyboard Layer 0 (Background)
//Storyboard Layer 1 (Fail)
//Storyboard Layer 2 (Pass)
//Storyboard Layer 3 (Foreground)
//Storyboard Sound Samples

[TimingPoints]
20,468.75,4,1,0,30,1,0

[HitObjects]
192,192,20,5,0,0:0:0:0:
448,192,20,1,0,0:0:0:0:
192,192,371,5,0,0:0:0:0:
448,192,371,1,0,0:0:0:0:
192,192,723,1,0,0:0:0:0:
448,192,723,1,0,0:0:0:0:
192,192,957,1,0,0:0:0:0:
448,192,957,1,0,0:0:0:0:
192,192,1309,1,0,0:0:0:0:
448,192,1309,1,0,0:0:0:0:
64,192,1895,1,0,0:0:0:0:
320,192,1895,1,0,0:0:0:0:
320,192,2246,1,0,0:0:0:0:
64,192,2246,1,0,0:0:0:0:
320,192,2598,1,0,0:0:0:0:
64,192,2598,1,0,0:0:0:0:
320,192,2832,1,0,0:0:0:0:
64,192,2832,1,0,0:0:0:0:
192,192,3535,1,0,0:0:0:0:
448,192,3535,1,0,0:0:0:0:
192,192,3770,1,0,0:0:0:0:
320,192,3770,1,0,0:0:0:0:
192,192,4121,1,0,0:0:0:0:
320,192,4121,1,0,0:0:0:0:
192,192,4473,1,0,0:0:0:0:
320,192,4473,1,0,0:0:0:0:
64,192,4707,1,0,0:0:0:0:
448,192,4707,1,0,0:0:0:0:
64,192,5059,1,0,0:0:0:0:
448,192,5059,1,0,0:0:0:0:
64,192,5410,1,0,0:0:0:0:
448,192,5410,1,0,0:0:0:0:
192,192,5645,1,0,0:0:0:0:
448,192,5645,1,0,0:0:0:0:
448,192,5996,1,0,0:0:0:0:
192,192,5996,1,0,0:0:0:0:
448,192,6348,1,0,0:0:0:0:
192,192,6348,1,0,0:0:0:0:
64,192,6582,1,0,0:0:0:0:
320,192,6582,1,0,0:0:0:0:
320,192,6934,1,0,0:0:0:0:
64,192,6934,1,0,0:0:0:0:
320,192,7285,1,0,0:0:0:0:
64,192,7285,1,0,0:0:0:0:
192,192,7520,1,0,0:0:0:0:
448,192,7520,1,0,0:0:0:0:
192,192,7871,1,0,0:0:0:0:
448,192,7871,1,0,0:0:0:0:
192,192,8223,1,0,0:0:0:0:
448,192,8223,1,0,0:0:0:0:
192,192,8457,1,0,0:0:0:0:
448,192,8457,1,0,0:0:0:0:
192,192,8809,1,0,0:0:0:0:
448,192,8809,1,0,0:0:0:0:
320,192,9395,1,0,0:0:0:0:
64,192,9395,1,0,0:0:0:0:
320,192,9746,1,0,0:0:0:0:
64,192,9746,1,0,0:0:0:0:
64,192,10098,1,0,0:0:0:0:
320,192,10098,1,0,0:0:0:0:
320,192,10332,1,0,0:0:0:0:
64,192,10332,1,0,0:0:0:0:
320,192,11035,1,0,0:0:0:0:
448,192,11035,1,0,0:0:0:0:
320,192,11270,1,0,0:0:0:0:
448,192,11270,1,0,0:0:0:0:
320,192,11621,1,0,0:0:0:0:
448,192,11621,1,0,0:0:0:0:
320,192,11973,1,0,0:0:0:0:
448,192,11973,1,0,0:0:0:0:
64,192,12207,1,0,0:0:0:0:
448,192,12207,1,0,0:0:0:0:
448,192,12559,1,0,0:0:0:0:
64,192,12559,1,0,0:0:0:0:
448,192,12910,1,0,0:0:0:0:
64,192,12910,1,0,0:0:0:0:
192,192,13145,1,0,0:0:0:0:
320,192,13145,1,0,0:0:0:0:
192,192,13496,1,0,0:0:0:0:
320,192,13496,1,0,0:0:0:0:
192,192,13848,1,0,0:0:0:0:
320,192,13848,1,0,0:0:0:0:
448,192,14082,1,0,0:0:0:0:
192,192,14082,1,0,0:0:0:0:
192,192,14434,1,0,0:0:0:0:
448,192,14434,1,0,0:0:0:0:
192,192,14785,1,0,0:0:0:0:
448,192,14785,1,0,0:0:0:0:
320,192,15020,1,0,0:0:0:0:
64,192,15020,1,0,0:0:0:0:
64,192,15371,1,0,0:0:0:0:
320,192,15488,1,0,0:0:0:0:
64,192,15723,1,0,0:0:0:0:
320,192,15957,1,0,0:0:0:0:
64,192,15957,1,0,0:0:0:0:
64,192,16309,1,0,0:0:0:0:
320,192,16426,1,0,0:0:0:0:
192,192,16895,1,0,0:0:0:0:
448,192,16895,1,0,0:0:0:0:
448,192,17246,1,0,0:0:0:0:
192,192,17363,1,0,0:0:0:0:
448,192,17598,1,0,0:0:0:0:
192,192,17832,1,0,0:0:0:0:
448,192,17832,1,0,0:0:0:0:
192,192,18301,1,0,0:0:0:0:
320,192,18535,1,0,0:0:0:0:
448,192,18770,1,0,0:0:0:0:
64,192,18770,1,0,0:0:0:0:
64,192,19121,1,0,0:0:0:0:
448,192,19238,1,0,0:0:0:0:
64,192,19473,1,0,0:0:0:0:
448,192,19707,1,0,0:0:0:0:
192,192,19707,1,0,0:0:0:0:
192,192,20059,1,0,0:0:0:0:
448,192,20176,1,0,0:0:0:0:
192,192,20410,1,0,0:0:0:0:
64,192,20645,1,0,0:0:0:0:
320,192,20645,1,0,0:0:0:0:
320,192,20996,1,0,0:0:0:0:
64,192,21113,1,0,0:0:0:0:
320,192,21348,1,0,0:0:0:0:
64,192,21582,1,0,0:0:0:0:
192,192,21582,1,0,0:0:0:0:
192,192,21934,1,0,0:0:0:0:
64,192,22051,1,0,0:0:0:0:
192,192,22285,1,0,0:0:0:0:
448,192,22520,1,0,0:0:0:0:
320,192,22520,1,0,0:0:0:0:
64,192,22520,128,0,24395:0:0:0:0:
320,192,22871,1,0,0:0:0:0:
448,192,22988,1,0,0:0:0:0:
320,192,23223,1,0,0:0:0:0:
448,192,23457,1,0,0:0:0:0:
320,192,23457,1,0,0:0:0:0:
448,192,23809,1,0,0:0:0:0:
320,192,23926,1,0,0:0:0:0:
192,192,24395,1,0,0:0:0:0:
320,192,24395,1,0,0:0:0:0:
192,192,24746,1,0,0:0:0:0:
320,192,24863,1,0,0:0:0:0:
192,192,25098,1,0,0:0:0:0:
320,192,25332,1,0,0:0:0:0:
192,192,25332,1,0,0:0:0:0:
320,192,25801,1,0,0:0:0:0:
64,192,26035,1,0,0:0:0:0:
448,192,26270,1,0,0:0:0:0:
192,192,26270,128,0,30020:0:0:0:0:
448,192,26738,1,0,0:0:0:0:
448,192,27207,1,0,0:0:0:0:
448,192,27676,1,0,0:0:0:0:
448,192,28145,1,0,0:0:0:0:
64,192,28145,128,0,30020:0:0:0:0:
448,192,28613,1,0,0:0:0:0:
448,192,29082,1,0,0:0:0:0:
448,192,29551,1,0,0:0:0:0:
320,192,30020,1,0,0:0:0:0:
448,192,30020,1,0,0:0:0:0:
192,192,30488,1,0,0:0:0:0:
64,192,30488,1,0,0:0:0:0:
192,192,30957,1,0,0:0:0:0:
320,192,30957,1,0,0:0:0:0:
64,192,31426,1,0,0:0:0:0:
448,192,31426,1,0,0:0:0:0:
320,192,31660,128,0,31895:0:0:0:0:
192,192,31895,1,0,0:0:0:0:
448,192,31895,1,0,0:0:0:0:
192,192,32363,1,0,0:0:0:0:
320,192,32363,1,0,0:0:0:0:
64,192,32832,1,0,0:0:0:0:
320,192,32832,1,0,0:0:0:0:
320,192,33301,1,0,0:0:0:0:
448,192,33301,1,0,0:0:0:0:
64,192,33535,128,0,33770:0:0:0:0:
192,192,33770,1,0,0:0:0:0:
320,192,33770,1,0,0:0:0:0:
448,192,34238,1,0,0:0:0:0:
192,192,34238,128,0,34707:0:0:0:0:
448,192,34707,1,0,0:0:0:0:
64,192,34707,1,0,0:0:0:0:
192,192,35176,1,0,0:0:0:0:
64,192,35176,1,0,0:0:0:0:
448,192,35410,128,0,35645:0:0:0:0:
320,192,35645,1,0,0:0:0:0:
192,192,35645,1,0,0:0:0:0:
448,192,36113,1,0,0:0:0:0:
320,192,36113,1,0,0:0:0:0:
64,192,36582,1,0,0:0:0:0:
320,192,36582,1,0,0:0:0:0:
192,192,37051,1,0,0:0:0:0:
320,192,37051,1,0,0:0:0:0:
448,192,37285,128,0,37520:0:0:0:0:
64,192,37520,1,0,0:0:0:0:
192,192,37520,1,0,0:0:0:0:
192,192,37988,1,0,0:0:0:0:
448,192,37988,1,0,0:0:0:0:
64,192,38457,1,0,0:0:0:0:
448,192,38457,1,0,0:0:0:0:
192,192,38926,1,0,0:0:0:0:
320,192,38926,1,0,0:0:0:0:
64,192,39160,128,0,39395:0:0:0:0:
448,192,39395,1,0,0:0:0:0:
320,192,39395,1,0,0:0:0:0:
320,192,39863,1,0,0:0:0:0:
64,192,39863,1,0,0:0:0:0:
192,192,40332,1,0,0:0:0:0:
448,192,40332,1,0,0:0:0:0:
192,192,40801,1,0,0:0:0:0:
64,192,40801,1,0,0:0:0:0:
320,192,41035,128,0,41270:0:0:0:0:
192,192,41270,1,0,0:0:0:0:
448,192,41270,1,0,0:0:0:0:
64,192,41738,128,0,42207:0:0:0:0:
448,192,41738,1,0,0:0:0:0:
320,192,42207,1,0,0:0:0:0:
192,192,42207,1,0,0:0:0:0:
448,192,42676,1,0,0:0:0:0:
192,192,42676,1,0,0:0:0:0:
320,192,42910,128,0,43145:0:0:0:0:
64,192,43145,1,0,0:0:0:0:
320,192,43613,1,0,0:0:0:0:
448,192,43613,1,0,0:0:0:0:
192,192,44082,1,0,0:0:0:0:
64,192,44082,1,0,0:0:0:0:
192,192,44551,1,0,0:0:0:0:
320,192,44551,1,0,0:0:0:0:
448,192,45020,1,0,0:0:0:0:
64,192,45020,1,0,0:0:0:0:
64,192,45371,1,0,0:0:0:0:
320,192,45488,1,0,0:0:0:0:
192,192,45488,1,0,0:0:0:0:
448,192,45723,1,0,0:0:0:0:
64,192,45957,1,0,0:0:0:0:
192,192,45957,1,0,0:0:0:0:
64,192,46309,1,0,0:0:0:0:
320,192,46426,1,0,0:0:0:0:
448,192,46426,1,0,0:0:0:0:
192,192,46660,128,0,46895:0:0:0:0:
320,192,46895,1,0,0:0:0:0:
64,192,46895,1,0,0:0:0:0:
448,192,47246,1,0,0:0:0:0:
192,192,47363,1,0,0:0:0:0:
320,192,47363,1,0,0:0:0:0:
448,192,47715,1,0,0:0:0:0:
192,192,47832,1,0,0:0:0:0:
64,192,47832,1,0,0:0:0:0:
64,192,48184,1,0,0:0:0:0:
192,192,48301,1,0,0:0:0:0:
320,192,48301,1,0,0:0:0:0:
448,192,48535,128,0,48770:0:0:0:0:
64,192,48770,1,0,0:0:0:0:
320,192,48770,1,0,0:0:0:0:
448,192,49121,1,0,0:0:0:0:
192,192,49238,1,0,0:0:0:0:
320,192,49238,128,0,49707:0:0:0:0:
64,192,49473,1,0,0:0:0:0:
448,192,49707,1,0,0:0:0:0:
192,192,49707,1,0,0:0:0:0:
320,192,50059,1,0,0:0:0:0:
64,192,50176,1,0,0:0:0:0:
448,192,50176,1,0,0:0:0:0:
192,192,50410,128,0,50645:0:0:0:0:
320,192,50645,1,0,0:0:0:0:
448,192,50645,1,0,0:0:0:0:
192,192,50996,1,0,0:0:0:0:
64,192,51113,1,0,0:0:0:0:
320,192,51113,1,0,0:0:0:0:
448,192,51348,1,0,0:0:0:0:
64,192,51582,1,0,0:0:0:0:
192,192,51582,1,0,0:0:0:0:
320,192,51934,1,0,0:0:0:0:
64,192,52051,1,0,0:0:0:0:
448,192,52051,1,0,0:0:0:0:
192,192,52285,128,0,52520:0:0:0:0:
320,192,52520,1,0,0:0:0:0:
448,192,52520,1,0,0:0:0:0:
64,192,52871,1,0,0:0:0:0:
192,192,52988,1,0,0:0:0:0:
320,192,52988,1,0,0:0:0:0:
448,192,53223,1,0,0:0:0:0:
64,192,53457,1,0,0:0:0:0:
192,192,53457,1,0,0:0:0:0:
192,192,53809,1,0,0:0:0:0:
448,192,53926,1,0,0:0:0:0:
320,192,53926,1,0,0:0:0:0:
320,192,54160,128,0,54395:0:0:0:0:
64,192,54395,1,0,0:0:0:0:
192,192,54395,1,0,0:0:0:0:
320,192,54746,1,0,0:0:0:0:
448,192,54863,1,0,0:0:0:0:
192,192,54863,1,0,0:0:0:0:
192,192,55098,1,0,0:0:0:0:
64,192,55332,1,0,0:0:0:0:
320,192,55332,1,0,0:0:0:0:
320,192,55684,1,0,0:0:0:0:
192,192,55801,1,0,0:0:0:0:
64,192,55801,1,0,0:0:0:0:
448,192,56035,128,0,56270:0:0:0:0:
192,192,56270,1,0,0:0:0:0:
320,192,56270,1,0,0:0:0:0:
320,192,56621,1,0,0:0:0:0:
192,192,56738,128,0,57207:0:0:0:0:
64,192,56738,1,0,0:0:0:0:
448,192,56973,1,0,0:0:0:0:
320,192,57207,1,0,0:0:0:0:
64,192,57207,1,0,0:0:0:0:
448,192,57559,1,0,0:0:0:0:
192,192,57676,1,0,0:0:0:0:
64,192,57676,1,0,0:0:0:0:
320,192,57910,128,0,58145:0:0:0:0:
192,192,58145,1,0,0:0:0:0:
448,192,58145,1,0,0:0:0:0:
64,192,58496,1,0,0:0:0:0:
320,192,58613,1,0,0:0:0:0:
192,192,58613,1,0,0:0:0:0:
64,192,58848,1,0,0:0:0:0:
448,192,59082,1,0,0:0:0:0:
64,192,59434,1,0,0:0:0:0:
192,192,59551,1,0,0:0:0:0:
320,192,59785,1,0,0:0:0:0:
64,192,60020,128,0,71270:0:0:0:0:
448,192,60020,128,0,71270:0:0:0:0:
192,192,60020,1,0,0:0:0:0:
320,192,60488,1,0,0:0:0:0:
192,192,60957,1,0,0:0:0:0:
320,192,61426,1,0,0:0:0:0:
192,192,61895,1,0,0:0:0:0:
320,192,62363,1,0,0:0:0:0:
192,192,62832,1,0,0:0:0:0:
320,192,63301,1,0,0:0:0:0:
192,192,63770,1,0,0:0:0:0:
320,192,64238,1,0,0:0:0:0:
192,192,64707,1,0,0:0:0:0:
320,192,65176,1,0,0:0:0:0:
192,192,65645,1,0,0:0:0:0:
320,192,66113,1,0,0:0:0:0:
192,192,66582,1,0,0:0:0:0:
320,192,67051,1,0,0:0:0:0:
