osu file format v14

[General]
AudioFilename: Skyscraper (cut vers.).mp3
AudioLeadIn: 0
PreviewTime: 30020
Countdown: 0
SampleSet: Normal
StackLeniency: 0.7
Mode: 3
LetterboxInBreaks: 0
SpecialStyle: 0
WidescreenStoryboard: 1

[Editor]
Bookmarks: 30000,45000
DistanceSpacing: 1
BeatDivisor: 4
GridSize: 4
TimelineZoom: 2.4

[Metadata]
Title:Skyscraper
TitleUnicode:Skyscraper
Artist:Yirsi
ArtistUnicode:Yirsi
Creator:Yirsi
Version:4K NM+
Source:
Tags:Electro EDM House
BeatmapID:822297
BeatmapSetID:375455

[Difficulty]
HPDrainRate:7
CircleSize:4
OverallDifficulty:6
ApproachRate:5
SliderMultiplier:1.4
SliderTickRate:1

[Events]
//Background and Video events
0,0,"BackgroundYirsi.jpg",0,0
//Break Periods
//Storyboard Layer 0 (Background)
//Storyboard Layer 1 (Fail)
//Storyboard Layer 2 (Pass)
//Storyboard Layer 3 (Foreground)
//Storyboard Sound Samples

[TimingPoints]
20,468.75,4,1,0,30,1,0

[HitObjects]
448,192,20,5,0,0:0:0:0:
64,192,20,1,0,0:0:0:0:
192,192,254,1,0,0:0:0:0:
64,192,371,1,0,0:0:0:0:
320,192,488,1,0,0:0:0:0:
192,192,723,1,0,0:0:0:0:
448,192,957,1,0,0:0:0:0:
64,192,957,1,0,0:0:0:0:
192,192,1191,1,0,0:0:0:0:
64,192,1309,1,0,0:0:0:0:
320,192,1426,1,0,0:0:0:0:
192,192,1660,1,0,0:0:0:0:
448,192,1895,1,0,0:0:0:0:
320,192,1895,1,0,0:0:0:0:
192,192,2129,1,0,0:0:0:0:
320,192,2246,1,0,0:0:0:0:
64,192,2363,1,0,0:0:0:0:
192,192,2598,1,0,0:0:0:0:
448,192,2832,1,0,0:0:0:0:
320,192,2832,1,0,0:0:0:0:
192,192,3066,1,0,0:0:0:0:
320,192,3301,1,0,0:0:0:0:
448,192,3535,1,0,0:0:0:0:
192,192,3770,1,0,0:0:0:0:
320,192,3770,1,0,0:0:0:0:
64,192,4004,1,0,0:0:0:0:
320,192,4121,1,0,0:0:0:0:
192,192,4238,1,0,0:0:0:0:
448,192,4473,1,0,0:0:0:0:
192,192,4707,1,0,0:0:0:0:
320,192,4707,1,0,0:0:0:0:
64,192,4941,1,0,0:0:0:0:
448,192,5059,1,0,0:0:0:0:
320,192,5176,1,0,0:0:0:0:
64,192,5410,1,0,0:0:0:0:
448,192,5645,1,0,0:0:0:0:
192,192,5645,1,0,0:0:0:0:
320,192,5879,1,0,0:0:0:0:
192,192,6113,1,0,0:0:0:0:
64,192,6348,1,0,0:0:0:0:
192,192,6582,1,0,0:0:0:0:
448,192,6582,1,0,0:0:0:0:
320,192,6816,1,0,0:0:0:0:
192,192,6934,1,0,0:0:0:0:
448,192,7051,1,0,0:0:0:0:
320,192,7285,1,0,0:0:0:0:
192,192,7520,1,0,0:0:0:0:
64,192,7520,1,0,0:0:0:0:
320,192,7754,1,0,0:0:0:0:
192,192,7871,1,0,0:0:0:0:
448,192,7988,1,0,0:0:0:0:
320,192,8223,1,0,0:0:0:0:
64,192,8457,1,0,0:0:0:0:
320,192,8691,1,0,0:0:0:0:
192,192,8809,1,0,0:0:0:0:
448,192,8926,1,0,0:0:0:0:
320,192,9160,1,0,0:0:0:0:
448,192,9395,1,0,0:0:0:0:
192,192,9629,1,0,0:0:0:0:
320,192,9746,1,0,0:0:0:0:
64,192,9863,1,0,0:0:0:0:
192,192,10098,1,0,0:0:0:0:
448,192,10332,1,0,0:0:0:0:
320,192,10566,1,0,0:0:0:0:
192,192,10801,1,0,0:0:0:0:
64,192,11035,1,0,0:0:0:0:
320,192,11270,1,0,0:0:0:0:
448,192,11270,128,0,15020:0:0:0:0:
64,192,11621,1,0,0:0:0:0:
64,192,11973,1,0,0:0:0:0:
192,192,12090,1,0,0:0:0:0:
320,192,12207,1,0,0:0:0:0:
320,192,12559,1,0,0:0:0:0:
320,192,12910,1,0,0:0:0:0:
64,192,13145,1,0,0:0:0:0:
64,192,13496,1,0,0:0:0:0:
64,192,13848,1,0,0:0:0:0:
320,192,13965,1,0,0:0:0:0:
192,192,14082,1,0,0:0:0:0:
192,192,14434,1,0,0:0:0:0:
192,192,14785,1,0,0:0:0:0:
64,192,15020,1,0,0:0:0:0:
320,192,15020,1,0,0:0:0:0:
64,192,15371,1,0,0:0:0:0:
320,192,15488,1,0,0:0:0:0:
448,192,15488,1,0,0:0:0:0:
192,192,15723,1,0,0:0:0:0:
64,192,15957,1,0,0:0:0:0:
448,192,15957,1,0,0:0:0:0:
320,192,16309,1,0,0:0:0:0:
192,192,16426,1,0,0:0:0:0:
64,192,16426,1,0,0:0:0:0:
320,192,16895,1,0,0:0:0:0:
448,192,16895,1,0,0:0:0:0:
192,192,17246,1,0,0:0:0:0:
64,192,17363,1,0,0:0:0:0:
320,192,17363,1,0,0:0:0:0:
448,192,17715,1,0,0:0:0:0:
192,192,17832,1,0,0:0:0:0:
320,192,17832,1,0,0:0:0:0:
64,192,18301,1,0,0:0:0:0:
448,192,18301,1,0,0:0:0:0:
192,192,18535,1,0,0:0:0:0:
320,192,18770,1,0,0:0:0:0:
448,192,18770,1,0,0:0:0:0:
64,192,19121,1,0,0:0:0:0:
192,192,19238,1,0,0:0:0:0:
448,192,19238,1,0,0:0:0:0:
64,192,19473,1,0,0:0:0:0:
192,192,19707,1,0,0:0:0:0:
320,192,19707,1,0,0:0:0:0:
448,192,20059,1,0,0:0:0:0:
64,192,20176,1,0,0:0:0:0:
192,192,20176,1,0,0:0:0:0:
320,192,20410,1,0,0:0:0:0:
192,192,20645,1,0,0:0:0:0:
448,192,20645,1,0,0:0:0:0:
