osu file format v14

[General]
AudioFilename: Skyscraper (cut vers.).mp3
AudioLeadIn: 0
PreviewTime: 30020
Countdown: 0
SampleSet: Normal
StackLeniency: 0.7
Mode: 3
LetterboxInBreaks: 0
SpecialStyle: 0
WidescreenStoryboard: 1

[Editor]
Bookmarks: 30000,45000
DistanceSpacing: 1
BeatDivisor: 4
GridSize: 4
TimelineZoom: 1.6

[Metadata]
Title:Skyscraper
TitleUnicode:Skyscraper
Artist:Yirsi
ArtistUnicode:Yirsi
Creator:Yirsi
Version:4K EZ
Source:
Tags:Electro EDM House
BeatmapID:822296
BeatmapSetID:375455

[Difficulty]
HPDrainRate:7
CircleSize:4
OverallDifficulty:7
ApproachRate:5
SliderMultiplier:1.4
SliderTickRate:1

[Events]
//Background and Video events
0,0,"BackgroundYirsi.jpg",0,0
//Break Periods
//Storyboard Layer 0 (Background)
//Storyboard Layer 1 (Fail)
//Storyboard Layer 2 (Pass)
//Storyboard Layer 3 (Foreground)
//Storyboard Sound Samples

[TimingPoints]
20,468.75,4,1,0,30,1,0

[HitObjects]
448,192,20,5,0,0:0:0:0:
448,192,371,1,0,0:0:0:0:
448,192,723,1,0,0:0:0:0:
448,192,957,1,0,0:0:0:0:
448,192,1309,1,0,0:0:0:0:
64,192,1895,1,0,0:0:0:0:
64,192,2246,1,0,0:0:0:0:
64,192,2598,1,0,0:0:0:0:
64,192,2832,1,0,0:0:0:0:
320,192,3535,1,0,0:0:0:0:
192,192,3770,1,0,0:0:0:0:
192,192,4121,1,0,0:0:0:0:
192,192,4473,1,0,0:0:0:0:
448,192,4707,1,0,0:0:0:0:
448,192,5059,1,0,0:0:0:0:
448,192,5410,1,0,0:0:0:0:
320,192,5645,1,0,0:0:0:0:
320,192,5996,1,0,0:0:0:0:
320,192,6348,1,0,0:0:0:0:
64,192,6582,1,0,0:0:0:0:
64,192,6934,1,0,0:0:0:0:
64,192,7285,1,0,0:0:0:0:
448,192,7520,1,0,0:0:0:0:
448,192,7871,1,0,0:0:0:0:
448,192,8223,1,0,0:0:0:0:
448,192,8457,1,0,0:0:0:0:
448,192,8809,1,0,0:0:0:0:
192,192,9395,1,0,0:0:0:0:
192,192,9746,1,0,0:0:0:0:
192,192,10098,1,0,0:0:0:0:
192,192,10332,1,0,0:0:0:0:
64,192,11035,1,0,0:0:0:0:
320,192,11270,1,0,0:0:0:0:
320,192,11621,1,0,0:0:0:0:
320,192,11973,1,0,0:0:0:0:
448,192,12207,1,0,0:0:0:0:
448,192,12559,1,0,0:0:0:0:
448,192,12910,1,0,0:0:0:0:
192,192,13145,1,0,0:0:0:0:
192,192,13496,1,0,0:0:0:0:
192,192,13848,1,0,0:0:0:0:
64,192,14082,1,0,0:0:0:0:
64,192,14434,1,0,0:0:0:0:
64,192,14785,1,0,0:0:0:0:
320,192,15020,1,0,0:0:0:0:
448,192,15020,1,0,0:0:0:0:
64,192,15488,1,0,0:0:0:0:
192,192,15957,1,0,0:0:0:0:
320,192,16426,1,0,0:0:0:0:
448,192,16895,1,0,0:0:0:0:
192,192,17363,1,0,0:0:0:0:
320,192,17832,1,0,0:0:0:0:
64,192,18301,1,0,0:0:0:0:
192,192,18770,1,0,0:0:0:0:
448,192,19238,1,0,0:0:0:0:
320,192,19707,1,0,0:0:0:0:
192,192,20176,1,0,0:0:0:0:
64,192,20645,1,0,0:0:0:0:
320,192,21113,1,0,0:0:0:0:
192,192,21582,1,0,0:0:0:0:
448,192,22051,1,0,0:0:0:0:
320,192,22520,128,0,26270:0:0:0:0:
64,192,22520,1,0,0:0:0:0:
64,192,22988,1,0,0:0:0:0:
64,192,23457,1,0,0:0:0:0:
64,192,23926,1,0,0:0:0:0:
192,192,24395,1,0,0:0:0:0:
192,192,24863,1,0,0:0:0:0:
192,192,25332,1,0,0:0:0:0:
192,192,25801,1,0,0:0:0:0:
448,192,26270,128,0,28145:0:0:0:0:
64,192,28145,128,0,30020:0:0:0:0:
320,192,30020,1,0,0:0:0:0:
448,192,30488,1,0,0:0:0:0:
192,192,30488,1,0,0:0:0:0:
64,192,30957,1,0,0:0:0:0:
320,192,31426,1,0,0:0:0:0:
448,192,31426,1,0,0:0:0:0:
192,192,31895,1,0,0:0:0:0:
64,192,32363,1,0,0:0:0:0:
320,192,32363,1,0,0:0:0:0:
448,192,32832,1,0,0:0:0:0:
320,192,33301,1,0,0:0:0:0:
192,192,33301,1,0,0:0:0:0:
64,192,33770,1,0,0:0:0:0:
192,192,34238,1,0,0:0:0:0:
448,192,34238,1,0,0:0:0:0:
320,192,34707,1,0,0:0:0:0:
192,192,35176,1,0,0:0:0:0:
64,192,35176,1,0,0:0:0:0:
320,192,35645,1,0,0:0:0:0:
64,192,36113,1,0,0:0:0:0:
448,192,36113,1,0,0:0:0:0:
192,192,36582,1,0,0:0:0:0:
320,192,37051,1,0,0:0:0:0:
448,192,37051,1,0,0:0:0:0:
192,192,37520,1,0,0:0:0:0:
64,192,37988,1,0,0:0:0:0:
320,192,37988,1,0,0:0:0:0:
448,192,38457,1,0,0:0:0:0:
320,192,38926,1,0,0:0:0:0:
192,192,38926,1,0,0:0:0:0:
64,192,39395,1,0,0:0:0:0:
192,192,39863,1,0,0:0:0:0:
448,192,39863,1,0,0:0:0:0:
320,192,40332,1,0,0:0:0:0:
192,192,40801,1,0,0:0:0:0:
64,192,40801,1,0,0:0:0:0:
320,192,41270,1,0,0:0:0:0:
64,192,41738,1,0,0:0:0:0:
448,192,41738,1,0,0:0:0:0:
192,192,42207,1,0,0:0:0:0:
64,192,42676,1,0,0:0:0:0:
320,192,42676,1,0,0:0:0:0:
192,192,43145,1,0,0:0:0:0:
320,192,43613,1,0,0:0:0:0:
448,192,43613,1,0,0:0:0:0:
64,192,44082,1,0,0:0:0:0:
192,192,44551,1,0,0:0:0:0:
320,192,44551,1,0,0:0:0:0:
448,192,45020,128,0,46895:0:0:0:0:
320,192,45488,1,0,0:0:0:0:
192,192,46426,1,0,0:0:0:0:
64,192,46895,128,0,48770:0:0:0:0:
320,192,47363,1,0,0:0:0:0:
192,192,48301,1,0,0:0:0:0:
320,192,48770,128,0,49707:0:0:0:0:
448,192,49238,1,0,0:0:0:0:
192,192,49707,128,0,50645:0:0:0:0:
64,192,50176,1,0,0:0:0:0:
448,192,50645,128,0,51582:0:0:0:0:
320,192,51113,1,0,0:0:0:0:
64,192,51582,128,0,52520:0:0:0:0:
192,192,52051,1,0,0:0:0:0:
448,192,52520,128,0,54395:0:0:0:0:
320,192,52520,1,0,0:0:0:0:
192,192,52988,1,0,0:0:0:0:
64,192,53457,1,0,0:0:0:0:
192,192,53926,1,0,0:0:0:0:
320,192,54395,128,0,56270:0:0:0:0:
64,192,54863,1,0,0:0:0:0:
448,192,55332,1,0,0:0:0:0:
192,192,55801,1,0,0:0:0:0:
64,192,56270,128,0,58145:0:0:0:0:
448,192,56738,1,0,0:0:0:0:
192,192,57207,1,0,0:0:0:0:
448,192,57676,1,0,0:0:0:0:
192,192,58145,128,0,59082:0:0:0:0:
320,192,58613,1,0,0:0:0:0:
448,192,59082,128,0,60020:0:0:0:0:
192,192,60020,1,0,0:0:0:0:
64,192,60020,128,0,67520:0:0:0:0:
