osu file format v5

[General]
AudioFilename: oc.mp3
AudioLeadIn: 0
PreviewTime: -1
Countdown: 0
SampleSet: Normal
StackLeniency: 0.7
Mode: 0
LetterboxInBreaks: 1
EditorBookmarks: 17433,18642,66472,88899,90626,107893,109620,113418,116181,176616

[Metadata]
Title:Ocean Avenue
Artist:Yellowcard
Creator:Mifune24
Version:Hard
Source:
Tags:

[Difficulty]
HPDrainRate:6
CircleSize:5
OverallDifficulty:6
SliderMultiplier:1.8
SliderTickRate:2

[Events]
//Background and Video events
1,-2200,"62dc6c71f55f190ab75588f3d420414d.avi"
//Break Periods
2,66651,71123
2,121561,131903
//Storyboard Layer 0 (Background)
//Storyboard Layer 1 (Failing)
//Storyboard Layer 2 (Passing)
//Storyboard Layer 3 (Foreground)
//Storyboard Sound Samples
//Background Colour Transformations
3,100,163,162,255

[TimingPoints]
3971,690.428254114398,4,1,0,61

[HitObjects]
96,64,6042,1,0
96,64,6214,1,0
96,64,6387,1,0
160,96,6732,1,0
224,64,7077,1,0
224,64,7250,1,0
288,64,7595,2,0,B|352:64|384:128,2,90
352,160,8803,5,0
352,160,8976,1,0
352,160,9149,1,0
288,192,9494,1,0
288,192,9667,1,0
224,160,10012,2,0,B|160:160|128:224,3,90
128,288,11565,5,0
128,288,11738,1,0
128,288,11910,1,0
192,256,12256,1,0
256,288,12601,1,0
256,288,12773,1,0
256,288,12946,1,0
256,288,13119,2,0,B|320:288|352:352,2,90
416,256,14672,5,0
416,256,14845,1,0
416,256,15017,1,0
416,192,15363,1,0
416,128,15708,1,0
416,128,15880,1,0
416,128,16053,2,0,B|224:128,1,180
96,128,17434,2,0,B|96:192|160:256|288:256|384:256,1,315
256,256,19678,5,0
256,192,20023,1,0
256,192,20196,1,0
256,128,20541,1,0
96,256,21231,5,0
96,256,21404,1,0
96,256,21576,2,0,B|96:64,1,180
224,64,22957,2,0,B|352:64|448:128|448:320,1,360
320,192,25201,5,4
256,192,25546,1,4
256,192,25719,1,4
192,192,26064,1,4
192,288,26582,1,4
256,288,26927,2,4,B|320:288,3,45
448,288,28135,5,0
448,288,28308,1,0
448,288,28481,1,0
416,224,28826,1,0
384,192,28999,1,0
416,160,29171,1,0
384,128,29344,1,0
416,96,29516,1,0
384,64,29689,2,0,B|320:32|288:96,2,90
288,128,30897,5,0
256,160,31070,1,0
288,192,31242,2,0,B|288:320,1,90
256,320,31760,1,0
224,352,31933,1,0
160,352,32278,1,0
160,352,32451,2,0,B|96:352|64:288,2,90
128,256,33659,5,0
96,224,33832,1,0
128,192,34004,1,0
128,128,34349,1,0
128,128,34695,1,0
128,128,34867,2,0,B|128:64|192:64,3,90
352,96,36766,5,0
384,128,36938,1,0
416,160,37111,1,0
416,224,37456,1,0
416,288,37801,1,0
384,320,37974,1,0
352,352,38147,2,0,B|160:352,1,180
32,352,39528,2,0,B|0:160|64:64|192:32,1,360
320,192,41771,5,4
256,192,42117,1,4
256,192,42289,1,4
192,192,42634,1,4
256,320,43325,5,0
224,288,43498,1,0
192,320,43670,1,0
160,288,43843,2,0,B|96:288|64:224|96:160,1,135
128,64,45051,2,0,B|320:64|384:192|384:288,1,360
320,128,47122,5,4
256,224,47640,1,4
192,128,48158,1,4
192,352,48848,5,0
224,288,49194,1,0
256,352,49539,1,0
288,288,49884,2,0,B|448:288,2,135
416,224,51610,1,0
384,160,51955,1,0
416,96,52300,1,0
384,32,52646,2,0,B|320:0|224:32|160:96|160:192|160:256,1,360
256,352,54717,5,2
224,288,55062,1,2
192,352,55407,2,2,B|32:352,2,135
64,288,57133,1,2
96,224,57479,1,2
64,160,57824,1,2
96,96,58169,2,2,B|192:32|320:32|448:128,1,360
288,160,60240,5,0
224,160,60586,1,0
160,160,60931,2,0,B|160:96|128:64|96:32|32:64|32:128|32:192,1,270
32,320,62657,1,0
32,320,63002,1,0
96,320,63347,1,0
96,320,63693,2,0,B|96:160|160:96|224:96|256:160|256:256|256:320|288:352|352:384|416:352|416:288|416:96,1,720
96,288,72323,5,0
96,288,72496,1,0
96,288,72668,1,0
128,224,73013,1,0
128,224,73186,1,0
160,160,73531,1,0
224,160,73876,1,0
288,160,74222,1,0
352,160,74567,1,0
384,224,74912,5,0
352,256,75085,1,0
320,288,75257,1,0
288,320,75430,1,0
256,352,75602,1,0
192,352,75948,1,0
128,352,76293,1,0
96,320,76465,1,0
64,288,76638,1,0
32,256,76811,1,0
0,224,76983,1,0
0,224,77329,1,0
32,128,77846,5,2
32,128,78019,1,2
32,128,78192,1,2
96,128,78537,1,2
160,128,78882,1,2
160,128,79055,1,2
160,128,79227,1,2
160,128,79400,2,2,B|256:128,2,90
256,64,80608,5,0
256,64,80781,1,0
256,64,80953,1,0
256,128,81298,1,0
256,128,81471,1,0
256,224,81989,1,0
256,256,82161,1,0
256,288,82334,1,0
96,352,83370,1,0
96,352,83542,2,0,B|288:384|448:352,1,315
192,192,85959,5,4
256,192,86304,1,4
256,192,86477,1,4
320,192,86822,1,4
448,96,87512,5,0
416,96,87685,1,0
384,96,87858,2,0,B|192:96,1,180
128,96,88893,2,0,B|64:96|0:160|0:256|32:320|96:384|192:352|224:320,1,450
192,160,91310,5,4
256,256,91827,1,4
320,160,92345,1,4
384,32,93036,5,0
352,96,93381,1,0
320,32,93726,1,0
288,96,94071,2,0,B|128:96,2,135
160,160,95797,1,0
192,224,96143,1,0
160,288,96488,1,0
192,352,96833,2,0,B|288:384|384:320|416:192|352:128,1,360
256,32,98904,5,2
224,96,99250,1,2
192,32,99595,2,2,B|32:32,2,135
64,128,101321,1,2
96,192,101666,1,2
64,256,102011,1,2
96,320,102357,2,2,B|192:352|288:288|320:192|256:96,1,360
192,64,104083,5,0
128,64,104428,1,0
64,64,104773,1,0
0,64,105118,1,4
0,64,105636,1,4
0,64,106154,1,4
0,192,106844,1,4
64,192,107190,1,4
128,192,107535,1,4
192,192,107880,2,4,B|192:288|288:352|384:352|448:320|480:288|512:192,1,450
512,128,109951,5,0
448,128,110296,1,0
384,128,110642,2,0,B|384:32|288:0|224:32|224:128,1,270
224,256,112368,1,0
224,256,112713,1,0
160,256,113058,1,0
160,256,113403,2,0,B|96:256|32:160|96:64|192:32|256:96|288:192|320:256|384:288|448:224|480:128|352:64,1,630
256,64,116338,5,2
256,128,116683,1,2
256,128,116856,2,2,B|256:224,1,90
160,192,117719,1,2
160,128,118064,1,2
160,128,118236,2,2,B|160:0,1,90
64,32,119099,1,2
64,96,119445,1,2
64,96,119617,2,2,B|64:192,1,90
64,288,120480,1,6
128,288,120825,1,6
128,288,120998,2,6,B|256:288,1,90
128,96,133081,5,0
160,96,133253,1,0
192,96,133426,1,0
224,96,133598,1,0
256,96,133771,1,0
352,96,134289,1,0
384,128,134461,1,0
416,160,134634,2,0,B|480:224|384:288,1,135
256,288,135842,5,0
224,320,136015,1,0
192,288,136188,1,0
160,320,136360,1,0
128,288,136533,1,0
96,320,136705,2,0,B|32:192|32:128|64:64|128:0,1,315
256,64,138604,5,2
224,96,138777,1,2
192,128,138949,1,2
160,160,139122,1,2
128,192,139294,1,2
96,224,139467,1,2
160,320,139985,1,2
192,352,140157,1,2
256,288,140503,1,2
320,224,140848,2,2,B|384:160|320:96,1,135
224,64,141884,2,4,B|160:0|64:64|32:128|64:224|128:256,1,315
256,288,143955,5,0
288,256,144127,1,0
320,224,144300,1,0
352,192,144473,1,0
384,160,144645,1,0
416,128,144818,1,0
384,96,144990,2,0,B|288:0,2,90
160,64,146717,5,0
128,96,146889,1,0
96,128,147062,1,0
64,160,147234,1,0
32,192,147407,1,0
0,224,147580,2,0,B|96:320|256:320|352:288,1,360
416,224,149478,5,0
384,192,149651,1,0
416,160,149823,1,0
384,128,149996,1,0
416,96,150169,1,0
384,64,150341,1,0
416,32,150514,1,0
416,32,150859,1,4
416,32,151204,1,4
416,32,151550,1,4
416,32,151895,1,4
160,64,152930,1,4
160,64,153448,1,4
96,64,153793,5,2
32,96,154139,1,2
96,128,154484,1,2
32,160,154829,2,2,B|32:320,2,135
160,160,156555,1,2
192,224,156900,1,2
224,160,157246,1,2
256,224,157591,2,2,B|352:224|448:160|416:64|320:32|256:32,1,360
128,64,159662,5,0
64,96,160007,1,0
128,128,160352,1,4
128,224,160870,1,4
128,320,161388,1,4
256,320,162079,1,2
320,320,162424,1,2
384,320,162769,1,2
448,320,163114,2,2,B|512:224|480:96|416:32|320:32,1,360
256,32,164840,5,2
224,96,165185,1,2
192,32,165531,1,2
160,96,165876,1,6
160,96,166394,1,6
160,96,166912,1,6
32,160,167602,1,2
32,224,167947,1,2
96,192,168292,1,2
96,256,168638,2,2,B|192:320|288:320|384:288|448:256,1,360
448,128,170709,5,0
384,128,171054,1,0
320,128,171399,2,0,B|320:64|256:0|192:32|160:96|160:160,1,270
160,288,173125,1,4
160,288,173471,1,4
224,288,173816,1,0
224,288,174161,2,0,B|352:288|416:192|384:64|256:96|160:224|64:192|32:96|160:0|288:32,1,630
352,32,177095,5,6
416,32,177441,1,6
416,32,177613,2,6,B|416:128,1,90
416,224,178476,1,6
416,288,178821,1,6
416,288,178994,2,6,B|288:288,1,90
224,288,179857,1,6
224,224,180202,1,6
224,224,180375,2,6,B|224:128,1,90
224,32,181238,1,6
288,32,181583,1,6
288,32,181756,2,6,B|416:32,1,90
384,128,182619,1,6
352,192,182964,1,6
352,192,183137,2,6,B|288:288,1,90
192,256,184000,1,6
160,192,184345,1,6
160,192,184517,2,6,B|96:96,1,90
256,192,186589,12,4,189696
