osu file format v12

[General]
AudioFilename: 01 - Always Summer.mp3
AudioLeadIn: 0
PreviewTime: 36102
Countdown: 0
SampleSet: Normal
StackLeniency: 0.7
Mode: 0
LetterboxInBreaks: 0

[Editor]
Bookmarks: 25886,127356,138121
DistanceSpacing: 1.2
BeatDivisor: 4
GridSize: 4

[Metadata]
Title:Always Summer
TitleUnicode:Always Summer
Artist:Yellowcard
ArtistUnicode:Yellowcard
Creator:Zero__wind
Version:Summer
Source:
Tags:Southern Air Rock Violin 384059043 Evil_Twilight
BeatmapID:215829
BeatmapSetID:76678

[Difficulty]
HPDrainRate:6
CircleSize:4
OverallDifficulty:7
ApproachRate:9
SliderMultiplier:2.1
SliderTickRate:2

[Events]
//Background and Video events
0,0,"summer.jpg",0,0
//Break Periods
2,48321,58109
2,107615,114580
2,147321,151286
//Storyboard Layer 0 (Background)
//Storyboard Layer 1 (Fail)
//Storyboard Layer 2 (Pass)
//Storyboard Layer 3 (Foreground)
//Storyboard Sound Samples
//Background Colour Transformations
3,100,163,162,255

[TimingPoints]
2945,352.941176470588,4,1,1,70,1,0
14239,-100,4,1,1,40,0,0
22444,-100,4,1,1,50,0,0
22709,-83.3333333333333,4,1,1,60,0,0
23062,-100,4,1,1,60,0,0
25709,-100,4,1,1,50,0,0
33739,-100,4,1,1,60,0,0
34003,-83.3333333333333,4,1,1,70,0,0
34356,-100,4,1,1,70,0,0
36827,-100,4,1,1,70,0,1
42297,-100,4,1,1,70,0,0
42474,-100,4,1,1,70,0,1
48121,-100,4,1,1,50,0,0
67621,-100,4,1,1,60,0,0
67886,-83.3333333333333,4,1,1,70,0,0
68239,-100,4,1,1,70,0,0
70709,-100,4,1,1,50,0,0
78915,-100,4,1,1,60,0,0
79180,-83.3333333333333,4,1,1,70,0,0
79533,-100,4,1,1,70,0,0
82003,-100,4,1,1,90,0,0
84827,-100,4,1,1,70,0,1
90297,-100,4,1,1,70,0,0
90474,-100,4,1,1,70,0,1
96474,-100,4,1,1,60,0,1
98944,-83.3333333333333,4,1,1,60,0,1
99297,-100,4,1,1,60,0,1
103003,-83.3333333333333,4,1,1,60,0,1
103356,-100,4,1,1,60,0,1
107062,-100,4,1,1,70,0,1
107239,-100,4,1,1,60,0,1
107415,-100,4,1,1,50,0,0
124356,-75.187969924812,4,2,1,70,0,1
124444,-75.187969924812,4,2,1,70,0,0
124709,-75.187969924812,4,1,1,60,0,0
124797,-75.187969924812,4,2,1,70,0,0
125415,-75.187969924812,4,1,1,60,0,0
125592,-75.187969924812,4,2,1,70,0,0
126121,-75.187969924812,4,1,1,60,0,0
126297,-75.187969924812,4,2,1,70,0,0
126827,-75.187969924812,4,1,1,60,0,0
127003,-75.187969924812,4,2,1,70,0,0
127533,-75.187969924812,4,1,1,60,0,0
127621,-75.187969924812,4,2,1,70,0,0
128239,-75.187969924812,4,1,1,60,0,0
128415,-75.187969924812,4,2,1,70,0,0
128944,-75.187969924812,4,1,1,60,0,0
129121,-75.187969924812,4,2,1,70,0,0
129650,-75.187969924812,4,1,1,60,0,0
129739,-75.187969924812,4,2,1,70,0,0
130356,-75.187969924812,4,1,1,60,0,0
130444,-75.187969924812,4,2,1,70,0,0
131062,-75.187969924812,4,1,1,60,0,0
131239,-75.187969924812,4,2,1,70,0,0
131768,-75.187969924812,4,1,1,60,0,0
131944,-75.187969924812,4,2,1,70,0,0
132474,-75.187969924812,4,1,1,60,0,0
132650,-75.187969924812,4,2,1,70,0,0
133180,-75.187969924812,4,1,1,60,0,0
133356,-75.187969924812,4,2,1,70,0,0
133886,-75.187969924812,4,1,1,60,0,0
133974,-75.187969924812,4,2,1,70,0,0
134592,-75.187969924812,4,1,1,60,0,0
134768,-75.187969924812,4,2,1,70,0,0
134944,-75.187969924812,4,1,1,60,0,0
135650,-75.187969924812,4,2,1,50,0,0
135739,-75.187969924812,4,2,1,70,0,0
136003,-75.187969924812,4,1,1,60,0,0
136180,-75.187969924812,4,2,1,70,0,0
136709,-75.187969924812,4,1,1,60,0,0
136797,-75.187969924812,4,2,1,70,0,0
137415,-75.187969924812,4,1,1,60,0,0
137592,-75.187969924812,4,2,1,70,0,0
138121,-75.187969924812,4,1,1,60,0,0
138209,-75.187969924812,4,2,1,70,0,0
138827,-75.187969924812,4,1,1,60,0,0
138915,-75.187969924812,4,2,1,70,0,0
139533,-75.187969924812,4,1,1,60,0,0
139621,-75.187969924812,4,2,1,70,0,0
140239,-75.187969924812,4,1,1,60,0,0
140327,-75.187969924812,4,2,1,70,0,0
140944,-75.187969924812,4,1,1,60,0,0
141033,-75.187969924812,4,2,1,70,0,0
141650,-75.187969924812,4,1,1,60,0,0
141827,-75.187969924812,4,2,1,70,0,0
142356,-75.187969924812,4,1,1,60,0,0
142533,-75.187969924812,4,2,1,70,0,0
143062,-75.187969924812,4,1,1,60,0,0
143239,-75.187969924812,4,2,1,70,0,0
143768,-75.187969924812,4,1,1,60,0,0
143944,-75.187969924812,4,2,1,70,0,0
144474,-75.187969924812,4,1,1,60,0,0
144650,-75.187969924812,4,2,1,70,0,0
145180,-75.187969924812,4,1,1,60,0,0
145356,-75.187969924812,4,2,1,70,0,0
145533,-75.187969924812,4,1,1,60,0,0
147121,-100,4,1,1,20,0,0
151886,-100,4,1,1,60,0,0
152592,-100,4,1,1,70,0,1
158062,-100,4,1,1,70,0,0
158239,-100,4,1,1,70,0,1
164239,-100,4,1,1,60,0,1
166709,-83.3333333333333,4,1,1,60,0,1
167062,-100,4,1,1,60,0,1
170768,-83.3333333333333,4,1,1,60,0,1
171121,-100,4,1,1,60,0,1
175092,-100,4,1,1,60,0,0
175180,-83.3333333333333,4,1,1,70,0,1
175268,-83.3333333333333,4,1,1,70,0,0
175533,-100,4,1,1,60,0,0
180650,-100,4,1,1,60,0,0
180827,-100,4,1,1,60,0,1
181003,-100,4,1,1,60,0,0
185768,-100,4,1,1,40,0,0

[Colours]
Combo1 : 22,152,56
Combo2 : 234,234,0
Combo3 : 46,78,155
Combo4 : 243,172,5

[HitObjects]
211,147,2944,1,4,0:0:0:0:
317,229,3121,1,0,0:0:0:0:
337,96,3297,2,0,P|384:112|428:156,1,105,8|0,0:0|0:0,0:0:0:0:
211,147,3650,1,0,0:0:0:0:
317,229,3827,2,0,P|310:266|272:324,1,105,0|8,0:0|0:0,0:0:0:0:
128,244,4180,2,0,B|72:200|68:112|124:56,1,210
224,24,4709,5,8,0:0:0:0:
211,147,4886,1,0,0:0:0:0:
352,72,5062,1,0,0:0:0:0:
292,196,5239,1,0,0:0:0:0:
452,188,5415,1,8,0:0:0:0:
252,272,5592,1,0,0:0:0:0:
145,41,5768,5,0,0:0:0:0:
200,256,5944,1,0,0:0:0:0:
178,255,6297,5,0,0:0:0:0:
146,42,6474,2,0,P|201:76|217:111,1,105
165,338,6827,2,0,P|110:304|94:269,1,105,8|0,0:0|0:0,0:0:0:0:
380,92,7356,5,0,0:0:0:0:
224,172,7533,1,8,0:0:0:0:
280,48,7709,1,0,0:0:0:0:
340,172,7886,1,0,0:0:0:0:
452,248,8062,1,0,0:0:0:0:
452,112,8239,1,8,0:0:0:0:
348,28,8415,1,0,0:0:0:0:
184,148,8592,6,0,P|129:120|101:84,1,105,4|0,0:0|0:0,0:0:0:0:
29,237,8944,2,0,P|61:285|105:305,1,105,8|0,0:0|0:0,0:0:0:0:
248,164,9297,2,0,P|192:168|152:196,1,105,0|0,0:0|0:0,0:0:0:0:
320,304,9650,1,8,0:0:0:0:
441,186,9827,2,0,B|440:104|375:71|375:71|364:32|384:0,1,210
243,147,10356,5,8,0:0:0:0:
244,300,10533,1,0,0:0:0:0:
375,224,10709,1,0,0:0:0:0:
309,109,10886,5,0,0:0:0:0:
309,262,11062,1,8,0:0:0:0:
441,186,11239,1,0,0:0:0:0:
375,71,11415,5,0,0:0:0:0:
244,224,11592,1,0,0:0:0:0:
248,244,11944,5,0,0:0:0:0:
376,144,12121,2,0,P|425:117|472:124,1,105,0|0,0:0|0:0,0:0:0:0:
344,304,12474,2,0,P|296:344|256:356,1,105,8|0,0:0|0:0,0:0:0:0:
4,56,13003,5,0,0:0:0:0:
96,124,13180,1,8,0:0:0:0:
208,96,13356,1,0,0:0:0:0:
300,168,13533,1,0,0:0:0:0:
414,150,13709,1,0,0:0:0:0:
424,261,13886,1,8,0:0:0:0:
407,302,13974,1,0,0:0:0:0:
381,338,14062,1,0,0:0:0:0:
341,357,14150,1,0,0:0:0:0:
296,360,14239,6,0,B|216:380|148:352|148:352|80:372,1,210,4|8,0:0|0:0,0:0:0:0:
24,284,14768,1,0,0:0:0:0:
24,284,14944,2,0,L|128:252,1,105
332,288,15297,2,0,P|358:238|349:190,1,105,8|0,0:0|0:0,0:0:0:0:
250,39,15650,6,0,B|209:41|209:41|185:37|185:37|141:41,1,105,0|0,0:0|0:0,0:0:0:0:
104,48,15915,1,0,0:0:0:0:
102,90,16003,2,0,B|104:131|104:131|100:155|100:155|104:199,1,105,8|0,0:0|0:0,0:0:0:0:
160,328,16356,2,0,L|201:231,1,105
102,90,16709,1,8,0:0:0:0:
201,231,16886,1,0,0:0:0:0:
64,184,17062,6,0,B|17:142|17:142|12:99,1,105
208,80,17415,2,0,B|264:108|264:108|280:148,1,105,8|0,0:0|0:0,0:0:0:0:
452,72,17768,2,0,B|408:104|372:80|372:80|388:144|388:144|376:200,1,210,0|8,0:0|0:0,0:0:0:0:
256,380,18297,2,0,P|313:382|360:372,1,105
295,250,18650,1,0,0:0:0:0:
295,250,18827,2,0,L|276:147,1,105,8|0,0:0|0:0,0:0:0:0:
225,21,19180,5,0,0:0:0:0:
276,147,19356,1,0,0:0:0:0:
152,20,19533,1,8,0:0:0:0:
352,148,19709,1,0,0:0:0:0:
152,20,19886,6,0,P|120:76|125:113,1,105,4|0,0:0|0:0,0:0:0:0:
352,148,20239,2,0,P|384:92|376:48,1,105,8|0,0:0|0:0,0:0:0:0:
252,84,20592,2,0,B|214:148|214:148|236:198|236:198|197:268,1,210,0|8,0:0|0:0,0:0:0:0:
60,244,21121,1,0,0:0:0:0:
100,120,21297,2,0,B|136:92|136:92|168:40,1,105
184,256,21650,5,8,0:0:0:0:
100,120,21827,1,0,0:0:0:0:
242,48,22003,1,8,0:0:0:0:
379,133,22180,1,8,0:0:0:0:
367,174,22268,1,0,0:0:0:0:
348,212,22356,1,0,0:0:0:0:
313,236,22445,1,0,0:0:0:0:
275,255,22533,1,0,0:0:0:0:
234,264,22621,1,0,0:0:0:0:
192,268,22709,6,0,B|152:268|120:240|120:240|84:256|84:256|100:208|100:208|76:156|104:112,1,251.999992309571,4|8,0:0|0:0,0:0:0:0:
380,112,23239,2,0,P|426:139|450:188,1,105
206,156,23592,2,0,P|203:95|219:51,1,105,0|8,0:0|0:0,0:0:0:0:
348,212,23944,1,0,0:0:0:0:
344,233,24297,5,8,0:0:0:0:
380,112,24474,2,0,P|414:64|456:48,1,105,8|0,0:0|0:0,0:0:0:0:
452,269,24827,2,0,P|432:309|380:341,1,105,8|0,0:0|0:0,0:0:0:0:
236,316,25180,1,8,0:0:0:0:
196,303,25268,1,0,0:0:0:0:
159,283,25356,1,0,0:0:0:0:
127,255,25445,1,0,0:0:0:0:
107,219,25533,1,4,0:0:0:0:
60,92,25709,5,0,0:0:0:0:
256,48,25886,1,8,0:0:0:0:
144,176,26062,1,0,0:0:0:0:
164,8,26239,2,0,P|176:108|267:148,1,210,0|8,0:0|0:0,0:0:0:0:
419,124,26768,1,0,0:0:0:0:
419,124,26944,5,0,0:0:0:0:
450,24,27121,1,0,0:0:0:0:
504,212,27297,1,8,0:0:0:0:
427,283,27474,1,0,0:0:0:0:
299,218,27650,5,0,0:0:0:0:
276,116,27827,1,0,0:0:0:0:
432,24,28003,1,8,0:0:0:0:
316,200,28180,1,0,0:0:0:0:
239,51,28356,6,0,B|284:100|344:72|344:72|366:113|419:123,1,210,0|8,0:0|0:0,0:0:0:0:
304,4,28886,1,0,0:0:0:0:
132,168,29062,2,0,L|44:226,1,105
236,224,29415,2,0,L|320:160,1,105,8|0,0:0|0:0,0:0:0:0:
132,168,29768,5,0,0:0:0:0:
319,160,29944,1,0,0:0:0:0:
188,292,30120,1,8,0:0:0:0:
180,28,30297,1,0,0:0:0:0:
344,64,30474,2,0,P|400:100|415:133,1,105
156,124,30827,2,0,P|100:88|85:55,1,105,8|0,0:0|0:0,0:0:0:0:
344,64,31180,5,0,0:0:0:0:
276,256,31356,1,0,0:0:0:0:
156,124,31533,1,8,0:0:0:0:
352,154,31709,1,0,0:0:0:0:
204,332,31886,2,0,B|159:266|180:188|251:154,1,210,0|8,0:0|0:0,0:0:0:0:
397,253,32415,6,0,P|432:232|460:176,1,105
300,96,32768,1,0,0:0:0:0:
300,96,32945,1,8,0:0:0:0:
128,256,33121,1,0,0:0:0:0:
128,256,33298,1,8,0:0:0:0:
150,123,33474,1,8,0:0:0:0:
189,140,33562,1,0,0:0:0:0:
224,164,33650,1,0,0:0:0:0:
256,192,33739,1,0,0:0:0:0:
277,228,33827,1,0,0:0:0:0:
311,254,33915,1,0,0:0:0:0:
347,278,34003,6,0,B|391:302|431:266|431:266|415:238|395:210|395:210|487:158,1,251.999992309571,4|8,0:0|0:0,0:0:0:0:
188,64,34533,2,0,L|97:116,1,105
220,232,34886,1,0,0:0:0:0:
296,104,35062,2,0,L|386:51,1,105,8|0,0:0|0:0,0:0:0:0:
500,192,35591,5,8,0:0:0:0:
368,356,35767,1,8,0:0:0:0:
392,240,35944,1,0,0:0:0:0:
216,296,36120,1,8,0:0:0:0:
348,132,36297,1,8,0:0:0:0:
216,296,36827,6,0,P|108:325|18:292,1,210,4|8,0:0|0:0,0:0:0:0:
296,196,37356,2,0,P|407:196|486:141,1,210,4|0,0:2|0:0,0:0:0:0:
216,96,37886,2,0,P|120:152|24:144,1,210,8|0,0:0|0:0,0:0:0:0:
104,32,38415,1,0,0:0:0:0:
216,96,38592,5,8,0:0:0:0:
296,196,38768,1,0,0:0:0:0:
468,140,38945,1,0,0:0:0:0:
356,84,39120,1,0,0:0:0:0:
388,216,39297,1,8,0:0:0:0:
500,140,39473,1,0,0:0:0:0:
412,332,39650,6,0,P|308:284|268:201,1,210,4|8,0:0|0:0,0:0:0:0:
145,133,40180,1,0,0:0:0:0:
68,360,40356,2,0,P|100:356|160:316,1,105
68,244,40709,1,8,0:0:0:0:
12,144,40886,6,0,P|104:136|180:216,1,210
253,311,41415,2,0,P|293:267|304:224,1,105,8|0,0:0|0:0,0:0:0:0:
443,23,41768,2,0,P|412:28|352:68,1,105
304,224,42121,1,8,0:0:0:0:
444,140,42297,1,0,0:0:0:0:
334,336,42474,6,0,P|232:316|188:228,1,210,4|8,0:0|0:0,0:0:0:0:
324,43,43003,2,0,P|358:141|304:224,1,210,4|0,0:2|0:0,0:0:0:0:
89,199,43533,2,0,P|157:121|256:127,1,210,8|0,0:0|0:0,0:0:0:0:
36,316,44062,1,0,0:0:0:0:
89,199,44239,5,8,0:0:0:0:
192,308,44415,2,0,P|156:348|104:372,1,105
89,199,44768,1,0,0:0:0:0:
232,200,44944,2,0,P|280:232|302:272,1,105,8|0,0:0|0:0,0:0:0:0:
188,36,45297,6,0,P|116:84|89:199,1,210,0|8,0:0|0:0,0:0:0:0:
196,284,45827,1,0,0:0:0:0:
294,214,46003,2,0,P|251:176|200:164,1,105
112,352,46356,1,8,0:0:0:0:
323,347,46533,6,0,P|396:300|423:185,1,210,0|0,0:0|0:0,0:0:0:0:
416,24,47062,2,0,L|312:68,1,105,8|0,0:0|0:0,0:0:0:0:
156,68,47415,1,8,0:0:0:0:
196,200,47592,1,0,0:0:0:0:
217,235,47680,1,0,0:0:0:0:
246,265,47768,1,8,0:0:0:0:
278,289,47856,1,8,0:0:0:0:
314,309,47945,1,8,0:0:0:0:
352,324,48033,1,8,0:0:0:0:
393,331,48121,1,4,0:0:0:0:
312,332,58709,5,8,0:0:0:0:
396,220,58886,1,8,0:0:0:0:
404,180,58974,1,0,0:0:0:0:
397,139,59062,1,0,0:0:0:0:
380,101,59150,1,0,0:0:0:0:
351,72,59239,1,0,0:0:0:0:
312,52,59327,1,0,0:0:0:0:
272,44,59415,6,0,B|220:32|220:32|168:44|168:44|140:88|72:112,1,210,4|8,0:0|0:0,0:0:0:0:
87,106,59945,1,0,0:0:0:0:
299,235,60121,2,0,L|396:276,1,105
208,324,60474,2,0,L|112:365,1,105,8|0,0:0|0:0,0:0:0:0:
299,235,60827,5,0,0:0:0:0:
208,324,61003,1,0,0:0:0:0:
220,200,61180,1,8,0:0:0:0:
288,360,61356,1,0,0:0:0:0:
350,124,61533,5,0,0:0:0:0:
158,316,61709,1,0,0:0:0:0:
170,124,61886,1,8,0:0:0:0:
368,316,62062,1,0,0:0:0:0:
216,364,62239,6,0,P|181:311|176:270,1,105,4|0,0:0|0:0,0:0:0:0:
292,112,62592,1,8,0:0:0:0:
472,160,62768,1,0,0:0:0:0:
376,268,62945,2,0,P|364:220|380:164,1,105
451,43,63297,2,0,P|392:52|348:44,1,105,8|0,0:0|0:0,0:0:0:0:
184,41,63650,6,0,B|88:85|88:85|104:145|64:181,1,210,2|8,0:2|0:0,0:0:0:0:
168,296,64180,2,0,P|128:328|76:340,1,105
292,304,64533,2,0,P|340:280|376:236,1,105,0|8,0:0|0:0,0:0:0:0:
220,80,64886,2,0,P|172:104|136:148,1,105,0|4,0:0|0:0,0:0:0:0:
200,248,65239,5,0,0:0:0:0:
312,136,65415,1,8,0:0:0:0:
292,304,65592,1,0,0:0:0:0:
220,80,65768,1,0,0:0:0:0:
220,58,66121,5,8,0:0:0:0:
166,261,66297,1,0,0:0:0:0:
295,133,66474,1,0,0:0:0:0:
92,187,66650,1,0,0:0:0:0:
267,233,66827,1,8,0:0:0:0:
119,86,67003,1,0,0:0:0:0:
16,168,67180,1,8,0:0:0:0:
34,300,67356,5,8,0:0:0:0:
64,329,67445,1,0,0:0:0:0:
101,350,67533,1,0,0:0:0:0:
139,368,67621,1,0,0:0:0:0:
180,376,67709,1,0,0:0:0:0:
219,362,67797,1,0,0:0:0:0:
260,348,67886,2,0,B|304:344|348:328|348:328|416:356|416:356|504:376,1,251.999992309571,4|8,0:0|0:0,0:0:0:0:
316,240,68415,2,0,P|268:260|216:264,1,105
504,292,68768,2,0,B|444:276|444:276|400:256,1,105,0|8,0:0|0:0,0:0:0:0:
215,263,69121,1,0,0:0:0:0:
195,256,69474,5,8,0:0:0:0:
163,80,69650,1,0,0:0:0:0:
15,180,69827,1,0,0:0:0:0:
195,256,70003,5,8,0:0:0:0:
244,120,70180,1,0,0:0:0:0:
104,144,70356,1,8,0:0:0:0:
195,256,70533,1,0,0:0:0:0:
304,314,70709,5,0,0:0:0:0:
304,314,70797,1,0,0:0:0:0:
304,314,70886,2,0,P|323:276|315:216,1,105,0|8,0:0|0:0,0:0:0:0:
272,96,71239,1,0,0:0:0:0:
400,252,71415,2,0,P|440:284|496:288,1,105
444,88,71768,1,8,0:0:0:0:
271,15,71945,6,0,P|213:18|172:40,1,105,0|0,0:0|0:0,0:0:0:0:
112,216,72297,2,0,P|64:217|19:184,1,105,0|8,0:0|0:0,0:0:0:0:
255,167,72650,1,0,0:0:0:0:
372,328,72827,1,0,0:0:0:0:
248,168,73003,1,0,0:0:0:0:
403,293,73180,1,8,0:0:0:0:
376,160,73356,1,0,0:0:0:0:
196,340,73533,6,0,P|148:368|96:376,1,105,0|0,0:0|0:0,0:0:0:0:
108,232,73885,1,8,0:0:0:0:
196,340,74062,1,0,0:0:0:0:
236,216,74239,2,0,P|184:128|84:100,1,210,0|8,0:0|0:0,0:0:0:0:
108,232,74768,1,0,0:0:0:0:
344,168,74944,5,0,0:0:0:0:
313,44,75121,1,0,0:0:0:0:
103,125,75297,2,0,P|136:167|180:192,1,105,8|0,0:0|0:0,0:0:0:0:
272,300,75650,1,0,0:0:0:0:
452,168,75827,1,0,0:0:0:0:
432,360,76003,1,8,0:0:0:0:
356,260,76180,2,0,P|332:204|336:160,1,105,0|4,0:0|0:0,0:0:0:0:
452,168,76533,5,0,0:0:0:0:
452,168,76621,1,0,0:0:0:0:
452,168,76709,1,8,0:0:0:0:
356,260,76886,2,0,P|312:296|264:312,1,105
266,311,77415,1,8,0:0:0:0:
120,296,77592,1,0,0:0:0:0:
140,152,77768,5,0,0:0:0:0:
328,112,77945,1,0,0:0:0:0:
176,192,78121,1,8,0:0:0:0:
288,40,78297,1,0,0:0:0:0:
388,172,78474,1,8,0:0:0:0:
348,304,78650,1,8,0:0:0:0:
324,340,78739,1,0,0:0:0:0:
288,360,78827,1,0,0:0:0:0:
248,375,78915,1,0,0:0:0:0:
207,364,79003,1,0,0:0:0:0:
168,348,79092,1,0,0:0:0:0:
140,316,79180,6,0,B|120:266|120:266|45:232|52:149|52:149|20:108,1,251.999992309571,4|8,0:0|0:0,0:0:0:0:
132,32,79709,1,0,0:0:0:0:
19,107,79886,1,0,0:0:0:0:
167,161,80062,1,0,0:0:0:0:
132,32,80239,6,0,L|28:8,1,105,8|0,0:0|0:0,0:0:0:0:
167,161,80592,2,0,L|269:184,1,105,0|0,0:0|0:0,0:0:0:0:
388,276,80944,6,0,L|440:300,2,52.5,8|0|0,0:0|0:0|0:0,0:0:0:0:
270,64,81297,2,0,L|265:12,2,52.5,8|0|0,0:0|0:0|0:0,0:0:0:0:
145,271,81650,2,0,L|102:302,2,52.5,8|0|0,0:0|0:0|0:0,0:0:0:0:
388,276,82003,5,4,2:0:0:0:
270,64,82533,1,4,2:0:0:0:
145,271,83062,1,4,2:0:0:0:
145,271,84827,6,0,P|256:300|316:380,1,210,4|8,0:0|0:0,0:0:0:0:
271,63,85356,2,0,P|190:145|100:159,1,210,4|0,0:2|0:0,0:0:0:0:
387,277,85886,2,0,P|357:166|390:81,1,210,8|0,0:0|0:0,0:0:0:0:
284,4,86415,1,0,0:0:0:0:
268,204,86592,5,8,0:0:0:0:
140,28,86768,1,0,0:0:0:0:
300,292,86945,1,0,0:0:0:0:
76,160,87121,1,0,0:0:0:0:
256,376,87297,1,8,0:0:0:0:
120,300,87474,1,0,0:0:0:0:
345,382,87650,6,0,P|396:296|349:204,1,210,4|8,0:0|0:0,0:0:0:0:
248,116,88180,1,0,0:0:0:0:
384,100,88356,2,0,P|427:127|456:172,1,105,0|0,0:0|0:0,0:0:0:0:
372,2,88709,1,8,0:0:0:0:
183,26,88886,6,0,P|132:112|179:204,1,210,0|0,0:0|0:0,0:0:0:0:
177,331,89415,2,0,P|222:309|253:265,1,105,8|0,0:0|0:0,0:0:0:0:
24,244,89768,2,0,P|55:308|81:328,1,105,0|0,0:0|0:0,0:0:0:0:
299,353,90121,2,0,P|340:308|353:265,1,105,8|0,0:0|0:0,0:0:0:0:
352,40,90474,6,0,P|384:144|456:212,1,210,4|8,0:0|0:0,0:0:0:0:
160,40,91003,2,0,P|128:144|56:212,1,210,4|0,0:2|0:0,0:0:0:0:
256,352,91533,2,0,L|256:142,1,210,8|0,0:0|0:0,0:0:0:0:
128,184,92062,1,0,0:0:0:0:
256,64,92239,5,8,0:0:0:0:
345,218,92415,1,0,0:0:0:0:
166,218,92592,1,0,0:0:0:0:
357,146,92768,5,0,0:0:0:0:
256,304,92945,1,8,0:0:0:0:
155,146,93121,1,0,0:0:0:0:
24,176,93297,6,0,P|84:260|188:280,1,210,4|8,0:0|0:0,0:0:0:0:
348,372,93827,2,0,P|372:332|372:272,1,105,0|0,0:0|0:0,0:0:0:0:
192,72,94180,2,0,P|190:121|216:172,1,105,0|8,0:0|0:0,0:0:0:0:
468,200,94533,6,0,P|420:128|305:101,1,210,0|8,0:0|0:0,0:0:0:0:
168,104,95062,1,8,0:0:0:0:
144,272,95239,1,0,0:0:0:0:
304,101,95415,1,8,0:0:0:0:
176,124,95592,1,0,0:0:0:0:
186,167,95680,1,0,0:0:0:0:
216,199,95768,1,8,0:0:0:0:
253,223,95856,1,8,0:0:0:0:
232,262,95945,1,8,0:0:0:0:
234,306,96033,1,8,0:0:0:0:
252,346,96121,1,4,0:0:0:0:
344,204,96474,5,8,0:0:0:0:
186,167,96650,2,0,P|136:176|92:208,1,105,0|0,0:0|0:0,0:0:0:0:
238,350,97003,2,0,P|286:334|325:297,1,105,0|8,0:0|0:0,0:0:0:0:
470,185,97356,2,0,P|416:104|312:78,1,210,0|0,0:0|0:0,0:0:0:0:
128,199,97886,1,8,0:0:0:0:
325,297,98062,1,0,0:0:0:0:
325,85,98239,1,0,0:0:0:0:
128,183,98415,1,0,0:0:0:0:
311,304,98592,1,8,0:0:0:0:
256,192,98768,5,0,0:0:0:0:
256,192,98944,2,0,B|279:169|279:169|323:194|383:180|410:128|410:128|384:196,1,251.999992309571,4|8,0:0|0:0,0:0:0:0:
325,85,99474,2,0,P|278:40|240:27,1,105
64,139,99827,2,0,P|102:113|160:108,1,105,0|8,0:0|0:0,0:0:0:0:
248,359,100180,2,0,P|168:316|140:207,1,210
248,112,100709,5,8,0:0:0:0:
391,103,100886,1,0,0:0:0:0:
140,207,101062,1,0,0:0:0:0:
373,62,101239,1,0,0:0:0:0:
264,157,101415,1,8,0:0:0:0:
122,166,101592,1,0,0:0:0:0:
122,166,101768,6,0,B|116:247|168:279|168:279|124:371,1,210,4|8,0:0|0:0,0:0:0:0:
374,223,102297,2,0,P|348:183|300:155,1,105
408,356,102650,2,0,P|450:324|468:272,1,105,0|8,0:0|0:0,0:0:0:0:
274,257,103003,2,0,B|183:216|202:133|202:133|128:64,1,251.999992309571,0|0,0:0|0:0,0:0:0:0:
133,68,103533,1,8,0:0:0:0:
300,155,103709,6,0,P|332:107|371:82,1,105
486,232,104062,2,0,P|456:199|400:183,1,105,0|8,0:0|0:0,0:0:0:0:
218,334,104415,2,0,P|320:347|400:283,1,210
284,219,104944,1,8,0:0:0:0:
212,103,105121,6,0,P|272:83|312:86,1,105
162,185,105474,2,0,P|192:167|212:103,1,105,0|8,0:0|0:0,0:0:0:0:
155,366,105827,2,0,P|201:299|162:185,1,210
64,276,106356,5,8,0:0:0:0:
64,276,106533,1,0,0:0:0:0:
162,185,106709,1,8,0:0:0:0:
268,279,106886,1,8,0:0:0:0:
311,281,106974,1,8,0:0:0:0:
352,271,107062,1,0,0:0:0:0:
390,252,107150,1,0,0:0:0:0:
418,220,107239,1,0,0:0:0:0:
438,181,107327,1,0,0:0:0:0:
449,140,107415,1,4,0:0:0:0:
220,28,115180,5,0,0:0:0:0:
248,152,115356,1,0,0:0:0:0:
312,264,115533,1,8,0:0:0:0:
334,302,115621,1,8,0:0:0:0:
367,329,115709,1,0,0:0:0:0:
406,347,115797,1,0,0:0:0:0:
449,349,115886,1,4,0:0:0:0:
334,99,116239,6,0,P|304:132|248:152,1,105,8|0,0:0|0:0,0:0:0:0:
212,252,116592,2,0,P|162:214|144:172,1,105
248,152,116944,1,8,0:0:0:0:
400,296,117297,1,0,0:0:0:0:
486,236,117474,1,0,0:0:0:0:
391,192,117650,1,8,0:0:0:0:
112,296,118003,5,0,0:0:0:0:
26,236,118180,1,0,0:0:0:0:
121,192,118356,2,0,L|228:192,1,105,8|0,0:0|0:0,0:0:0:0:
280,284,118709,6,0,P|324:233|334:191,2,105,0|0|8,0:0|0:0|0:0,0:0:0:0:
44,119,119415,2,0,P|53:83|97:32,2,105,0|0|8,0:0|0:0|0:0,0:0:0:0:
148,116,119944,2,0,L|253:116,1,105,0|0,0:0|0:0,0:0:0:0:
352,80,120296,1,0,0:0:0:0:
266,20,120473,1,8,0:0:0:0:
186,304,120827,5,0,0:0:0:0:
272,364,121004,1,0,0:0:0:0:
284,268,121180,2,0,L|285:160,1,105,8|0,0:0|0:0,0:0:0:0:
352,80,121533,6,0,P|383:123|391:175,2,105,0|0|8,0:0|0:0|0:0,0:0:0:0:
284,268,122239,2,0,L|389:268,1,105
452,356,122592,2,0,L|347:356,1,105,8|0,0:0|0:0,0:0:0:0:
223,298,122945,5,0,0:0:0:0:
96,247,123121,1,0,0:0:0:0:
208,172,123297,1,8,0:0:0:0:
117,72,123474,1,0,0:0:0:0:
252,56,123650,1,8,0:0:0:0:
268,68,123739,1,8,0:0:0:0:
288,76,123827,1,8,0:0:0:0:
308,80,123915,1,8,0:0:0:0:
328,80,124003,1,8,0:0:0:0:
348,76,124092,1,8,0:0:0:0:
368,72,124180,1,8,0:0:0:0:
388,68,124268,1,8,0:0:0:0:
404,92,124356,6,0,P|404:132|420:164,1,69.8249971232988,4|0,0:0|0:0,0:0:0:0:
455,220,124533,2,0,B|419:246|378:222|378:222|320:227,1,139.649994246598,0|8,0:0|1:0,0:0:0:0:
260,260,124797,1,0,0:0:0:0:
198,294,124886,2,0,B|151:319|108:284|108:284|71:305,1,139.649994246598,2|0,0:0|0:0,0:0:0:0:
56,112,125239,1,0,0:0:0:0:
167,47,125415,2,0,B|192:108|160:184,1,139.649994246598,8|2,0:0|0:0,0:0:0:0:
160,183,125768,6,0,B|172:164|176:140|176:140|220:160|272:152,1,139.649994246598,2|0,0:0|0:0,0:0:0:0:
319,134,126033,1,0,0:0:0:0:
371,114,126121,1,8,0:0:0:0:
376,296,126297,1,0,0:0:0:0:
456,168,126474,1,2,0:0:0:0:
456,168,126562,1,0,0:0:0:0:
456,168,126650,1,0,0:0:0:0:
320,224,126827,2,0,P|248:248|180:244,1,139.649994246598,8|2,0:0|0:0,0:0:0:0:
88,12,127180,6,0,P|92:52|76:88,1,69.8249971232988,4|0,0:0|0:0,0:0:0:0:
0,168,127356,2,0,B|23:145|23:145|51:172|102:160|102:160|76:188,1,139.649994246598,0|8,0:0|0:0,0:0:0:0:
170,161,127621,1,0,0:0:0:0:
236,183,127709,2,0,P|272:239|256:306,1,139.649994246598,2|0,0:0|0:0,0:0:0:0:
156,372,128062,5,0,0:0:0:0:
160,264,128239,1,8,0:0:0:0:
256,306,128415,2,0,B|305:343|290:383|290:383|332:358,1,139.649994246598,2|0,0:0|0:0,0:0:0:0:
488,232,128768,1,0,0:0:0:0:
468,251,128856,1,2,0:0:0:0:
448,271,128944,1,8,0:0:0:0:
360,152,129121,5,0,0:0:0:0:
496,92,129297,1,2,0:0:0:0:
344,136,129474,1,0,0:0:0:0:
216,48,129650,1,8,0:0:0:0:
204,40,129739,1,0,0:0:0:0:
192,32,129827,1,2,0:0:0:0:
180,28,129915,1,0,0:0:0:0:
168,24,130003,6,0,P|136:44|100:52,1,69.8249971232988,4|0,0:0|0:0,0:0:0:0:
40,88,130180,2,0,P|24:124|0:144,1,69.8249971232988
43,205,130356,2,0,P|64:236|76:268,1,69.8249971232988,8|0,0:0|0:0,0:0:0:0:
146,240,130533,1,2,0:0:0:0:
280,208,130709,5,0,0:0:0:0:
384,304,130886,1,0,0:0:0:0:
250,344,131062,1,8,0:0:0:0:
280,208,131239,6,0,P|296:173|320:148,1,69.8249971232988,2|0,0:0|0:0,0:0:0:0:
308,64,131415,2,0,B|344:48|344:48|376:84|440:56,1,139.649994246598,2|0,0:0|0:0,0:0:0:0:
477,34,131680,1,0,0:0:0:0:
512,4,131768,1,8,0:0:0:0:
400,152,131944,5,0,0:0:0:0:
214,158,132121,2,0,B|168:136|172:104|172:104|140:112|106:108,1,139.649994246598,2|0,0:0|0:0,0:0:0:0:
0,16,132474,1,8,0:0:0:0:
106,108,132650,1,0,0:0:0:0:
60,244,132827,6,0,P|40:272|8:292,1,69.8249971232988,4|0,0:0|0:0,0:0:0:0:
35,175,133003,1,0,0:0:0:0:
120,318,133180,1,8,0:0:0:0:
231,283,133356,2,0,P|215:251|187:225,1,69.8249971232988,4|0,0:0|0:0,0:0:0:0:
198,348,133533,1,0,0:0:0:0:
284,204,133709,1,0,0:0:0:0:
384,264,133886,6,0,P|356:296|332:312,1,69.8249971232988,12|0,0:0|0:0,0:0:0:0:
362,195,134062,1,0,0:0:0:0:
492,296,134239,1,0,0:0:0:0:
500,136,134415,2,0,P|512:88|504:48,2,69.8249971232988,4|2|8,0:0|0:0|0:0,0:0:0:0:
398,89,134768,1,0,0:0:0:0:
296,12,134945,6,0,L|244:58,1,69.8249971232988,8|8,0:0|0:0,0:0:0:0:
136,88,135121,2,0,L|108:24,1,69.8249971232988,8|8,0:0|0:0,0:0:0:0:
220,164,135297,2,0,L|272:212,1,69.8249971232988,8|8,0:0|0:0,0:0:0:0:
132,232,135474,2,0,L|60:220,1,69.8249971232988,8|8,0:0|0:0,0:0:0:0:
59,353,135650,6,0,P|88:344|126:349,1,69.8249971232988,4|0,0:0|0:0,0:0:0:0:
192,376,135827,2,0,B|276:372|276:372|332:348,1,139.649994246598,0|8,0:0|0:0,0:0:0:0:
442,174,136180,2,0,P|469:148|497:132,1,69.8249971232988,2|0,0:0|0:0,0:0:0:0:
356,224,136356,2,0,P|328:211|300:183,1,69.8249971232988,2|0,0:0|0:0,0:0:0:0:
272,32,136533,1,0,0:0:0:0:
368,136,136709,1,8,0:0:0:0:
332,159,136797,1,2,0:0:0:0:
292,172,136886,1,0,0:0:0:0:
122,77,137062,6,0,B|66:35,2,69.8249971232988,2|0|0,0:0|0:0|0:0,0:0:0:0:
292,172,137415,1,8,0:0:0:0:
119,264,137592,2,0,P|85:281|54:288,1,69.8249971232988,2|0,0:0|0:0,0:0:0:0:
144,160,137768,2,0,P|175:167|208:188,1,69.8249971232988,2|0,0:0|0:0,0:0:0:0:
280,332,137944,1,0,0:0:0:0:
412,280,138121,1,8,0:0:0:0:
421,239,138209,1,2,0:0:0:0:
415,197,138297,1,0,0:0:0:0:
280,232,138474,5,4,0:0:0:0:
256,268,138562,1,0,0:0:0:0:
228,296,138650,1,0,0:0:0:0:
192,316,138739,1,2,0:0:0:0:
152,316,138827,1,8,0:0:0:0:
112,300,138915,1,2,0:0:0:0:
71,316,139003,1,0,0:0:0:0:
30,299,139092,1,2,0:0:0:0:
12,260,139180,6,0,L|68:208,1,69.8249971232988,2|0,0:0|0:0,0:0:0:0:
137,169,139356,2,0,L|176:228,1,69.8249971232988,0|2,0:0|0:0,0:0:0:0:
72,116,139533,2,0,L|17:71,1,69.8249971232988,8|2,0:0|0:0,0:0:0:0:
144,76,139709,2,0,L|216:40,1,69.8249971232988,0|2,0:0|0:0,0:0:0:0:
264,108,139886,5,2,0:0:0:0:
280,144,139974,1,0,0:0:0:0:
264,184,140062,1,0,0:0:0:0:
236,216,140150,1,2,0:0:0:0:
276,232,140239,1,8,0:0:0:0:
312,256,140327,1,2,0:0:0:0:
302,295,140415,1,0,0:0:0:0:
320,332,140503,1,2,0:0:0:0:
360,344,140592,2,0,L|432:348,3,69.8249971232988,2|0|0|2,0:0|0:0|0:0|0:0,0:0:0:0:
440,264,140944,2,0,L|508:304,2,69.8249971232988,8|2|0,0:0|0:0|0:0,0:0:0:0:
364,128,141297,5,4,0:0:0:0:
440,264,141474,1,2,0:0:0:0:
440,264,141650,1,8,0:0:0:0:
252,24,141827,1,0,0:0:0:0:
364,128,142003,1,2,0:0:0:0:
364,128,142180,1,0,0:0:0:0:
104,72,142356,5,8,0:0:0:0:
252,24,142533,1,2,0:0:0:0:
252,24,142709,1,2,0:0:0:0:
168,212,142886,1,0,0:0:0:0:
104,72,143062,1,8,0:0:0:0:
104,72,143239,1,2,0:0:0:0:
76,336,143414,5,0,0:0:0:0:
168,212,143591,1,2,0:0:0:0:
308,148,143767,1,8,0:0:0:0:
76,336,143944,1,2,0:0:0:0:
308,148,144121,6,0,L|444:192,1,139.649994246598,4|0,0:0|0:0,0:0:0:0:
308,148,144474,1,8,0:0:0:0:
168,212,144650,2,0,L|28:248,1,139.649994246598,4|0,0:0|0:0,0:0:0:0:
168,212,145003,1,0,0:0:0:0:
300,288,145180,5,12,0:0:0:0:
168,212,145356,1,2,0:0:0:0:
300,288,145533,5,8,0:0:0:0:
340,292,145621,1,8,0:0:0:0:
376,316,145709,1,8,0:0:0:0:
404,348,145797,1,8,0:0:0:0:
428,380,145886,1,8,0:0:0:0:
460,352,145974,1,8,0:0:0:0:
472,310,146062,1,8,0:0:0:0:
502,280,146150,1,8,0:0:0:0:
460,224,146239,6,0,L|508:172,1,69.8249971232988,8|8,0:0|0:0,0:0:0:0:
408,160,146415,2,0,L|344:131,1,69.8249971232988,8|8,0:0|0:0,0:0:0:0:
444,84,146592,2,0,L|479:24,1,69.8249971232988,8|8,0:0|0:0,0:0:0:0:
384,24,146768,2,0,L|316:48,1,69.8249971232988,8|8,0:0|0:0,0:0:0:0:
158,106,146944,5,4,0:0:0:0:
158,106,147121,1,4,0:0:0:0:
179,165,151886,5,8,0:0:0:0:
102,257,152062,1,0,0:0:0:0:
260,76,152239,1,8,0:0:0:0:
260,76,152592,6,0,B|348:140|348:140|396:128|396:128|448:148,1,210,4|8,0:0|0:0,0:0:0:0:
260,308,153121,2,0,B|348:244|348:244|396:256|396:256|448:236,1,210,4|0,0:2|0:0,0:0:0:0:
172,128,153650,2,0,B|256:192|256:192|172:256,1,210,8|0,0:0|0:0,0:0:0:0:
208,28,154180,1,0,0:0:0:0:
390,154,154356,5,8,0:0:0:0:
256,192,154533,1,0,0:0:0:0:
390,230,154709,1,0,0:0:0:0:
113,87,154886,5,0,0:0:0:0:
256,192,155062,1,8,0:0:0:0:
113,296,155239,1,0,0:0:0:0:
152,188,155415,6,0,B|170:106|239:92|239:92|208:24,1,210,4|8,0:0|0:0,0:0:0:0:
256,192,155944,2,0,P|295:224|330:266,1,105
45,128,156297,2,0,P|76:80|116:56,1,105,0|8,0:0|0:0,0:0:0:0:
360,196,156650,6,0,B|342:278|273:292|273:292|304:360,1,210,0|0,0:0|0:0,0:0:0:0:
416,336,157180,1,8,0:0:0:0:
256,192,157356,1,0,0:0:0:0:
129,251,157533,2,0,P|155:302|195:329,1,105,0|0,0:0|0:0,0:0:0:0:
40,312,157886,2,0,P|21:262|26:207,1,105,8|0,0:0|0:0,0:0:0:0:
160,56,158239,6,0,P|240:132|236:228,1,210,4|8,0:0|0:0,0:0:0:0:
137,170,158768,2,0,P|224:160|304:68,1,210,4|0,0:2|0:0,0:0:0:0:
68,92,159297,2,0,P|40:200|106:269,1,210,8|0,0:0|0:0,0:0:0:0:
245,149,159827,1,0,0:0:0:0:
356,92,160003,5,8,0:0:0:0:
356,92,160180,2,0,L|464:36,1,105
276,288,160533,2,0,L|168:344,1,105,0|8,0:0|0:0,0:0:0:0:
216,160,160886,1,0,0:0:0:0:
356,92,161062,6,0,B|347:178|347:178|400:207|407:279,1,210,4|8,0:0|0:0,0:0:0:0:
249,351,161591,2,0,P|280:328|304:268,1,105
96,216,161944,2,0,P|65:239|41:299,1,105,0|8,0:0|0:0,0:0:0:0:
192,252,162297,6,0,B|200:164|200:164|140:140|144:56,1,210,0|8,0:0|0:0,0:0:0:0:
244,72,162827,1,8,0:0:0:0:
76,140,163003,1,0,0:0:0:0:
216,24,163180,1,8,0:0:0:0:
376,112,163356,1,0,0:0:0:0:
409,140,163445,1,0,0:0:0:0:
427,177,163533,1,8,0:0:0:0:
432,218,163621,1,8,0:0:0:0:
423,259,163709,1,8,0:0:0:0:
436,300,163797,1,8,0:0:0:0:
464,332,163886,1,4,0:0:0:0:
244,280,164239,5,8,0:0:0:0:
244,280,164415,2,0,L|144:336,1,105
268,104,164768,2,0,L|368:48,1,105,0|8,0:0|0:0,0:0:0:0:
284,300,165121,2,0,L|72:352,1,210
108,204,165650,1,8,0:0:0:0:
192,324,165827,1,0,0:0:0:0:
80,350,166003,5,0,0:0:0:0:
199,115,166180,1,0,0:0:0:0:
192,324,166356,1,8,0:0:0:0:
108,204,166533,5,0,0:0:0:0:
108,204,166709,2,0,B|208:212|208:212|240:244|240:244|352:268,1,251.999992309571,4|8,0:0|0:0,0:0:0:0:
199,115,167238,2,0,L|94:106,1,105
192,324,167591,2,0,L|296:345,1,105,0|8,0:0|0:0,0:0:0:0:
424,40,167944,6,0,P|416:136|328:196,1,210
124,248,168474,1,8,0:0:0:0:
199,115,168650,1,0,0:0:0:0:
328,196,168827,5,0,0:0:0:0:
192,324,169003,1,0,0:0:0:0:
184,124,169180,1,8,0:0:0:0:
328,196,169356,5,0,0:0:0:0:
328,196,169533,2,0,P|284:288|192:336,1,210,4|8,0:0|0:0,0:0:0:0:
80,280,170062,2,0,P|98:226|136:200,1,105
88,128,170415,2,0,P|32:108|5:73,1,105,0|8,0:0|0:0,0:0:0:0:
196,72,170768,2,0,P|240:172|160:284,1,251.999992309571
92,32,171297,1,8,0:0:0:0:
300,72,171474,6,0,P|352:64|399:37,1,105
476,192,171827,2,0,P|424:200|376:226,1,105,0|8,0:0|0:0,0:0:0:0:
223,355,172180,2,0,L|432:332,1,210
378,225,172709,1,8,0:0:0:0:
272,336,172886,6,0,L|168:372,1,105
231,160,173239,2,0,L|175:249,1,105,0|8,0:0|0:0,0:0:0:0:
42,273,173592,1,0,0:0:0:0:
175,249,173768,5,8,0:0:0:0:
175,249,173856,1,8,0:0:0:0:
175,249,173945,2,0,L|230:239,1,52.5
280,168,174121,1,8,0:0:0:0:
280,168,174209,1,8,0:0:0:0:
280,168,174297,2,0,L|324:204,1,52.5
388,140,174474,1,8,0:0:0:0:
388,140,174562,1,8,0:0:0:0:
388,140,174650,2,0,L|408:200,1,52.5
488,224,174827,2,0,L|452:272,3,52.5,8|8|0|0,0:0|0:0|0:0|0:0,0:0:0:0:
432,312,175180,6,0,L|180:368,1,251.999992309571,12|8,0:0|0:0,0:0:0:0:
186,366,175709,1,0,2:0:0:0:
152,256,175886,2,0,L|64:184,1,105,8|0,0:0|2:0,0:0:0:0:
152,108,176239,2,0,L|48:24,1,105,8|0,0:0|2:0,0:0:0:0:
304,280,176591,2,0,L|216:208,1,105,8|0,0:0|2:0,0:0:0:0:
304,132,176944,2,0,L|200:48,1,105,8|0,0:0|2:0,0:0:0:0:
400,64,177297,2,0,L|504:28,1,105,8|0,0:0|2:0,0:0:0:0:
388,204,177650,2,0,L|492:168,1,105,8|0,0:0|2:0,0:0:0:0:
304,280,178003,6,0,P|260:320|212:328,1,105,12|0,0:0|2:0,0:0:0:0:
208,104,178356,2,0,P|252:64|300:56,1,105,8|0,0:0|2:0,0:0:0:0:
132,380,178709,2,0,P|116:328|129:280,1,105,8|0,0:0|2:0,0:0:0:0:
380,4,179062,2,0,P|396:56|382:103,1,105,8|0,0:0|2:0,0:0:0:0:
48,228,179415,2,0,P|92:188|136:184,1,105,8|0,0:0|2:0,0:0:0:0:
464,156,179768,2,0,P|420:196|376:200,1,105,8|0,0:0|2:0,0:0:0:0:
156,96,180121,2,0,P|212:136|224:184,1,105,8|0,0:0|2:0,0:0:0:0:
356,288,180474,2,0,P|300:248|288:200,1,105,8|0,0:0|2:0,0:0:0:0:
69,145,180827,6,0,P|60:64|69:45,1,105,12|0,0:0|2:0,0:0:0:0:
443,239,181180,2,0,P|452:320|442:338,1,105,8|0,0:0|2:0,0:0:0:0:
144,208,181533,2,0,P|96:240|50:242,1,105,8|0,0:0|2:0,0:0:0:0:
368,176,181886,2,0,P|416:144|461:141,1,105,8|0,0:0|2:0,0:0:0:0:
180,300,182239,2,0,L|96:364,1,105,8|0,0:0|2:0,0:0:0:0:
332,84,182592,2,0,L|416:20,1,105,8|0,0:0|2:0,0:0:0:0:
248,228,182945,2,0,P|280:292|277:323,1,105,8|0,0:0|2:0,0:0:0:0:
264,156,183297,2,0,P|232:92|234:60,1,105,8|0,0:0|2:0,0:0:0:0:
336,220,183650,6,0,L|412:296,1,105,12|0,0:0|2:0,0:0:0:0:
176,164,184003,2,0,L|100:88,1,105,8|0,0:0|2:0,0:0:0:0:
284,112,184356,2,0,L|360:36,1,105,8|0,0:0|2:0,0:0:0:0:
228,272,184709,2,0,L|152:348,1,105,8|0,0:0|2:0,0:0:0:0:
361,192,185062,2,0,L|473:192,1,105,8|0,0:0|2:0,0:0:0:0:
150,192,185415,2,0,L|38:192,1,105,8|0,0:0|2:0,0:0:0:0:
151,192,185768,5,12,0:0:0:0:
256,297,185945,1,4,0:0:0:0:
361,192,186121,1,12,0:0:0:0:
256,87,186297,1,4,0:0:0:0:
