osu file format v9

[General]
AudioFilename: Yosuzume no Ballad.mp3
AudioLeadIn: 1004
PreviewTime: 89930
Countdown: 0
SampleSet: Soft
StackLeniency: 0.7
Mode: 1
LetterboxInBreaks: 0

[Editor]
DistanceSpacing: 0.8
BeatDivisor: 4
GridSize: 8

[Metadata]
Title:Yosuzume no Ballad
Artist:Yellow Zebra
Creator:TristanShi
Version:Taiko
Source:Touhou
Tags:Fuzimiya Yuki Yosuzume Ballad Moon Mystia Lorelei karenying

[Difficulty]
HPDrainRate:7
CircleSize:5
OverallDifficulty:6
ApproachRate:5
SliderMultiplier:1.6
SliderTickRate:1

[Events]
//Background and Video events
0,0,"TaikoBG.jpg"
//Break Periods
//Storyboard Layer 0 (Background)
//Storyboard Layer 1 (Fail)
//Storyboard Layer 2 (Pass)
//Storyboard Layer 3 (Foreground)
//Storyboard Sound Samples
//Background Colour Transformations
3,100,163,162,255

[TimingPoints]
1042,444.444444444444,4,2,0,60,1,0
89930,-100,4,2,0,60,0,1
118153,-100,4,2,0,60,0,0
177041,-100,4,2,0,60,0,1
205041,-100,4,2,0,60,0,0

[Colours]
Combo1 : 255,150,0
Combo2 : 0,119,0
Combo3 : 9,58,119
Combo4 : 181,4,4

[HitObjects]
80,80,1041,1,0
80,80,1930,1,8
80,80,2597,1,0
80,80,2819,1,8
80,80,4153,1,0
80,80,4375,1,8
80,80,4597,1,8
80,80,4708,1,0
80,80,4819,1,0
80,80,5041,1,8
80,80,5264,1,0
80,80,5486,1,8
80,80,5819,1,0
80,80,5930,1,0
80,80,6153,1,8
80,80,6375,1,0
80,80,6819,1,8
80,80,7042,1,0
80,80,7486,1,0
80,80,7708,1,0
80,80,7930,1,8
80,80,8153,1,0
80,80,8597,1,0
80,80,9042,1,0
80,80,9375,1,0
80,80,9708,1,8
80,80,9930,1,8
80,80,10375,1,0
80,80,10819,1,0
80,80,11153,1,8
80,80,11486,1,0
80,80,11708,1,8
80,80,12153,1,0
80,80,12597,1,8
80,80,12819,1,0
80,80,13042,1,0
80,80,13264,1,8
80,80,13486,1,8
80,80,13708,1,0
80,80,13930,1,0
80,80,14153,1,8
80,80,14375,1,0
80,80,14597,1,0
80,80,14819,1,0
80,80,15264,1,0
80,80,15375,1,0
80,80,15486,1,8
80,80,15597,1,8
80,80,15708,1,0
80,80,15930,1,0
80,80,16264,1,8
80,80,16375,1,0
80,80,16486,1,0
80,80,16597,1,8
80,80,16708,1,0
80,80,16819,1,0
80,80,17042,1,0
80,80,17264,1,0
80,80,17486,1,8
80,80,17708,1,0
80,80,17930,1,0
80,80,18041,1,0
80,80,18153,1,8
80,80,18375,1,8
80,80,18597,1,0
80,80,18819,1,8
80,80,19153,1,0
80,80,19264,1,0
80,80,19486,1,0
80,80,19930,1,0
80,80,20153,1,0
80,80,20264,1,0
80,80,20375,1,8
80,80,20597,1,8
80,80,20708,1,8
80,80,20819,1,0
80,80,21041,1,8
80,80,21264,1,0
80,80,21486,1,8
80,80,21819,1,0
80,80,21930,1,8
80,80,22153,1,0
80,80,22375,1,0
80,80,22708,1,0
80,80,22819,1,8
80,80,23041,1,0
80,80,23264,1,0
80,80,23375,1,0
80,80,23486,1,0
80,80,23597,1,0
80,80,23708,1,8
80,80,23930,1,0
80,80,24153,1,8
80,80,24597,1,4
80,80,25041,1,0
80,80,25375,1,0
80,80,25708,1,0
80,80,25930,1,8
80,80,26375,1,4
80,80,26819,1,0
80,80,27153,1,8
80,80,27486,1,8
80,80,27708,1,8
80,80,28041,1,0
80,80,28153,1,8
80,80,28375,1,0
80,80,28597,1,8
80,80,28708,1,8
80,80,28819,1,0
80,80,29041,1,0
80,80,29264,1,8
80,80,29486,1,4
80,80,29708,1,0
80,80,29819,1,0
80,80,29930,1,8
80,80,30041,1,8
80,80,30153,1,0
80,80,30264,1,8
80,80,30375,1,0
80,80,30486,1,0
80,80,30597,1,8
80,80,30819,1,0
80,80,31041,1,0
80,80,31264,1,8
80,80,31375,1,8
80,80,31486,1,0
80,80,31597,1,0
80,80,31708,1,0
80,80,31930,1,8
80,80,32041,1,0
80,80,32264,1,8
80,80,32375,1,0
80,80,32597,1,0
80,80,32708,1,8
80,80,32819,1,0
80,80,33041,1,0
80,80,33153,1,0
80,80,33264,1,8
80,80,33375,1,8
80,80,33486,1,8
80,80,33708,1,8
80,80,33819,1,0
80,80,34041,1,0
80,80,34153,1,8
80,80,34375,1,8
80,80,34597,1,0
80,80,34819,1,8
80,80,34930,1,0
80,80,35041,1,0
80,80,35153,1,0
80,80,35264,1,8
80,80,35486,1,8
80,80,35597,1,0
80,80,35819,1,8
80,80,35930,1,0
80,80,36041,1,8
80,80,36153,1,8
80,80,36375,1,0
80,80,36486,1,0
80,80,36597,1,8
80,80,36708,1,0
80,80,36819,1,0
80,80,36930,1,0
80,80,37041,1,8
80,80,37264,1,8
80,80,37375,1,0
80,80,37597,1,0
80,80,37708,1,8
80,80,37930,1,0
80,80,38153,1,8
80,80,38264,1,0
80,80,38375,1,8
80,80,38597,1,0
80,80,38819,1,0
80,80,39041,1,0
80,80,39153,1,8
80,80,39264,1,8
80,80,39486,1,0
80,80,39708,1,8
80,80,40153,1,8
80,80,40264,1,0
80,80,40375,1,8
80,80,40486,1,8
80,80,40597,1,8
80,80,40819,1,0
80,80,41041,1,8
80,80,41264,1,0
80,80,41375,1,8
80,80,41597,1,8
80,80,41708,1,0
80,80,41930,1,12
80,80,42153,1,0
80,80,42375,1,8
80,80,42597,1,8
80,80,42708,1,0
80,80,42930,1,8
80,80,43041,1,0
80,80,43264,1,0
80,80,43486,1,8
80,80,43708,1,0
80,80,43819,1,0
80,80,43930,1,8
80,80,44041,1,8
80,80,44153,1,8
80,80,44375,1,8
80,80,44486,1,0
80,80,44597,1,8
80,80,44819,1,0
80,80,45041,1,8
80,80,45153,1,8
80,80,45264,1,0
80,80,45486,1,12
80,80,45708,1,0
80,80,45930,1,8
80,80,46153,1,0
80,80,46264,1,8
80,80,46486,1,8
80,80,46597,1,0
80,80,46819,1,0
80,80,46930,1,0
80,80,47041,1,8
80,80,47264,1,0
80,80,47375,1,0
80,80,47486,1,0
80,80,47597,1,0
80,80,47708,1,8
80,80,47930,1,8
80,80,48041,1,0
80,80,48375,1,8
80,80,48486,1,8
80,80,48597,1,8
80,80,48819,1,0
80,80,49041,1,0
80,80,49153,1,0
80,80,49264,1,0
80,80,49486,1,8
80,80,49708,1,0
80,80,49819,1,0
80,80,50153,1,0
80,80,50264,1,0
80,80,50375,1,8
80,80,50597,1,0
80,80,50819,1,8
80,80,50930,1,8
80,80,51041,1,8
80,80,51264,1,0
80,80,51486,1,0
80,80,51597,1,0
80,80,51708,1,8
80,80,51819,1,0
80,80,51930,1,8
80,80,52153,1,8
80,80,52375,1,4
80,80,52597,1,0
80,80,52819,1,0
80,80,52930,1,0
80,80,53041,1,8
80,80,53264,1,8
80,80,53375,1,0
80,80,53486,1,8
80,80,53597,1,8
80,80,53708,1,0
80,80,53930,1,0
80,80,54375,1,0
80,80,54486,1,0
80,80,54597,1,8
80,80,54708,1,8
80,80,54819,1,0
80,80,55041,1,0
80,80,55153,1,0
80,80,55264,1,8
80,80,55708,1,0
80,80,56153,1,8
80,80,56486,1,0
80,80,56597,1,8
80,80,56819,1,0
80,80,57041,1,8
80,80,57153,1,0
80,80,57264,1,8
80,80,57486,1,0
80,80,57930,1,4
80,80,58375,1,4
80,80,58819,1,0
80,80,58930,1,0
80,80,59041,1,0
80,80,59264,1,8
80,80,59486,1,8
80,80,59708,1,0
80,80,60041,1,0
80,80,60375,1,8
80,80,61041,1,0
80,80,61486,2,0,B|240:304|288:72,1,320
80,80,62819,1,0
80,80,63264,1,12
80,80,63597,1,0
80,80,63930,1,8
80,80,64375,1,0
80,80,64486,1,0
80,80,64597,1,8
80,80,64819,1,0
80,80,65041,1,8
80,80,65264,1,0
80,80,65486,1,8
80,80,65708,1,0
80,80,66153,1,0
80,80,66375,1,8
80,80,66597,1,0
80,80,66819,1,0
80,80,67153,1,0
80,80,67264,1,8
80,80,67486,1,0
80,80,68153,1,8
80,80,68375,1,0
80,80,68597,1,8
80,80,68708,1,0
80,80,68819,1,8
80,80,69041,1,0
80,80,69264,1,0
80,80,69930,1,0
80,80,70153,1,12
80,80,70375,1,4
80,80,70708,1,0
80,80,71041,1,0
80,80,71264,1,12
80,80,71708,1,0
80,80,71930,1,4
80,80,72153,1,12
80,80,72486,1,0
80,80,72819,1,12
80,80,73264,1,0
80,80,73375,1,0
80,80,73486,1,8
80,80,73708,1,0
80,80,73930,1,4
80,80,74264,1,0
80,80,74597,1,8
80,80,75264,1,0
80,80,75708,1,8
80,80,76041,1,0
80,80,76375,1,8
80,80,76819,1,0
80,80,77041,1,0
80,80,77264,1,0
80,80,77486,1,0
80,80,77597,1,0
80,80,77708,1,8
80,80,77819,1,8
80,80,77930,1,8
80,80,78153,1,0
80,80,78819,1,8
80,80,79264,1,0
80,80,79486,1,8
80,80,79708,1,0
80,80,79930,1,0
80,80,80375,1,4
80,80,80597,1,8
80,80,80819,1,0
80,80,81041,1,0
80,80,81264,1,0
80,80,81375,1,8
80,80,81597,1,0
80,80,81708,1,8
80,80,82153,1,0
80,80,82264,1,0
80,80,82375,1,8
80,80,82597,1,0
80,80,82819,1,8
80,80,83153,1,0
80,80,83264,1,8
80,80,83486,1,0
80,80,83708,1,8
80,80,83930,1,8
80,80,84153,1,12
80,80,84597,1,8
80,80,84819,1,0
80,80,84930,1,0
80,80,85041,1,8
80,80,85486,1,8
80,80,85708,1,8
80,80,85819,1,8
80,80,85930,1,8
80,80,86375,1,0
80,80,86597,1,8
80,80,86708,1,8
80,80,86819,1,8
80,80,87041,1,0
80,80,87264,1,0
80,80,87486,1,0
80,80,87708,1,8
80,80,87930,1,8
80,80,88153,1,0
80,80,88264,1,0
80,80,88375,1,0
80,80,88486,1,0
80,80,88597,1,8
80,80,88708,1,8
80,80,88819,1,8
80,80,88930,1,8
80,80,89041,1,0
80,80,89153,1,8
80,80,89264,1,0
80,80,89375,1,8
80,80,89486,1,0
80,80,89708,1,0
80,80,89930,1,4
80,80,90375,1,0
80,80,90597,1,8
80,80,90819,1,0
80,80,90930,1,8
80,80,91041,1,8
80,80,91153,1,0
80,80,91264,1,0
80,80,91486,1,0
80,80,91708,1,8
80,80,92041,1,0
80,80,92153,1,8
80,80,92375,1,0
80,80,92597,1,0
80,80,92819,1,0
80,80,93041,1,8
80,80,93153,1,0
80,80,93264,1,0
80,80,93486,1,12
80,80,93708,1,12
80,80,93930,1,0
80,80,94153,1,0
80,80,94375,1,8
80,80,94597,1,8
80,80,94819,1,0
80,80,94930,1,0
80,80,95041,1,8
80,80,95153,1,0
80,80,95264,1,8
80,80,95486,1,0
80,80,95708,1,0
80,80,95930,1,8
80,80,96041,1,0
80,80,96153,1,0
80,80,96375,1,0
80,80,96597,1,8
80,80,96819,1,0
80,80,97041,1,12
80,80,97486,1,4
80,80,97930,1,0
80,80,98264,1,0
80,80,98597,1,0
80,80,98819,1,8
80,80,98930,1,0
80,80,99041,1,0
80,80,99264,1,4
80,80,99708,1,8
80,80,99819,1,0
80,80,100041,1,0
80,80,100153,1,8
80,80,100375,1,0
80,80,100597,1,12
80,80,100930,1,0
80,80,101041,1,8
80,80,101264,1,0
80,80,101486,1,0
80,80,101597,1,8
80,80,101708,1,8
80,80,101930,1,0
80,80,102153,1,8
80,80,102375,1,4
80,80,102708,1,12
80,80,103041,1,0
80,80,103153,1,0
80,80,103264,1,8
80,80,103375,1,0
80,80,103486,1,8
80,80,103597,1,0
80,80,103708,1,8
80,80,103930,1,4
80,80,104153,1,12
80,80,104597,1,0
80,80,104819,1,8
80,80,105041,1,0
80,80,105153,1,0
80,80,105264,1,8
80,80,105486,1,0
80,80,105708,1,0
80,80,105819,1,0
80,80,105930,1,8
80,80,106153,1,8
80,80,106375,1,0
80,80,106597,1,8
80,80,107041,1,0
80,80,107264,1,8
80,80,107375,1,0
80,80,107486,1,8
80,80,107708,1,0
80,80,107819,1,8
80,80,108041,1,8
80,80,108153,1,0
80,80,108375,1,0
80,80,108597,1,8
80,80,108819,1,8
80,80,109041,1,0
80,80,109264,1,0
80,80,109375,1,0
80,80,109486,1,8
80,80,109930,1,0
80,80,110264,1,0
80,80,110375,1,8
80,80,110597,1,0
80,80,110819,1,0
80,80,111041,1,8
80,80,111264,1,0
80,80,111708,1,4
80,80,112153,1,8
80,80,112264,1,0
80,80,112486,1,0
80,80,112597,1,8
80,80,112819,1,0
80,80,113041,1,8
80,80,113264,1,0
80,80,113486,1,4
80,80,113930,1,0
80,80,114041,1,8
80,80,114264,1,0
80,80,114375,1,8
80,80,114597,1,0
80,80,114819,1,12
80,80,115264,1,4
80,80,115708,1,8
80,80,115819,1,0
80,80,115930,1,0
80,80,116153,1,4
80,80,116375,1,8
80,80,116597,1,0
80,80,116708,1,0
80,80,116819,1,0
80,80,116930,1,0
80,80,117041,1,8
80,80,117153,1,8
80,80,117264,1,8
80,80,117375,1,8
80,80,117486,1,8
80,80,117708,1,0
80,80,117819,1,0
80,80,117930,1,8
80,80,118153,1,0
80,80,118375,1,0
80,80,118486,1,0
80,80,118597,1,8
80,80,118820,1,0
80,80,119153,1,0
80,80,119264,1,8
80,80,119486,1,0
80,80,119709,1,8
80,80,119931,1,0
80,80,120042,1,0
80,80,120153,1,0
80,80,120375,1,0
80,80,120486,1,0
80,80,120597,1,8
80,80,120820,1,0
80,80,121264,1,0
80,80,121375,1,0
80,80,121486,1,8
80,80,121597,1,8
80,80,121709,1,0
80,80,121931,1,0
80,80,122042,1,0
80,80,122264,1,0
80,80,122375,1,8
80,80,122597,1,0
80,80,122709,1,0
80,80,122820,1,8
80,80,123042,1,0
80,80,123264,1,8
80,80,123375,1,0
80,80,123486,1,8
80,80,123709,1,0
80,80,123931,1,0
80,80,124042,1,0
80,80,124153,1,8
80,80,124375,1,0
80,80,124597,1,0
80,80,124820,1,0
80,80,124931,1,0
80,80,125042,1,8
80,80,125264,1,0
80,80,125486,1,0
80,80,125709,1,0
80,80,125820,1,0
80,80,125931,1,8
80,80,126042,1,8
80,80,126153,1,0
80,80,126375,1,8
80,80,126597,1,0
80,80,126820,1,0
80,80,126931,1,8
80,80,127042,1,8
80,80,127264,1,8
80,80,127486,1,0
80,80,127709,1,0
80,80,127820,1,0
80,80,127931,1,8
80,80,128153,1,0
80,80,128264,1,0
80,80,128486,1,0
80,80,128597,1,8
80,80,128820,1,8
80,80,129042,1,0
80,80,129153,1,0
80,80,129264,1,8
80,80,129486,1,0
80,80,129709,1,8
80,80,129931,1,8
80,80,130042,1,0
80,80,130153,1,0
80,80,130375,1,8
80,80,130597,1,0
80,80,130820,1,0
80,80,130931,1,0
80,80,131042,1,0
80,80,131153,1,0
80,80,131264,1,8
80,80,131486,1,0
80,80,131709,1,8
80,80,131820,1,8
80,80,131931,1,0
80,80,132042,1,0
80,80,132153,1,0
80,80,132375,1,0
80,80,132597,1,0
80,80,132709,1,0
80,80,132820,1,8
80,80,132931,1,0
80,80,133042,1,0
80,80,133264,1,0
80,80,133709,1,0
80,80,133820,1,0
80,80,133931,1,8
80,80,134153,1,0
80,80,134375,1,0
80,80,134486,1,8
80,80,134709,1,0
80,80,134820,1,8
80,80,135042,1,0
80,80,135264,1,0
80,80,135375,1,0
80,80,135486,1,8
80,80,135597,1,8
80,80,135709,1,8
80,80,135931,1,0
80,80,136153,1,4
80,80,136486,1,4
80,80,136820,1,12
80,80,137264,1,0
80,80,137375,1,0
80,80,137486,1,8
80,80,137709,1,0
80,80,137931,1,0
80,80,138042,1,0
80,80,138153,1,8
80,80,138264,1,0
80,80,138375,1,8
80,80,138597,1,0
80,80,139042,1,4
80,80,139264,1,8
80,80,139375,1,0
80,80,139486,1,8
80,80,139709,1,4
80,80,140042,1,0
80,80,140153,1,8
80,80,140375,1,0
80,80,140820,1,0
80,80,141042,1,8
80,80,141264,1,0
80,80,141375,1,0
80,80,141486,1,8
80,80,141709,1,0
80,80,141931,1,8
80,80,142153,1,0
80,80,142264,1,0
80,80,142375,1,8
80,80,142597,1,0
80,80,142820,1,12
80,80,143264,1,0
80,80,143375,1,0
80,80,143486,1,0
80,80,143597,1,8
80,80,143709,1,8
80,80,143931,1,8
80,80,144153,1,0
80,80,144597,1,0
80,80,144820,1,8
80,80,145042,1,0
80,80,145153,1,0
80,80,145264,1,8
80,80,145375,1,8
80,80,145486,1,0
80,80,145709,1,0
80,80,145931,1,0
80,80,146153,1,0
80,80,146264,1,0
80,80,146375,1,8
80,80,146597,1,0
80,80,146820,1,12
80,80,147153,1,4
80,80,147486,1,4
80,80,147709,1,8
80,80,147820,1,8
80,80,147931,1,8
80,80,148042,1,8
80,80,148153,1,0
80,80,148375,1,8
80,80,148597,1,4
80,80,148931,1,0
80,80,149042,1,8
80,80,149264,1,0
80,80,149486,1,8
80,80,149597,1,8
80,80,149709,1,0
80,80,149931,1,0
80,80,150153,1,0
80,80,150375,1,8
80,80,150486,1,8
80,80,150597,1,0
80,80,150709,1,0
80,80,150820,1,0
80,80,151042,1,8
80,80,151486,1,0
80,80,151597,1,0
80,80,151709,1,8
80,80,151931,1,0
80,80,152153,1,0
80,80,152264,1,8
80,80,152375,1,0
80,80,152597,1,0
80,80,152820,1,0
80,80,153042,1,8
80,80,153264,1,8
80,80,153375,1,0
80,80,153486,1,0
80,80,153709,1,0
80,80,153931,1,8
80,80,154153,1,0
80,80,154264,1,0
80,80,154375,1,0
80,80,154597,1,12
80,80,155042,1,8
80,80,155153,1,0
80,80,155264,1,0
80,80,155486,1,0
80,80,155709,1,8
80,80,155931,1,0
80,80,156042,1,0
80,80,156153,1,8
80,80,156375,1,0
80,80,156597,1,0
80,80,156820,1,0
80,80,156931,1,0
80,80,157042,1,8
80,80,157153,1,0
80,80,157264,1,0
80,80,157486,1,8
80,80,157709,1,0
80,80,157820,1,0
80,80,157931,1,8
80,80,158153,1,0
80,80,158375,1,0
80,80,158486,1,0
80,80,158597,1,8
80,80,158709,1,8
80,80,158820,1,8
80,80,159042,1,0
80,80,159264,1,0
80,80,159375,1,8
80,80,159597,1,8
80,80,159709,1,0
80,80,159931,1,0
80,80,160153,1,8
80,80,160264,1,8
80,80,160375,1,0
80,80,160597,1,0
80,80,160820,1,0
80,80,161042,1,8
80,80,161153,1,8
80,80,161264,1,0
80,80,161375,1,0
80,80,161486,1,8
80,80,161597,1,8
80,80,161709,1,0
80,80,161820,1,0
80,80,161931,1,8
80,80,162042,1,8
80,80,162153,1,0
80,80,162264,1,0
80,80,162375,1,8
80,80,162597,1,4
80,80,162820,1,12
80,80,163264,1,0
80,80,163375,1,0
80,80,163486,1,8
80,80,163709,1,0
80,80,163931,1,8
80,80,164042,1,0
80,80,164153,1,0
80,80,164375,1,0
80,80,164597,1,0
80,80,164709,1,0
80,80,164820,1,0
80,80,164931,1,0
80,80,165042,1,8
80,80,165264,1,0
80,80,165709,1,0
80,80,165820,1,0
80,80,165931,1,8
80,80,166153,1,0
80,80,166375,1,8
80,80,166597,1,0
80,80,166820,1,8
80,80,166931,1,8
80,80,167042,1,0
80,80,167264,1,8
80,80,167486,1,8
80,80,167709,1,0
80,80,167931,1,8
80,80,168153,1,0
80,80,168597,1,0
80,80,168820,1,8
80,80,169264,1,8
80,80,169375,1,0
80,80,169486,1,0
80,80,169709,1,0
80,80,169820,1,0
80,80,169931,1,8
80,80,170153,1,0
80,80,170375,1,12
80,80,170820,1,0
80,80,170931,1,8
80,80,171153,1,0
80,80,171264,1,8
80,80,171486,1,0
80,80,171709,1,0
80,80,171820,1,0
80,80,171931,1,8
80,80,172153,1,4
80,80,172597,1,4
80,80,172931,1,4
80,80,173264,1,12
80,80,173486,1,12
80,80,173931,1,4
80,80,174264,1,0
80,80,174375,1,8
80,80,174597,1,0
80,80,174820,1,8
80,80,175042,1,0
80,80,175264,1,0
80,80,175375,1,0
80,80,175486,1,0
80,80,175597,1,0
80,80,175709,1,8
80,80,175820,1,8
80,80,175931,1,8
80,80,176042,1,8
80,80,176153,1,0
80,80,176264,1,8
80,80,176375,1,0
80,80,176486,1,8
80,80,176597,1,0
80,80,176820,1,0
80,80,177042,1,4
80,80,177375,1,0
80,80,177486,1,8
80,80,177709,1,0
80,80,177931,1,8
80,80,178042,1,8
80,80,178153,1,8
80,80,178375,1,0
80,80,178597,1,0
80,80,178820,1,8
80,80,179153,1,0
80,80,179264,1,8
80,80,179486,1,0
80,80,179708,1,0
80,80,179820,1,0
80,80,179931,1,0
80,80,180153,1,8
80,80,180375,1,0
80,80,180597,1,8
80,80,180709,1,0
80,80,180820,1,8
80,80,181042,1,0
80,80,181264,1,0
80,80,181486,1,8
80,80,181820,1,8
80,80,181931,1,0
80,80,182153,1,0
80,80,182375,1,0
80,80,182486,1,0
80,80,182709,1,0
80,80,182820,1,8
80,80,183042,1,0
80,80,183153,1,8
80,80,183264,1,0
80,80,183375,1,8
80,80,183486,1,0
80,80,183709,1,0
80,80,183931,1,0
80,80,184153,1,8
80,80,184375,1,0
80,80,184486,1,0
80,80,184597,1,8
80,80,184820,1,0
80,80,185042,1,0
80,80,185153,1,8
80,80,185375,1,0
80,80,185597,1,8
80,80,185709,1,0
80,80,185931,1,8
80,80,186042,1,0
80,80,186153,1,0
80,80,186264,1,0
80,80,186375,1,8
80,80,186597,1,0
80,80,186709,1,8
80,80,186820,1,0
80,80,187153,1,8
80,80,187264,1,0
80,80,187486,1,0
80,80,187709,1,0
80,80,187820,1,8
80,80,188042,1,8
80,80,188153,1,0
80,80,188375,1,0
80,80,188597,1,8
80,80,188709,1,8
80,80,188820,1,0
80,80,189042,1,0
80,80,189264,1,8
80,80,189486,1,0
80,80,189597,1,0
80,80,189709,1,8
80,80,189820,1,0
80,80,189931,1,8
80,80,190042,1,0
80,80,190153,1,8
80,80,190264,1,8
80,80,190375,1,8
80,80,190486,1,0
80,80,190597,1,8
80,80,190709,1,0
80,80,190820,1,8
80,80,191042,1,0
80,80,191153,1,0
80,80,191264,1,8
80,80,191597,1,0
80,80,191709,1,8
80,80,191931,1,0
80,80,192153,1,8
80,80,192264,1,8
80,80,192375,1,0
80,80,192597,1,0
80,80,192820,1,0
80,80,193042,1,8
80,80,193264,1,0
80,80,193486,1,8
80,80,193709,1,0
80,80,193931,1,0
80,80,194042,1,8
80,80,194153,1,0
80,80,194375,1,0
80,80,194597,1,8
80,80,194820,1,0
80,80,194931,1,8
80,80,195042,1,0
80,80,195264,1,8
80,80,195486,1,0
80,80,195709,1,0
80,80,196042,1,8
80,80,196153,1,0
80,80,196375,1,0
80,80,196597,1,8
80,80,196820,1,0
80,80,197042,1,8
80,80,197264,1,8
80,80,197375,1,8
80,80,197486,1,0
80,80,197597,1,8
80,80,197709,1,0
80,80,197931,1,0
80,80,198153,1,8
80,80,198375,1,8
80,80,198597,1,0
80,80,198709,1,0
80,80,198820,1,8
80,80,199042,1,0
80,80,199264,1,0
80,80,199375,1,8
80,80,199597,1,0
80,80,199820,1,8
80,80,199931,1,0
80,80,200153,1,8
80,80,200264,1,0
80,80,200486,1,0
80,80,200597,1,8
80,80,200820,1,0
80,80,200931,1,0
80,80,201042,1,8
80,80,201375,1,0
80,80,201486,1,8
80,80,201709,1,8
80,80,201931,1,0
80,80,202042,1,8
80,80,202264,1,0
80,80,202375,1,8
80,80,202597,1,0
80,80,202820,1,8
80,80,202931,1,8
80,80,203042,1,0
80,80,203264,1,4
80,80,203486,1,8
80,80,203709,1,0
80,80,203820,1,0
80,80,203931,1,8
80,80,204042,1,0
80,80,204153,1,8
80,80,204264,1,8
80,80,204375,1,0
80,80,204486,1,0
80,80,204597,1,0
80,80,204709,1,0
80,80,204820,1,8
80,80,204931,1,0
80,80,205042,1,8
80,80,205264,1,0
80,80,205375,1,0
256,192,205486,12,0,208486
