osu file format v9

[General]
AudioFilename: .mp3
AudioLeadIn: 0
PreviewTime: 249476
Countdown: 0
SampleSet: Normal
StackLeniency: 0.3
Mode: 0
LetterboxInBreaks: 1

[Editor]
Bookmarks: 1037,17036,31259,45481,59703,73925,89925,104148,118370,132587,146809,161031,177031,191254,205476,219698,233920,249920,264143,278365,292587,306809
DistanceSpacing: 1.1
BeatDivisor: 2
GridSize: 16

[Metadata]
Title:Yoru Suzume no Baraddo
Artist:Yellow Zebra
Creator:impossiblexu
Version:Easy
Source:Touhou
Tags:Yuki Fujimiya

[Difficulty]
HPDrainRate:1
CircleSize:3
OverallDifficulty:1
ApproachRate:2
SliderMultiplier:0.85
SliderTickRate:1

[Events]
//Background and Video events
0,0,"BG.jpg"
//Break Periods
2,118561,131023
//Storyboard Layer 0 (Background)
//Storyboard Layer 1 (Fail)
//Storyboard Layer 2 (Pass)
//Storyboard Layer 3 (Foreground)
//Storyboard Sound Samples
//Background Colour Transformations
3,100,23,78,238

[TimingPoints]
1028,444.444444444444,4,2,0,70,1,0
29361,-100,4,1,0,50,0,0
31139,-100,4,2,0,70,0,0
44527,-100,4,1,0,50,0,0
45361,-100,4,2,0,70,0,0
58694,-100,4,1,0,50,0,0
59587,-100,4,2,0,50,0,0
72916,-100,4,1,0,30,0,0
73805,-100,4,2,0,60,0,0
88027,-100,4,1,0,50,0,0
89861,-100,4,2,0,70,0,0
102694,-100,4,1,0,50,0,0
104027,-100,4,2,0,70,0,0
117361,-100,4,1,0,50,0,0
118250,-100,4,2,0,70,0,0
145805,-100,4,1,0,50,0,0
146694,-100,4,2,0,50,0,0
160027,-100,4,1,0,30,0,0
160916,-100,4,2,0,60,0,0
175027,-100,4,1,0,50,0,0
176805,-100,4,2,0,70,0,0
190694,-100,4,1,0,50,0,0
191220,-100,4,2,0,70,0,0
203583,-100,4,2,0,50,0,0
233694,-100,4,2,0,60,0,0
240916,-100,4,2,0,70,0,0
248916,-100,4,1,0,50,0,0
249861,-100,4,2,0,70,0,0
262694,-100,4,1,0,50,0,0
264083,-100,4,2,0,70,0,0
276750,-100,4,1,0,50,0,0
278250,-100,4,2,0,70,0,0

[Colours]
Combo1 : 255,255,255
Combo2 : 5,240,5
Combo3 : 5,5,240
Combo4 : 240,5,5
Combo5 : 255,150,0

[HitObjects]
84,70,17027,2,0,B|99:104|152:129|202:116|236:72,1,170,4|0
303,62,18361,1,8
362,109,18805,2,0,B|400:122|428:174|416:236|358:265,1,170,0|0
320,299,20139,1,8
254,260,20583,6,0,B|223:289|174:267,2,85,4|0|0
211,195,21916,1,8
272,149,22361,2,0,B|313:143|330:107|269:74|277:46|317:16|355:33,1,170
413,53,23694,1,8
434,126,24139,6,0,B|476:142|502:187|501:246|463:294,1,170,4|0
432,332,25472,1,8
356,321,25916,2,0,B|350:362|290:382|228:365|219:314,1,170,0|0
178,261,27250,1,8
234,209,27694,6,0,B|252:118,1,85,4|8
326,119,28583,2,0,B|309:202,1,85,0|8
357,262,29472,2,0,B|361:308|414:351|479:329|501:272,1,170
433,241,30805,1,0
489,189,31250,6,0,B|410:36,2,170,4|2|0
340,153,33916,1,2
314,80,34361,1,0
238,94,34805,6,0,B|237:143|194:174|136:178|94:146,2,170,0|2|0
255,246,37472,1,2
114,306,38361,6,0,B|269:379,1,170,0|2
316,319,39694,1,0
389,340,40139,2,0,B|389:156,1,170,0|2
401,94,41472,1,0
332,59,41916,6,0,B|317:97|260:121|198:100|185:51,2,170,4|2|0
387,112,44139,2,0,B|389:202,1,85,0|0
341,257,45027,1,0
266,240,45472,6,0,B|264:292|221:318|150:319|127:280,2,170,4|2|0
165,124,48139,1,2
165,47,48583,1,0
241,48,49027,6,0,B|259:29|284:22|316:27|312:63|346:79|376:73|398:49,1,170,0|2
459,92,50361,1,0
428,162,50805,2,0,B|470:176|505:217|496:272|473:302,1,170,0|2
332,242,52583,6,0,B|158:241,2,170,4|2|0
329,88,55250,2,0,B|330:186,1,85,2|0
402,196,56139,6,0,B|445:210|466:259|452:319|404:335,1,170,0|2
372,266,57472,1,0
337,334,57916,2,0,B|236:333,2,85,4|0|0
294,263,59250,1,0
236,213,59694,6,0,B|287:192|310:149|303:96|269:59,2,170,4|2|0
121,110,62361,1,2
51,141,62805,1,0
77,213,63250,6,0,B|115:200|166:204|216:264|210:311,2,170,4|2|0
212,142,65916,1,2
268,194,66361,1,0
335,157,66805,6,0,B|368:184|426:196|478:174|492:138,1,170,4|2
425,102,68139,1,0
354,72,68583,2,0,B|338:35|276:19|221:36|203:73,1,170,0|2
135,92,69916,1,0
68,53,70361,6,0,B|5:109|5:109|37:208,2,170,4|2|4
88,126,72583,2,0,B|119:219,2,85
140,70,73916,6,0,B|333:70,2,170,4|2|0
225,197,76583,2,0,B|227:287,1,85,2|0
276,340,77472,6,0,B|297:308|352:291|417:312|439:351,1,170,4|2
473,275,78805,1,0
417,221,79250,2,0,B|454:201|479:156|462:97|421:72,1,170,0|2
359,44,80583,1,0
317,108,81027,6,0,B|242:146|242:146|147:114,1,170,4|0
87,150,82361,1,8
109,222,82805,2,0,B|107:266|69:250|67:315,2,85,0|8|0
170,267,84139,1,8
240,237,84583,6,0,B|340:238,2,85,4|8|0
187,181,85916,1,8
245,132,86361,2,0,B|245:30,2,85,4|8|0
310,171,87694,1,8
370,124,88139,6,0,B|440:117|513:163|517:244|479:320,1,255
407,225,89916,5,4
341,291,90361,2,0,B|219:291,1,85,8|0
165,268,91250,1,8
145,176,91694,2,0,B|177:134|147:85,2,85,0|8|0
238,181,93027,1,8
260,90,93472,6,0,B|354:89,2,85,4|8|0
310,168,94805,1,8
401,147,95250,2,0,B|447:148|490:187|490:249|464:289,1,170
378,270,96583,1,8
323,345,97027,6,0,B|225:343,2,85,4|8|0
281,260,98361,1,8
238,176,98805,2,0,B|322:177,2,85,4|8|0
219,84,100139,1,8
143,28,100583,6,0,B|157:64|136:118|71:132|32:112,1,170,4|0
21,206,101916,1,8
102,252,102361,2,0,B|102:289|102:289|90:289|90:289|89:339,2,85,4|0|0
170,188,103694,1,0
238,252,104139,6,0,B|277:229|324:253,1,85,4|8
391,191,105027,2,0,B|438:216|481:190,1,85,0|8
434,109,105916,2,0,B|432:20,2,85,0|8|0
351,65,107250,1,8
277,122,107694,6,0,B|238:152|194:117,2,85,4|8|0
342,189,109027,1,8
283,262,109472,2,0,B|308:299|286:347,2,85,0|8|0
200,305,110805,1,8
128,244,111250,6,0,B|172:224|190:177|177:124|143:98,1,170,4|0
214,36,112583,1,8
295,81,113027,2,0,B|316:112|371:139|436:115|453:69,1,170,4|0
492,165,114361,1,8
421,226,114805,6,0,B|421:323,1,85,4|8
335,349,115694,2,0,B|334:257,1,85,0|8
255,213,116583,2,0,B|214:237|171:212,2,85,4|0|0
215,128,117916,1,0
308,129,118361,1,4
100,104,132583,6,0,B|135:73|186:59|234:78|262:116,2,170,4|2|0
178,235,135250,1,2
230,290,135694,1,0
285,237,136139,6,0,B|472:239,2,170,0|2|0
349,98,138805,2,0,B|312:124|266:97,1,85,2|0
221,158,139694,6,0,B|197:132|142:111|83:129|61:162,2,170,4|2|0
144,290,142361,2,0,B|145:382,1,85,2|0
219,359,143250,6,0,B|240:320|293:309|350:322|376:373,1,170,0|2
427,311,144583,1,0
410,236,145027,2,0,B|371:215|359:156|371:102|424:79,1,170,4|0
354,32,146361,1,0
286,67,146805,6,0,B|97:67,2,170,4|2|0
191,187,149472,1,2
126,228,149916,1,0
193,264,150361,6,0,B|224:241|286:249|327:288|326:335,2,170,4|2|0
149,327,152583,1,0
73,315,153027,2,0,B|77:279|41:279|43:237,1,85,2|0
25,163,153916,6,0,B|72:153|105:124|111:70|89:20,1,170,4|2
170,29,155250,1,0
210,93,155694,2,0,B|239:66|298:57|348:80|371:129,1,170,0|2
437,114,157027,1,0
474,180,157472,6,0,B|474:359,2,170,4|2|4
406,216,159694,2,0,B|296:216,1,85
256,174,160583,1,0
263,97,161027,6,0,B|233:129|181:142|124:116|105:64,2,170,4|2|0
401,32,163694,2,0,B|475:89,1,85,2|0
422,145,164583,6,0,B|424:344,1,170,0|2
352,342,165916,1,0
293,292,166361,2,0,B|281:334|219:352|166:328|150:292,1,170,0|2
120,228,167694,1,0
175,175,168139,6,0,B|174:82,2,85,4|8|0
241,213,169472,1,8
308,176,169916,2,0,B|314:137|373:109|428:138|439:181,1,170
373,218,171250,1,8
428,270,171694,6,0,B|347:326,2,85,4|8|0
485,219,173027,1,8
427,168,173472,2,0,B|496:119,2,85,4|8|0
371,115,174805,1,8
311,66,175250,6,0,B|35:66,1,255,0|0
104,145,177027,6,0,B|128:186|95:239,1,85,4|8
165,295,177916,1,0
247,251,178361,1,8
232,158,178805,2,0,B|266:119|331:144,2,85,0|8|0
165,91,180139,1,8
233,26,180583,6,0,B|274:54|323:24,1,85,4|8
381,93,181472,2,0,B|417:69|471:89,1,85,0|8
495,173,182361,2,0,B|459:191|437:240|457:298|492:339,1,170
390,352,183694,1,8
322,288,184139,6,0,B|145:288,1,170,4|0
97,211,185472,1,8
61,124,185916,2,0,B|231:124,1,170,4|0
295,56,187250,1,8
369,112,187694,6,0,B|409:89|463:117,1,85,0|8
409,195,188583,2,0,B|371:226|319:193,1,85,0|8
270,272,189472,2,0,B|255:308|255:308|270:353,2,85,0|8|0
179,247,190805,1,0
220,162,191250,6,0,B|249:120|216:72,1,85,4|8
301,17,192139,1,0
361,86,192583,1,8
431,24,193027,2,0,B|479:42|508:90|503:142|478:186,1,170
400,200,194361,1,8
444,282,194805,6,0,B|409:313|433:364,2,85,4|8|0
350,288,196139,1,8
301,207,196583,2,0,B|273:236|212:241|169:200|179:151,1,170
162,64,197916,1,8
248,27,198361,6,0,B|353:27,2,85,4|8|0
292,109,199694,1,8
373,155,200139,2,0,B|374:259,1,85,0|8
329,322,201027,1,0
238,345,201472,1,8
149,315,201916,6,0,B|107:309|117:276|74:272,1,85,4|8
17,200,202805,1,0
78,129,203250,1,8
161,171,203694,6,0,B|270:172,1,85,2|2
312,237,204583,2,0,B|417:237,1,85,2|2
476,287,205472,1,4
