osu file format v8

[General]
AudioFilename: Yellow Zebra - Sound of red eye.mp3
AudioLeadIn: 0
PreviewTime: 73101
Countdown: 1
SampleSet: Normal
StackLeniency: 0.2
Mode: 0
LetterboxInBreaks: 1
StoryFireInFront: 0

[Editor]
Bookmarks: 0,17360,26650,40553,59145,73085,97871,107151,121104,139690,153609,178386
DistanceSpacing: 1
BeatDivisor: 4
GridSize: 8

[Metadata]
Title:Sound of Red Eye
Artist:Yellow Zebra
Creator:l3lueskyiiz
Version:Normal
Source:Touhou
Tags:reisen udongein inaba zun yuki fujimiya

[Difficulty]
HPDrainRate:3
CircleSize:4
OverallDifficulty:5
ApproachRate:5
SliderMultiplier:1
SliderTickRate:2

[Events]
//Background and Video events
0,0,"Konachan.com - 73706 bunnygirl long_hair moon purple_hair red_eyes reisen_udongein_inaba suit tie touhou.jpg"
//Break Periods
2,17558,25449
2,98075,103643
2,139882,144094
2,149172,150094
//Storyboard Layer 0 (Background)
//Storyboard Layer 1 (Fail)
//Storyboard Layer 2 (Pass)
//Storyboard Layer 3 (Foreground)
//Storyboard Sound Samples
//Background Colour Transformations
3,100,0,0,0

[TimingPoints]
8069,387.096774193548,4,2,0,60,1,0
8069,-100,3,2,0,24,0,0
10392,-100,3,2,0,34,0,0
13102,-100,3,2,0,45,0,0
15037,-100,3,2,1,50,0,0
40585,-100,3,1,1,60,0,1
40681,-100,3,1,1,60,0,0
58391,-100,3,1,1,0,0,0
58488,-100,3,1,1,60,0,0
73101,-100,3,1,1,60,0,1
96714,-100,3,2,0,60,0,1
97875,-100,3,2,0,60,0,0
104746,-200,3,2,0,20,0,0
106392,-100,3,1,1,60,0,0
131552,-100,3,1,2,40,0,0
131649,-100,3,1,1,60,0,0
133875,-100,3,1,2,40,0,0
133972,-100,3,1,1,60,0,0
136198,-100,3,1,2,40,0,0
136294,-100,3,1,1,60,0,0
145101,-100,3,1,2,60,0,0
145875,-100,3,1,1,60,0,0
151198,-200,3,1,1,60,0,0
152650,-100,3,1,2,60,0,0
153609,-100,3,1,1,60,0,1
157875,-100,3,1,2,60,0,1
157972,-100,3,1,1,60,0,1
165133,-200,3,1,1,60,0,1
166005,-100,3,1,1,60,0,1
178386,-100,3,2,0,60,0,0

[Colours]
Combo1 : 199,79,251
Combo2 : 255,128,128
Combo3 : 255,0,128

[HitObjects]
96,96,8069,1,2
200,96,8456,1,2
200,192,8843,1,2
96,192,9230,1,2
96,240,9423,2,0,B|96:352,1,100,2|2
248,336,10391,6,0,B|352:336,2,100,2|2|2
248,240,11552,1,2
248,240,11746,1,2
248,144,12133,2,0,B|400:144,1,150,2|2
400,144,13101,6,0,B|400:248,1,100,2|2
488,216,13875,1,2
488,216,14069,2,0,B|488:112,1,100,2|2
352,48,15036,6,0,B|256:8|152:48,3,200,2|2|2|4
256,48,26649,5,4
256,248,27423,2,0,B|256:360,1,100,0|8
192,160,28585,2,0,B|80:160,1,100,0|0
288,160,29746,1,0
384,160,30133,1,8
328,352,30907,5,0
328,352,31294,2,0,B|304:272|136:232|64:280,1,300,0|8
248,192,33230,1,0
248,192,33617,2,0,B|272:112|440:72|512:120,1,300,0|8
392,280,35552,6,0,B|392:344,2,50,0|0|8
256,136,36714,1,0
256,232,37101,1,0
256,328,37488,1,0
160,328,37875,5,0
160,232,38262,2,0,B|168:112|56:64,1,200,8|0
168,48,39423,1,2
264,48,39811,1,2
368,48,40198,1,2
464,48,40585,5,4
408,240,41359,1,0
312,240,41746,1,8
112,240,42520,1,0
208,240,42907,1,8
256,48,43681,6,0,B|256:160,1,100,0|8
256,352,44843,1,0
144,344,45230,2,0,B|144:288|184:248|320:248|368:288|368:368,1,300,8|8
256,176,47165,5,0
184,104,47552,1,8
256,32,47940,1,0
328,104,48327,1,0
256,176,48714,1,8
408,304,49488,5,0
408,304,49875,2,0,B|408:192,1,100,8|0
336,128,50649,2,0,B|336:240,1,100,0|8
144,288,51811,6,0,B|144:176,1,100,0|8
143,188,52585,2,0,B|39:188,1,100
96,104,53359,1,8
256,224,54133,5,0
256,128,54520,1,8
352,128,54907,1,0
304,40,55294,1,0
208,40,55681,5,8
160,128,56069,1,0
160,232,56456,2,0,B|160:344,1,100,0|8
256,192,57036,12,0,58391
368,232,59165,5,4
440,304,59552,2,0,B|440:184,2,100,0|0|8
336,304,60714,2,0,B|168:304,1,150,0|0
136,304,61488,1,8
136,208,61875,1,0
256,48,62649,5,8
192,128,63036,1,0
256,208,63423,1,0
320,128,63811,2,0,B|440:128,2,100,8|0|0
128,64,65359,5,0
128,160,65746,1,0
160,256,66133,1,8
248,312,66520,1,0
352,320,66907,1,0
448,288,67294,2,0,B|464:176,1,100,8|0
368,240,68069,2,0,B|352:128,1,100,0|8
256,192,69230,12,4,70778
256,328,71359,6,0,B|256:208,2,100,0|4|4
256,48,73101,5,4
208,136,73488,1,0
304,136,73875,1,8
256,224,74262,2,0,B|256:328,1,100,0|8
352,320,75036,2,0,B|352:256,2,50,0|0|8
456,208,76004,6,0,B|456:40,1,150,4|8
352,56,76972,2,0,B|240:56,1,100,0|8
252,55,77552,1,0
248,152,77940,2,0,B|248:216,3,50,0|8|0|0
248,304,78907,1,8
80,304,79294,5,4
80,208,79682,1,0
80,112,80069,1,8
184,112,80456,2,0,B|184:176,3,50,0|0|8|0
184,216,81230,2,0,B|184:272,2,50,0|0|8
328,264,82198,5,0
328,264,82391,2,0,B|328:48,2,200,4|8|8
432,264,84327,1,0
328,264,84714,1,8
232,264,85101,1,0
136,264,85488,6,0,B|136:144,2,100,4|0|8
48,216,86649,1,0
136,168,87036,1,8
232,136,87423,1,0
280,120,87617,1,0
328,112,87811,2,0,B|368:112|408:120|416:216|416:224,1,150,8|4
416,312,88778,6,0,B|344:312,3,50,0|8|0|0
264,312,89746,1,8
264,312,89940,2,0,B|264:200,1,100
208,216,90520,2,0,B|88:216,1,100,8|0
152,304,91294,1,8
56,304,91682,6,0,B|24:256|56:184,1,100,4|0
56,112,92456,1,8
152,112,92843,2,0,B|272:112,1,100,0|8
304,200,93617,2,0,B|184:200,1,100,0|8
152,288,94391,5,0
152,288,94585,1,4
304,288,95165,1,8
400,288,95552,1,0
352,200,95940,2,0,B|352:96,1,100,8|0
256,64,96714,5,2
256,160,97101,1,2
256,256,97488,1,2
256,352,97875,1,4
128,192,104843,6,0,B|336:192,1,200,0|4
376,192,106585,1,4
256,96,107165,5,4
256,296,107940,1,0
256,192,108327,1,8
56,192,109101,6,0,B|56:88,1,100,0|8
256,56,110262,2,0,B|376:56,1,100,0|8
496,200,111423,2,0,B|496:300,1,100,0|8
392,328,112198,5,0
296,328,112585,1,0
200,328,112972,1,8
104,328,113359,1,0
152,240,113746,5,0
248,240,114133,2,0,B|248:176|248:128|272:80|304:136|328:80|352:128|352:184|352:256,1,300,8|8
496,104,116069,6,0,B|496:4,1,100,0|8
408,48,116843,1,0
408,144,117230,1,0
320,96,117617,1,8
120,96,118391,6,0,B|120:208,3,100,0|8|0|0
120,296,119940,1,8
224,296,120327,1,0
320,296,120714,1,0
320,296,120907,1,0
320,296,121101,1,4
456,144,121875,5,0
456,240,122262,1,8
288,136,123036,1,0
288,40,123423,1,8
112,136,124198,5,0
112,232,124585,1,8
304,192,125359,1,0
304,192,125746,2,0,B|336:304,1,100,8|0
432,280,126520,2,0,B|400:184,1,100,0|8
368,88,127294,5,0
272,88,127682,1,0
176,88,128069,1,8
176,192,128456,2,0,B|207:286,1,100
104,288,129230,2,0,B|72:192,1,100,8|0
64,96,130004,6,0,B|120:96,2,50,0|0|8
160,96,130778,2,0,B|224:96|224:96|224:96|200:152|216:192|280:224|336:208|368:176|368:136|368:120,1,300
304,64,132327,5,0
304,64,132520,1,0
304,64,132714,1,8
400,64,133101,2,0,B|464:144|448:192|384:256|344:264|264:272,1,300
192,264,134649,6,0,B|192:336,2,50,0|0|8
96,264,135423,2,0,B|96:192|96:192|48:192|32:184|0:160|0:104|32:72|64:56|104:56|120:72,1,300
192,128,136972,2,0,B|312:128,1,100,0|8
256,192,137552,12,4,139682
256,192,145294,6,0,B|256:128,3,50,2|2|2|4
352,160,146262,2,0,B|352:272,1,100,0|8
432,208,147036,1,0
432,304,147423,1,8
328,304,147811,6,0,B|216:304,3,100,0|8|0|8
96,192,151294,6,0,B|280:192,1,175,4|4
368,192,153036,6,0,B|368:232,2,25,2|2|2
368,88,153617,5,4
288,24,154004,1,0
216,88,154391,1,8
120,88,154778,2,0,B|120:200,1,100,0|8
120,288,155552,2,0,B|64:288,2,50,0|0|8
248,208,156520,6,0,B|304:208|304:208|296:272|328:288|352:304,1,150,4|8
335,291,157488,2,0,B|341:286|373:270|365:206|365:206|421:206,1,150
480,128,158649,2,0,B|480:28,2,100,8|0|8
384,128,159811,6,0,B|176:128,1,200,4|8
80,128,160972,1,0
80,176,161165,1,0
80,224,161359,1,8
80,320,161746,2,0,B|184:320,1,100,0|8
376,320,162714,5,4
376,320,162907,1,0
440,248,163294,1,0
376,176,163682,1,8
304,248,164069,1,0
232,176,164456,5,8
304,104,164843,1,0
224,48,165230,2,0,B|144:128,1,100,8|4
152,216,166391,5,0
152,312,166778,1,8
240,264,167165,2,0,B|344:264,1,100,0|8
344,360,167940,1,0
440,360,168327,1,8
440,264,168714,5,0
440,264,168907,2,0,B|440:200|440:200|400:200|376:192|368:144|368:136,1,150,4|8
272,160,169875,1,0
272,64,170262,1,8
272,64,170456,1,0
120,64,171036,2,0,B|120:168,2,100,8|0|8
40,120,172198,5,4
40,216,172585,1,0
104,288,172972,1,8
200,288,173359,2,0,B|264:288,3,50,0|0|8|0
304,288,174133,1,0
304,192,174520,6,0,B|359:158|399:106|405:61,1,150,8|4
256,192,175488,12,4,178391
