osu file format v9

[General]
AudioFilename: 01. Prism Love.mp3
AudioLeadIn: 1000
PreviewTime: 91949
Countdown: 0
SampleSet: Soft
StackLeniency: 0.5
Mode: 0
LetterboxInBreaks: 0

[Editor]
DistanceSpacing: 0.8
BeatDivisor: 4
GridSize: 4

[Metadata]
Title:Prism Love
Artist:Yellow Zebra
Creator:l1106188
Version:Normal
Source:Touhou
Tags:DarknessAngel bossandy fujimiya yuki komeiji koishi last remote yoshiha Paint and Porbity

[Difficulty]
HPDrainRate:3
CircleSize:3
OverallDifficulty:3
ApproachRate:4
SliderMultiplier:1.3
SliderTickRate:2

[Events]
//Background and Video events
0,0,"BG.jpg"
//Break Periods
2,23380,34122
2,121481,132224
2,219584,230327
//Storyboard Layer 0 (Background)
//Storyboard Layer 1 (Fail)
//Storyboard Layer 2 (Pass)
//Storyboard Layer 3 (Foreground)
Sprite,Foreground,Centre,"Lyric\lyric-1.png",320,240 F,0,1010,1310,0,1 M,0,1010,7362,213,149,213,153 F,0,1310,,1 F,0,1310,7062,1 F,0,7062,7362,1,0
Sprite,Foreground,Centre,"Lyric\lyric-2.png",320,240 F,0,3462,3762,0,1 M,0,3462,7362,182,225,182,227 F,0,3762,7062,1 F,0,7062,7362,1,0
Sprite,Foreground,Centre,"Lyric\lyric-3.png",320,240 M,1,4662,4962,263,257,211,273 F,1,4662,4962,0,1 F,0,4962,7062,1 M,0,4962,7362,211,273,211,274 F,0,7062,7362,1,0
Sprite,Foreground,Centre,"Lyric\lyric-4.png",320,240 M,1,5262,5562,146,301,182,319 F,1,5262,5562,0,1 F,0,5562,7062,1 M,0,5562,7362,182,319,182,321 F,0,7062,7362,1,0
Sprite,Foreground,Centre,"Lyric\lyric-5.png",320,240 M,1,5862,6162,237,363,213,353 F,1,5862,6162,0,1 F,0,6162,7062,1 M,0,6162,7362,213,353,213,355 F,0,7062,7362,1,0
Sprite,Foreground,Centre,"Lyric\lyric-6.png",320,240 F,0,7062,7362,0,1 M,0,7062,13062,212,114,212,121 F,0,7362,12762,1 F,0,12762,13062,1,0
Sprite,Foreground,Centre,"Lyric\lyric-7.png",320,240 F,0,8262,8562,0,1 M,0,8262,13062,212,181,212,186 F,0,8562,12762,1 F,0,12762,13062,1,0
Sprite,Foreground,Centre,"Lyric\lyric-8.png",320,240 M,1,9462,9762,92,218,184,245 F,1,9462,9762,0,1 F,0,9762,12762,1 M,0,9762,13062,184,245,184,248 F,0,12762,13062,1,0
Sprite,Foreground,Centre,"Lyric\lyric-9.png",320,240 M,1,10062,10362,288,272,212,287 F,1,10062,10362,0,1 F,0,10362,12762,1 M,0,10362,13062,212,287,212,290 F,0,12762,13062,1,0
Sprite,Foreground,Centre,"Lyric\lyric-3.png",320,240 M,1,10662,10962,109,298,177,326 F,1,10662,10962,0,1 F,0,10962,12762,1 M,0,10962,13062,177,326,177,328 F,0,12762,13062,1,0
Sprite,Foreground,Centre,"Lyric\lyric-4.png",320,240 M,1,11262,11562,91,385,153,373 F,1,11262,11562,0,1 F,0,11562,12762,1 M,0,11562,13062,153,373,153,374 F,0,12762,13062,1,0
Sprite,Foreground,Centre,"Lyric\lyric-5.png",320,240 M,1,11862,12162,248,436,173,414 F,1,11862,12162,0,1 F,0,12162,12762,1 M,0,12162,13062,173,414,173,415 F,0,12762,13062,1,0
Sprite,Foreground,Centre,"Lyric\lyric-11.png",320,240 F,0,12762,13062,0,1 M,0,12762,21762,222,118,222,125 F,0,13062,21462,1 F,0,21462,21762,1,0
Sprite,Foreground,Centre,"Lyric\lyric-12.png",320,240 F,0,13662,13962,0,1 M,0,13662,21762,201,167,201,173 F,0,13962,14262,1 F,0,14262,21462,1 F,0,21462,21762,1,0
Sprite,Foreground,Centre,"Lyric\lyric-13.png",320,240 F,0,14262,14562,0,1 M,0,14262,21762,225,242,225,245 F,0,14562,21462,1 F,0,21462,21762,1,0
Sprite,Foreground,Centre,"Lyric\lyric-14.png",320,240 F,0,15762,16062,0,1 M,0,15762,21762,192,302,192,304 F,0,16062,21462,1 F,0,21462,,1 F,0,21462,21762,1,0
Sprite,Foreground,Centre,"Lyric\lyric-15.png",320,240 F,0,16662,16962,0,1 M,0,16662,21762,193,338,193,341 F,0,16962,21462,1 F,0,21462,21762,1,0
Sprite,Foreground,Centre,"Lyric\lyric-16.png",320,240 F,0,18462,18762,0,1 M,0,18462,21762,162,373,162,376 F,0,18762,21462,1 F,0,21462,21762,1,0
Sprite,Foreground,Centre,"SB\SB-BG.jpg",320,240 M,0,37194,,320,240 F,0,37194,37632,1,0 S,0,37194,37632,0.8,0.936
Sprite,Foreground,Centre,"SB\SB-BG.jpg",320,240 F,0,23180,23617,1,0 S,0,23180,23617,0.8,0.8959998
Sprite,Foreground,Centre,"Lyric\lyric-17.png",320,240 F,0,37194,37413,0,1 M,0,37194,43982,170,183,170,188 F,0,37413,43763,1 F,0,43763,43982,1,0
Sprite,Foreground,Centre,"Lyric\lyric-18.png",320,240 F,0,38946,39165,0,1 M,0,38946,43982,157,227,157,229 F,0,39165,43763,1 F,0,43763,43982,1,0
Sprite,Foreground,Centre,"Lyric\lyric-19.png",320,240 M,1,40260,40479,203,270,170,278 F,1,40260,40479,0,1 F,0,40479,43763,1 M,0,40479,43982,170,278,170,280 F,0,43763,43982,1,0
Sprite,Foreground,Centre,"Lyric\lyric-21.png",320,240 F,0,41574,41793,0,1 M,0,41574,43982,147,358,147,360 F,0,41793,43763,1 F,0,43763,43982,1,0
Sprite,Foreground,Centre,"Lyric\lyric-22.png",320,240 F,0,43763,43982,0,1 M,0,43763,45734,212,124,212,126 F,0,43982,50771,1 M,0,45734,50990,212,126,212,130 F,0,50771,50990,1,0
Sprite,Foreground,Centre,"Lyric\lyric-23.png",320,240 F,0,45515,45734,0,1 M,0,45515,50990,193,174,193,177 F,0,45734,,1 F,0,45734,50771,1 F,0,50771,50990,1,0
Sprite,Foreground,Centre,"Lyric\lyric-24.png",320,240 M,1,46391,46610,265,222,213,217 F,1,46391,46610,0,1 F,0,46610,50771,1 M,0,46610,50990,213,217,213,219 F,0,50771,50990,1,0
Sprite,Foreground,Centre,"Lyric\lyric-25.png",320,240 M,0,46829,47048,143,252,181,246 F,1,46829,47048,0,1 F,0,47048,50771,1 M,0,47048,50990,181,246,181,248 F,0,50771,50990,1,0
Sprite,Foreground,Centre,"Lyric\lyric-26.png",320,240 M,0,47705,47924,238,298,212,278 F,1,47705,47924,0.01200012,1 F,0,47924,,1 F,0,47924,50771,1 M,0,47924,50990,212,278,212,281 F,0,50771,50990,1,0
Sprite,Foreground,Centre,"Lyric\lyric-27.png",320,240 F,0,49457,49676,0,1 M,0,49457,50990,246,310,246,311 F,0,49676,50771,1 F,0,50771,50990,1,0
Sprite,Foreground,Centre,"Lyric\lyric-28.png",320,240 F,0,50771,50990,0,1 M,0,50771,57997,241,102,241,105 F,0,50990,57778,1 F,0,57778,57997,1,0
Sprite,Foreground,Centre,"Lyric\lyric-29.png",320,240 F,0,51209,51428,0,1 M,0,51209,57997,228,152,228,158 F,0,51428,57778,1 F,0,57778,57997,1,0
Sprite,Foreground,Centre,"Lyric\lyric-31.png",320,240 F,0,52085,52304,0,1 M,0,52085,57997,238,193,238,196 F,0,52304,57778,1 F,0,57778,57997,1,0
Sprite,Foreground,Centre,"Lyric\lyric-32.png",320,240 F,0,52961,53180,0,1 M,0,52961,57997,228,232,228,235 F,0,53180,57778,1 F,0,57778,57997,1,0
Sprite,Foreground,Centre,"Lyric\lyric-33.png",320,240 F,0,54055,54274,0,1 M,0,54055,57997,171,105,171,108 F,0,54274,57778,1 F,0,57778,57997,1,0
Sprite,Foreground,Centre,"Lyric\lyric-34.png",320,240 F,0,54931,55150,0,1 M,0,54931,57997,158,148,158,151 F,0,55150,57778,1 F,0,57778,57997,1,0
Sprite,Foreground,Centre,"Lyric\lyric-35.png",320,240 F,0,55807,56026,0,1 M,0,55807,57997,177,204,177,205 F,0,56026,57778,1 F,0,57778,57997,1,0
Sprite,Foreground,Centre,"Lyric\lyric-3.png",320,240 M,1,56464,56683,124,282,154,265 F,1,56464,56683,0,1 F,0,56683,57778,1 M,0,56683,57997,154,265,154,267 F,0,57778,57997,1,0
Sprite,Foreground,Centre,"Lyric\lyric-4.png",320,240 M,1,56902,57121,214,325,178,306 F,1,56902,57121,0,1 F,0,57121,57778,1 M,0,57121,57997,178,306,178,307 F,0,57778,57997,1,0
Sprite,Foreground,Centre,"Lyric\lyric-5.png",320,240 M,1,57340,57559,139,351,159,340 F,1,57340,57559,0,1 F,0,57559,57778,1 M,0,57559,57997,159,340 F,0,57778,57997,1,0
Sprite,Foreground,Centre,"Lyric\lyric-36.png",320,240 F,0,57778,57997,0,1 M,0,57778,63690,234,184,234,190 F,0,57997,63471,1 F,0,63471,63690,1,0
Sprite,Foreground,Centre,"Lyric\lyric-37.png",320,240 F,0,59749,59968,0,1 M,0,59749,63690,181,167,181,169 F,0,59968,63471,1 F,0,63471,63690,1,0
Sprite,Foreground,Centre,"Lyric\lyric-38.png",320,240 F,0,60625,60844,0,1 M,0,60625,63690,166,247,166,249 F,0,60844,63471,1 F,0,63471,63690,1,0
Sprite,Foreground,Centre,"Lyric\lyric-39.png",320,240 M,1,61282,61501,158,349,183,338 F,1,61282,61501,0,1 F,0,61501,63471,1 M,0,61501,63690,183,338,183,341 F,0,63471,63690,1,0
Sprite,Foreground,Centre,"SB\SB-BG.jpg",320,240 M,0,65223,,320,240 F,0,65223,65661,1,0 S,0,65223,65661,0.8000001,0.8800001
Sprite,Foreground,Centre,"Lyric\lyric-41.png",320,240 F,0,65223,65442,0,1 M,0,65223,72450,240,147,240,149 F,0,65442,72231,1 F,0,72231,72450,1,0
Sprite,Foreground,Centre,"Lyric\lyric-42.png",320,240 F,0,66537,66756,0,1 M,0,66537,72450,224,211,224,213 F,0,66756,72231,1 F,0,72231,72450,1,0
Sprite,Foreground,Centre,"Lyric\lyric-43.png",320,240 F,0,66975,67194,0,1 M,0,66975,72450,241,266,241,269 F,0,67194,72231,1 F,0,72231,72450,1,0.09199997
Sprite,Foreground,Centre,"Lyric\lyric-44.png",320,240 F,0,68727,68946,0,1 M,0,68727,72450,173,212,173,215 F,0,68946,72231,1 F,0,72231,72450,1,0
Sprite,Foreground,Centre,"Lyric\lyric-45.png",320,240 F,0,70041,70260,0,1 M,0,70041,72450,164,284,164,286 F,0,70260,72231,1 F,0,72231,72450,1,0
Sprite,Foreground,Centre,"Lyric\lyric-46.png",320,240 F,0,71136,71355,0,1 M,0,71136,72450,179,334,179,335 F,0,71355,72231,1 F,0,72231,72450,1,0
Sprite,Foreground,Centre,"SB\SB-BG.jpg",320,240 M,0,79238,,320,240 F,0,79238,79676,1,0 S,0,79238,79676,0.7999998,0.888
Sprite,Foreground,Centre,"Lyric\lyric-47.png",320,240 F,0,72231,72450,0,1 M,0,72231,79457,181,231,181,236 F,0,72450,79238,1 F,0,79238,79457,1,0
Sprite,Foreground,Centre,"Lyric\lyric-48.png",320,240 F,0,73982,74201,0,1 M,0,73982,79457,173,280,173,283 F,0,74201,79238,1 F,0,79238,79457,1,0
Sprite,Foreground,Centre,"Lyric\lyric-49.png",320,240 F,0,74639,74858,0,1 M,0,74639,79457,184,332,184,334 F,0,74858,79238,1 F,0,79238,79457,1,0
Sprite,Foreground,Centre,"Lyric\lyric-51.png",320,240 F,0,76391,76610,0,1 M,0,76391,79457,140,257,140,260 F,0,76610,79238,1 F,0,79238,79457,1,0
Sprite,Foreground,Centre,"Lyric\lyric-52.png",320,240 F,0,77048,77267,0,1 M,0,77048,79457,130,326,130,327 F,0,77267,79238,1 F,0,79238,79457,1,0
Sprite,Foreground,Centre,"Lyric\lyric-53.png",320,240 F,0,78143,78362,0,1 M,0,78143,79457,140,395,140,397 F,0,78362,79238,1 F,0,79238,79457,1,0
Sprite,Foreground,Centre,"Lyric\lyric-54.png",320,240 F,0,79238,79457,0,1 M,0,79238,86464,236,131,236,139 F,0,79457,86245,1 F,0,86245,86464,1,0
Sprite,Foreground,Centre,"Lyric\lyric-55.png",320,240 F,0,81428,81647,0,1 M,0,81428,86464,227,242,227,245 F,0,81647,86245,1 F,0,86245,86464,1,0
Sprite,Foreground,Centre,"SB\SB-BG.jpg",320,240 M,0,86245,,320,240 F,0,86245,86683,1,0 S,0,86245,86683,0.8,0.888
Sprite,Foreground,Centre,"SB\SB-BG.jpg",320,240 F,0,87121,87559,1,0 S,0,87121,87559,0.8,0.928
Sprite,Foreground,Centre,"Lyric\lyric-56.png",320,240 F,0,82742,82961,0,1 M,0,82742,86464,183,164,183,169 F,0,82961,86245,1 F,0,86245,86464,1,0
Sprite,Foreground,Centre,"Lyric\lyric-57.png",320,240 F,0,84055,84274,0,1 M,0,84055,86464,174,244,174,247 F,0,84274,86245,1 F,0,86245,86464,1,0
Sprite,Foreground,Centre,"Lyric\lyric-58.png",320,240 F,0,84931,85150,0,1 M,0,84931,86464,170,304,170,305 F,0,85150,86245,1 F,0,86245,86464,1,0
Sprite,Foreground,Centre,"SB\SB-BG.jpg",320,240 F,0,89749,90187,1,0 S,0,89749,90187,0.8,0.9040001
Sprite,Foreground,Centre,"SB\SB-BG.jpg",320,240 F,0,90625,91063,1,0 S,0,90625,91063,0.8,0.9039999
Sprite,Foreground,Centre,"Lyric\lyric-4.png",320,240 F,0,86245,86464,0,1 M,0,86245,89968,225,212,225,216 F,0,86464,89749,1 F,0,89749,89968,1,0
Sprite,Foreground,Centre,"Lyric\lyric-59.png",320,240 F,0,86902,87121,0,1 M,0,86902,89968,218,273,218,275 F,0,87121,89749,1 F,0,89749,89968,1,0
Sprite,Foreground,Centre,"Lyric\lyric-61.png",320,240 F,0,91939,92158,0,1 M,0,91939,96975,235,121,235,128 F,0,92158,96756,1 F,0,96756,96975,1,0
Sprite,Foreground,Centre,"Lyric\lyric-62.png",320,240 F,0,94128,94347,0,1 M,0,94128,96975,222,208,222,211 F,0,94347,96756,1 F,0,96756,96975,1,0
Sprite,Foreground,Centre,"Lyric\lyric-63.png",320,240 M,1,95004,95223,123,306,210,279 F,0,95004,95223,0,1 F,1,95223,96756,1 M,0,95223,96975,210,279,210,280 F,0,96756,96975,1,0
Sprite,Foreground,Centre,"Lyric\lyric-31.png",320,240 M,0,95442,95661,261,358,220,320 F,0,95442,95661,0,1 F,1,95661,96756,1 M,0,95661,96975,220,320,220,322 F,0,96756,96975,1,0
Sprite,Foreground,Centre,"Lyric\lyric-4.png",320,240 M,1,95880,96099,127,366,205,360 F,1,95880,96099,0.04399994,1 F,0,96099,96756,1 M,0,96099,96975,205,360,205,362 F,0,96756,96975,1,0.1040001
Sprite,Foreground,Centre,"Lyric\lyric-64.png",320,240 M,1,96756,96975,458,0,187,125 F,1,96756,96975,0,1 F,0,96975,100917,1 M,0,96975,101136,187,125,187,128 F,0,100917,101136,1,0
Sprite,Foreground,Centre,"Lyric\lyric-65.png",320,240 F,0,98289,98508,0,1 M,0,98289,101136,173,161,173,164 F,0,98508,100917,1 F,0,100917,101136,1,0
Sprite,Foreground,Centre,"Lyric\lyric-66.png",320,240 F,0,98508,98727,0,1 M,0,98508,101136,191,197,191,199 F,0,98727,100917,1 F,0,100917,101136,1,0
Sprite,Foreground,Centre,"Lyric\lyric-48.png",320,240 F,0,98946,99165,0,1 M,0,98946,101136,172,236,172,237 F,0,99165,100917,1 F,0,100917,101136,1,0
Sprite,Foreground,Centre,"Lyric\lyric-67.png",320,240 M,1,99384,99603,237,281,187,276 F,1,99384,99603,0,1 F,0,99603,100917,1 M,0,99603,101136,187,276,187,278 F,0,100917,101136,1,0
Sprite,Foreground,Centre,"Lyric\lyric-66.png",320,240 M,1,99822,100041,113,328,174,316 F,1,99822,100041,0,1 F,0,100041,100917,1 M,0,100041,101136,174,316,174,317 F,0,100917,101136,1,0
Sprite,Foreground,Centre,"Lyric\lyric-68.png",320,240 M,1,100260,100479,247,357,191,354 F,1,100260,100479,0,1 F,0,100479,100917,1 M,0,100479,101136,191,354,191,355 F,0,100917,101136,1,0.02
Sprite,Foreground,Centre,"Lyric\lyric-69.png",320,240 F,0,100917,101136,0,1 M,0,100917,106610,222,154,222,159 F,0,101136,106391,1 F,0,106391,106610,1,0
Sprite,Foreground,Centre,"Lyric\lyric-71.png",320,240 F,0,102012,102231,0,1 M,0,102012,106610,202,258,202,262 F,0,102231,106391,1 F,0,106391,106610,1,0
Sprite,Foreground,Centre,"Lyric\lyric-72.png",320,240 F,0,103107,103325,0,1 M,0,103107,106610,229,352,229,355 F,0,103325,106391,1 F,0,106391,106610,1,0
Sprite,Foreground,Centre,"Lyric\lyric-73.png",320,240 F,0,105515,105734,0.228,1 M,0,105515,106610,202,410,202,411 F,0,105734,106391,1 F,0,106391,106610,1,0
Sprite,Foreground,Centre,"Lyric\lyric-74.png",320,240 F,0,106391,106610,0,1 M,0,106391,110990,172,117,172,119 F,0,106610,110771,1 F,0,110771,110990,1,0
Sprite,Foreground,Centre,"Lyric\lyric-75.png",320,240 F,0,107048,107267,0,1 M,0,107048,110990,169,165,169,167 F,0,107267,110771,1 F,0,110771,110990,1,0
Sprite,Foreground,Centre,"Lyric\lyric-76.png",320,240 F,0,108143,108362,0,1 M,0,108143,110990,153,231,153,233 F,0,108362,110771,1 F,0,110771,110990,1,0
Sprite,Foreground,Centre,"Lyric\lyric-77.png",320,240 M,1,108800,109019,87,286,153,284 F,1,108800,109019,0,1 F,0,109019,110771,1 M,0,109019,110990,153,284,153,285 F,0,110771,110990,1,0
Sprite,Foreground,Centre,"Lyric\lyric-46.png",320,240 M,1,109457,109676,247,300,170,322 F,1,109457,109676,0,1 F,0,109676,110771,1 M,0,109676,110990,170,322,170,323 F,0,110771,110990,1,0
Sprite,Foreground,Centre,"Lyric\lyric-15.png",320,240 M,1,109895,110114,98,367,170,361 F,1,109895,110114,0.03600006,1 F,0,110114,110771,1 M,0,110114,110990,170,361,170,362 F,0,110771,110990,1,0.05600006
Sprite,Foreground,Centre,"Lyric\lyric-78.png",320,240 M,1,110771,110990,137,25,217,152 F,0,110771,110990,0,1 F,0,110990,114931,1 M,0,110990,115150,217,152,217,155 F,0,114931,115150,1,0
Sprite,Foreground,Centre,"Lyric\lyric-79.png",320,240 F,0,111866,112085,0,1 M,0,111866,115150,207,198,207,201 F,0,112085,114931,1 F,0,114931,115150,1,0
Sprite,Foreground,Centre,"Lyric\lyric-9.png",320,240 M,1,112523,112742,291,238,222,235 F,1,112523,112742,0,1 F,0,112742,114931,1 M,0,112742,115150,222,235,222,237 F,0,114931,115150,1,0
Sprite,Foreground,Centre,"Lyric\lyric-81.png",320,240 M,1,112961,113179,156,271,209,272 F,1,112961,113179,0,1 F,0,113179,114931,1 M,0,113179,115150,209,272,209,274 F,0,114931,115150,1,0
Sprite,Foreground,Centre,"Lyric\lyric-46.png",320,240 M,1,114274,114493,267,338,221,311 F,1,114274,114493,0,1 F,0,114493,114931,1 M,0,114493,115150,221,311,221,312 F,0,114931,115150,1,0
Sprite,Foreground,Centre,"SB\SB-BG.jpg",320,240 F,0,121282,121720,1,0 S,0,121282,121720,0.8000001,0.8800002
Sprite,Foreground,Centre,"Lyric\lyric-82.png",320,240 F,0,114931,115150,0,1 M,0,114931,121501,173,126,173,129 F,0,115150,121282,1 F,0,121282,121501,1,0
Sprite,Foreground,Centre,"Lyric\lyric-83.png",320,240 F,0,116026,116245,0,1 M,0,116026,121501,155,219,155,221 F,0,116245,121282,1 F,0,121282,121501,1,0
Sprite,Foreground,Centre,"Lyric\lyric-84.png",320,240 F,0,117121,117340,0,1 M,0,117121,121501,170,326,170,327 F,0,117340,121282,1 F,0,121282,121501,1,0
Sprite,Foreground,Centre,"Lyric\lyric-85.png",320,240 F,0,119092,119311,0.1039999,1 M,0,119092,121501,156,403,156,404 F,0,119311,121282,1 F,0,121282,121501,1,0.132
Sprite,Foreground,Centre,"SB\SB-BG.jpg",320,240 M,0,116026,,320,240 F,0,116026,116464,1,0 S,0,116026,116464,0.8,0.92
Sprite,Foreground,Centre,"SB\SB-BG.jpg",320,240 M,0,114931,,320,240 F,0,114931,115369,1,0 S,0,114931,115369,0.8,0.8799999
Sprite,Foreground,Centre,"SB\SB-BG.jpg",320,240 M,0,114274,,320,240 F,0,114274,114712,1,0 S,0,114274,114712,0.7999998,0.8879997
Sprite,Foreground,Centre,"SB\SB-BG.jpg",320,240 F,0,107267,107705,1,0 S,0,107267,107705,0.8079998,0.8879998
Sprite,Foreground,Centre,"SB\SB-BG.jpg",320,240 F,0,103763,104201,1,0 S,0,103763,104201,0.8,0.904
Sprite,Foreground,Centre,"SB\SB-BG.jpg",320,240 F,0,102669,103107,1,0 S,0,102669,103107,0.8,0.8880001
Sprite,Foreground,Centre,"SB\SB-BG.jpg",320,240 F,0,116683,117121,1,0 S,0,116683,117121,0.7999998,0.8799998
Sprite,Foreground,Centre,"SB\SB-BG.jpg",320,240 F,0,102012,102450,1,0 S,0,102012,102450,0.8,0.896
Sprite,Foreground,Centre,"SB\SB-BG.jpg",320,240 M,0,100917,,320,240 F,0,100917,101355,1,0 S,0,100917,101355,0.8,0.8879999
Sprite,Foreground,Centre,"SB\SB-BG.jpg",320,240 M,0,100260,,320,240 F,0,100260,100698,1,0 S,0,100260,100698,0.8,0.8880001
Sprite,Foreground,Centre,"SB\SB-BG.jpg",320,240 F,0,93252,93690,1,0 S,0,93252,93690,0.8,0.9040001
Sprite,Foreground,Centre,"SB\SB-BG.jpg",320,240 M,0,117778,,320,240 F,0,117778,118216,1,0 S,0,117778,118216,0.8,0.864
Sprite,Foreground,Centre,"SB\SB-BG.jpg",320,240 F,0,135296,135734,1,0 S,0,135296,135734,0.8000001,0.8960001
Sprite,Foreground,Centre,"Lyric\lyric-86.png",320,240 F,0,135296,135515,0,1 M,0,135296,142085,206,101,206,107 F,0,135515,141866,1 F,0,141866,142085,1,0
Sprite,Foreground,Centre,"Lyric\lyric-87.png",320,240 F,0,137048,137267,0,1 M,0,137048,142085,193,143,193,147 F,0,137267,141866,1 F,0,141866,142085,1,0
Sprite,Foreground,Centre,"Lyric\lyric-88.png",320,240 F,0,138362,138581,0,1 M,0,138362,142085,206,212,206,215 F,0,138581,141866,1 F,0,141866,142085,1,0
Sprite,Foreground,Centre,"Lyric\lyric-89.png",320,240 F,0,139676,139895,0,1 M,0,139676,142085,195,305,195,308 F,0,139895,141866,1 F,0,141866,142085,1,0
Sprite,Foreground,Centre,"Lyric\lyric-91.png",320,240 F,0,141866,142085,0,1 M,0,141866,147340,158,115,158,119 F,0,142085,147121,1 F,0,147121,147340,1,0
Sprite,Foreground,Centre,"Lyric\lyric-92.png",320,240 F,0,142961,143180,0,1 M,0,142961,147340,174,166,174,168 F,0,143180,147121,1 F,0,147121,147340,1,0
Sprite,Foreground,Centre,"Lyric\lyric-31.png",320,240 M,1,144055,144274,236,224,160,204 F,1,144055,144274,0,1 F,0,144274,147121,1 M,0,144274,147340,160,204,160,206 F,0,147121,147340,1,0
Sprite,Foreground,Centre,"Lyric\lyric-93.png",320,240 M,1,144493,144712,111,258,175,245 F,1,144493,144712,0,1 F,0,144712,147121,1 M,0,144712,147340,175,245,175,247 F,0,147121,147340,1,0
Sprite,Foreground,Centre,"Lyric\lyric-94.png",320,240 M,1,144931,145150,217,308,162,285 F,1,144931,145150,0,1 F,0,145150,147121,1 M,0,145150,147340,162,285,162,287 F,0,147121,147340,1,0
Sprite,Foreground,Centre,"Lyric\lyric-87.png",320,240 F,0,145807,146026,0,1 M,0,145807,147340,174,329,174,330 F,0,146026,147121,1 F,0,147121,147340,1,0
Sprite,Foreground,Centre,"SB\SB-BG.jpg",320,240 F,0,149311,149749,1,0 S,0,149311,149749,0.8,0.896
Sprite,Foreground,Centre,"Lyric\lyric-95.png",320,240 F,0,149311,149530,0,1 M,0,149311,156537,227,127,227,129 F,0,149530,156318,1 F,0,156318,156537,1,0
Sprite,Foreground,Centre,"Lyric\lyric-96.png",320,240 F,0,150625,150844,0,1 M,0,150625,156537,215,196,215,199 F,0,150844,156318,1 F,0,156318,156537,1,0
Sprite,Foreground,Centre,"Lyric\lyric-97.png",320,240 F,0,151063,151282,0,1 M,0,151063,156537,227,251,227,254 F,0,151282,156318,1 F,0,156318,156537,1,0
Sprite,Foreground,Centre,"Lyric\lyric-98.png",320,240 F,0,152815,153034,0,1 M,0,152815,156537,178,273,178,275 F,0,153034,156318,1 F,0,156318,156537,1,0
Sprite,Foreground,Centre,"Lyric\lyric-99.png",320,240 F,0,154128,154347,0,1 M,0,154128,156537,189,334,189,336 F,0,154347,156318,1 F,0,156318,156537,1,0
Sprite,Foreground,Centre,"Lyric\lyric-48.png",320,240 F,0,155223,155442,0.16,1 M,0,155223,156537,178,388,178,390 F,0,155442,156318,1 F,0,156318,156537,1,0
Sprite,Foreground,Centre,"SB\SB-BG.jpg",320,240 F,0,163325,163763,1,0 S,0,163325,163763,0.8,0.912
Sprite,Foreground,Centre,"Lyric\lyric-101.png",320,240 F,0,156318,156537,0,1 M,0,156318,163544,171,163,171,165 F,0,156537,163325,1 F,0,163325,163544,1,0
Sprite,Foreground,Centre,"Lyric\lyric-102.png",320,240 F,0,158070,158289,0,1 M,0,158070,163544,182,221,182,223 F,0,158289,163325,1 F,0,163325,163544,1,0
Sprite,Foreground,Centre,"Lyric\lyric-103.png",320,240 F,0,159822,160041,0,1 M,0,159822,163544,172,298,172,301 F,0,160041,163325,1 F,0,163325,163544,1,0
Sprite,Foreground,Centre,"Lyric\lyric-48.png",320,240 F,0,162231,162450,0,1 M,0,162231,163544,161,360,161,362 F,0,162450,163325,1 F,0,163325,163544,1,0
Sprite,Foreground,Centre,"Lyric\lyric-104.png",320,240 F,0,163325,163544,0,1 M,0,163325,170552,233,138,233,140 F,0,163544,170333,1 F,0,170333,170552,1,0
Sprite,Foreground,Centre,"Lyric\lyric-105.png",320,240 F,0,165515,165734,0,1 M,0,165515,170552,223,229,223,232 F,0,165734,170333,1 F,0,170333,170552,1,0
Sprite,Foreground,Centre,"SB\SB-BG.jpg",320,240 M,0,170333,,320,240 F,0,170333,170771,1,0 S,0,170333,170771,0.8,0.9120001
Sprite,Foreground,Centre,"SB\SB-BG.jpg",320,240 F,0,171209,171647,1,0 S,0,171209,171647,0.8000001,0.9280001
Sprite,Foreground,Centre,"Lyric\lyric-106.png",320,240 F,0,166829,167048,0,1 M,0,166829,170552,175,224,175,227 F,0,167048,170333,1 F,0,170333,170552,1,0
Sprite,Foreground,Centre,"Lyric\lyric-107.png",320,240 F,0,169019,169238,0,1 M,0,169019,170552,169,317,169,318 F,0,169238,170333,1 F,0,170333,170552,1,0
Sprite,Foreground,Centre,"SB\SB-BG.jpg",320,240 F,0,173836,174274,1,0 S,0,173836,174274,0.8,0.912
Sprite,Foreground,Centre,"SB\SB-BG.jpg",320,240 F,0,174712,175150,1,0 S,0,174712,175150,0.7999998,0.8959999
Sprite,Foreground,Centre,"Lyric\lyric-15.png",320,240 F,0,170333,170552,0,1 M,0,170333,173617,135,251,135,255 F,0,170552,173398,1 F,0,173398,173617,1,0
Sprite,Foreground,Centre,"Lyric\lyric-59.png",320,240 F,0,170990,171209,0,1 M,0,170990,173617,132,311,132,313 F,0,171209,173398,1 F,0,173398,173617,1,0
Sprite,Foreground,Centre,"Lyric\lyric-108.png",320,240 F,0,176026,176245,0,1 M,0,176026,181063,230,144,230,149 F,0,176245,180844,1 F,0,180844,181063,1,0
Sprite,Foreground,Centre,"Lyric\lyric-109.png",320,240 F,0,178216,178435,0,1 M,0,178216,181063,215,228,215,230 F,0,178435,180844,1 F,0,180844,181063,1,0
Sprite,Foreground,Centre,"Lyric\lyric-63.png",320,240 M,1,179092,179311,158,275,197,292 F,1,179092,179311,0,1 F,0,179311,180844,1 M,0,179311,181063,197,292,197,293 F,0,180844,181063,1,0
Sprite,Foreground,Centre,"Lyric\lyric-31.png",320,240 M,1,179530,179749,303,308,213,329 F,1,179530,179749,0,1 F,0,179749,180844,1 M,0,179749,181063,213,329,213,330 F,0,180844,181063,1,0
Sprite,Foreground,Centre,"Lyric\lyric-4.png",320,240 M,1,179968,180187,154,380,199,368 F,1,179968,180187,0.09200012,1 F,0,180187,180844,1 M,0,180187,181063,199,368 F,0,180844,181063,1
Sprite,Foreground,Centre,"Lyric\lyric-64.png",320,240 M,1,180844,181063,45,67,186,129 F,0,180844,181063,0,1 F,0,181063,185004,1 M,0,181063,185223,186,129,186,132 F,0,185004,185223,1,0
Sprite,Foreground,Centre,"Lyric\lyric-65.png",320,240 F,0,182377,182596,0,1 M,0,182377,185223,196,165,196,168 F,0,182596,,1 F,0,182596,185004,1 F,0,185004,185223,1,0
Sprite,Foreground,Centre,"Lyric\lyric-66.png",320,240 M,1,182596,182815,130,179,184,204 F,1,182596,182815,0,1 F,0,182815,185004,1 M,0,182815,185223,184,204,184,207 F,0,185004,185223,1,0
Sprite,Foreground,Centre,"Lyric\lyric-48.png",320,240 M,1,183034,183252,232,237,194,242 F,1,183034,183252,0,1 F,0,183252,185004,1 M,0,183252,185223,194,242,194,244 F,0,185004,185223,1,0
Sprite,Foreground,Centre,"Lyric\lyric-111.png",320,240 M,1,183471,183690,125,284,182,285 F,1,183471,183690,0,1 F,0,183690,185004,1 M,0,183690,185223,182,285,182,287 F,0,185004,185223,1,0
Sprite,Foreground,Centre,"Lyric\lyric-66.png",320,240 M,1,183909,184128,229,340,193,328 F,1,183909,184128,0.07199997,1 F,1,184128,185004,1 M,0,184128,185223,193,328,193,329 F,0,185004,185223,1,0
Sprite,Foreground,Centre,"Lyric\lyric-112.png",320,240 M,1,184347,184566,126,382,179,380 F,1,184347,184566,0,1 F,0,184566,185004,1 M,0,184566,185223,179,380,179,382 F,0,185004,185223,1,0.04399994
Sprite,Foreground,Centre,"Lyric\lyric-113.png",320,240 F,0,185004,185223,0,1 M,0,185004,190698,236,136,236,140 F,0,185223,190479,1 F,0,190479,190698,1,0
Sprite,Foreground,Centre,"Lyric\lyric-114.png",320,240 M,0,186099,186318,197,215,197,216 F,0,186099,186318,0,1 F,0,186318,190479,1 M,0,186318,190698,197,216,197,217 F,0,190479,190698,1,0
Sprite,Foreground,Centre,"Lyric\lyric-115.png",320,240 F,0,187194,187413,0,1 M,0,187194,190698,160,280,160,282 F,0,187413,190479,1 F,0,190479,190698,1,0
Sprite,Foreground,Centre,"Lyric\lyric-116.png",320,240 F,0,189603,189822,0,1 M,0,189603,190698,157,338,157,339 F,0,189822,190479,1 F,0,190479,190698,1,0
Sprite,Foreground,Centre,"Lyric\lyric-1.png",320,240 F,0,190479,190698,0,1 M,0,190479,195077,164,125,164,129 F,0,190698,194858,1 F,0,194858,195077,1,0
Sprite,Foreground,Centre,"Lyric\lyric-2.png",320,240 F,0,192231,192450,0,1 M,0,192231,195077,178,204,178,207 F,0,192450,194858,1 F,0,194858,195077,1,0
Sprite,Foreground,Centre,"Lyric\lyric-3.png",320,240 M,1,193107,193325,232,285,156,256 F,1,193107,193325,0,1 F,0,193325,194858,1 M,0,193325,195077,156,256,156,257 F,0,194858,195077,1,0
Sprite,Foreground,Centre,"Lyric\lyric-4.png",320,240 M,1,193544,193763,137,324,177,300 F,1,193544,193763,0,1 F,0,193763,194858,1 M,0,193763,195077,177,300,177,301 F,0,194858,195077,1,0
Sprite,Foreground,Centre,"Lyric\lyric-5.png",320,240 M,1,193982,194201,217,358,165,338 F,1,193982,194201,0,1 F,0,194201,194858,1 M,0,194201,195077,165,338,165,339 F,0,194858,195077,1,0
Sprite,Foreground,Centre,"Lyric\lyric-6.png",320,240 M,1,194858,195077,326,113,214,104 F,1,194858,195077,0,1 F,0,195077,199019,1 M,0,195077,199238,214,104,214,107 F,0,199019,199238,1,0
Sprite,Foreground,Centre,"Lyric\lyric-7.png",320,240 F,0,195734,195953,0,1 M,0,195734,199238,207,173,207,176 F,0,195953,199019,1 F,0,199019,199238,1,0
Sprite,Foreground,Centre,"Lyric\lyric-8.png",320,240 M,1,196610,196829,131,223,187,240 F,1,196610,196829,0,1 F,0,196829,199019,1 M,0,196829,199238,187,240,187,243 F,0,199019,199238,1,0
Sprite,Foreground,Centre,"Lyric\lyric-9.png",320,240 M,1,197048,197267,272,271,204,283 F,1,197048,197267,0,1 F,0,197267,199019,1 M,0,197267,199238,204,283,204,285 F,0,199019,199238,1,0
Sprite,Foreground,Centre,"Lyric\lyric-3.png",320,240 M,0,197486,197705,110,320,186,322 F,1,197486,197705,0,1 F,0,197705,199019,1 M,0,197705,199238,186,322,186,324 F,0,199019,199238,1,0
Sprite,Foreground,Centre,"Lyric\lyric-4.png",320,240 M,1,197924,198143,260,372,204,364 F,1,197924,198143,0.06,1 F,0,198143,199019,1 M,0,198143,199238,204,364,204,365 F,0,199019,199238,1,0
Sprite,Foreground,Centre,"Lyric\lyric-5.png",320,240 M,1,198362,198581,137,406,188,398 F,1,198362,198581,0,1 F,0,198581,199019,1 M,0,198581,199238,188,398,188,400 F,0,199019,199238,1,0
Sprite,Foreground,Centre,"SB\SB-BG.jpg",320,240 F,0,205369,205807,1,0 S,0,205369,205807,0.8,0.9199999
Sprite,Foreground,Centre,"Lyric\lyric-117.png",320,240 F,0,199238,199457,0,1 M,0,199238,205588,174,139,174,143 F,0,199457,205369,1 F,0,205369,205588,1,0
Sprite,Foreground,Centre,"Lyric\lyric-118.png",320,240 F,0,200114,200333,0,1 M,0,200114,205588,187,218,187,220 F,0,200333,205369,1 F,0,205369,205588,1,0
Sprite,Foreground,Centre,"Lyric\lyric-119.png",320,240 F,0,201209,201428,0,1 M,0,201209,205588,165,284,165,285 F,0,201428,205369,1 F,0,205369,205588,1,0
Sprite,Foreground,Centre,"Lyric\lyric-121.png",320,240 F,0,203179,203398,0,1 M,0,203179,205588,185,344,185,345 F,0,203398,205369,1 F,0,205369,205588,1,0
Sprite,Foreground,Centre,"SB\SB-BG.jpg",320,240 M,0,177340,,320,240 F,0,177340,177778,1,0 S,0,177340,177778,0.8,0.9119999
Sprite,Foreground,Centre,"SB\SB-BG.jpg",320,240 F,0,184347,184785,1,0 S,0,184347,184785,0.8,0.9039999
Sprite,Foreground,Centre,"SB\SB-BG.jpg",320,240 F,0,185004,185442,1,0 S,0,185004,185442,0.8,0.92
Sprite,Foreground,Centre,"SB\SB-BG.jpg",320,240 F,0,186099,186537,1,0 S,0,186099,186537,0.8000001,0.9120001
Sprite,Foreground,Centre,"SB\SB-BG.jpg",320,240 F,0,186756,187194,1,0 S,0,186756,187194,0.8,0.912
Sprite,Foreground,Centre,"SB\SB-BG.jpg",320,240 F,0,187851,188289,1,0 S,0,187851,188289,0.8000001,0.8960001
Sprite,Foreground,Centre,"SB\SB-BG.jpg",320,240 F,0,191355,191793,1,0 S,0,191355,191793,0.8000001,0.896
Sprite,Foreground,Centre,"SB\SB-BG.jpg",320,240 M,0,198362,,320,240 F,0,198362,198800,1,0 S,0,198362,198800,0.8,0.8959998
Sprite,Foreground,Centre,"SB\SB-BG.jpg",320,240 F,0,199019,199457,1,0 S,0,199019,199457,0.8,0.888
Sprite,Foreground,Centre,"SB\SB-BG.jpg",320,240 F,0,200114,200552,1,0 S,0,200114,200552,0.8,0.888
Sprite,Foreground,Centre,"SB\SB-BG.jpg",320,240 F,0,200771,201209,1,0 S,0,200771,201209,0.8,0.8959998
Sprite,Foreground,Centre,"SB\SB-BG.jpg",320,240 F,0,201866,202304,1,0 S,0,201866,202304,0.7999998,0.888
Sprite,Foreground,Centre,"Lyric\lyric-61.png",320,240 F,0,233836,234055,0,1 M,0,233836,238873,208,128,208,131 F,0,234055,238654,1 F,0,238654,238873,1,0
Sprite,Foreground,Centre,"Lyric\lyric-122.png",320,240 F,0,236026,236245,0,1 M,0,236026,238873,191,212,191,213 F,0,236245,238654,1 F,0,238654,238873,1,0
Sprite,Foreground,Centre,"Lyric\lyric-63.png",320,240 M,1,236902,237121,186,325,182,277 F,1,236902,237121,0,1 F,0,237121,238654,1 M,0,237121,238873,182,277,182,279 F,0,238654,,1 F,0,238654,238873,1,0
Sprite,Foreground,Centre,"Lyric\lyric-31.png",320,240 M,1,237340,237559,193,349,194,317 F,1,237340,237559,0,1 F,0,237559,238654,1 M,0,237559,238873,194,317,194,319 F,0,238654,238873,1,0
Sprite,Foreground,Centre,"Lyric\lyric-4.png",320,240 M,1,237778,237997,183,391,183,356 F,1,237778,237997,0,1 F,0,237997,238654,1 M,0,237997,238873,183,356,183,359 F,0,238654,238873,1,0.06
Sprite,Foreground,Centre,"SB\SB-BG.jpg",320,240 M,0,242158,,320,240 F,0,242158,242596,1,0 S,0,242158,242596,0.8,0.8880001
Sprite,Foreground,Centre,"SB\SB-BG.jpg",320,240 F,0,243909,244347,1,0 S,0,243909,244347,0.8,0.8960001
Sprite,Foreground,Centre,"SB\SB-BG.jpg",320,240 F,0,245661,246099,1,0 S,0,245661,246099,0.8000001,0.8960001
Sprite,Foreground,Centre,"SB\SB-BG.jpg",320,240 F,0,247413,247851,1,0 S,0,247413,247851,0.8,0.896
Sprite,Foreground,Centre,"Lyric\lyric-64.png",320,240 F,0,238654,238873,0,1 M,0,238654,243034,164,115,164,116 F,0,238873,242815,1 F,0,242815,243034,1,0
Sprite,Foreground,Centre,"Lyric\lyric-65.png",320,240 F,0,240187,240406,0,1 M,0,240187,243034,171,149,171,152 F,0,240406,242815,1 F,0,242815,243034,1,0
Sprite,Foreground,Centre,"Lyric\lyric-66.png",320,240 M,1,240406,240625,160,225,163,188 F,1,240406,240625,0,1 F,0,240625,242815,1 M,0,240625,243034,163,188,163,190 F,0,242815,243034,1,0
Sprite,Foreground,Centre,"Lyric\lyric-48.png",320,240 M,1,240844,241063,168,256,168,224 F,1,240844,241063,0,1 F,0,241063,242815,1 M,0,241063,243034,168,224,168,226 F,0,242815,243034,1,0
Sprite,Foreground,Centre,"Lyric\lyric-67.png",320,240 M,1,241282,241501,156,298,161,264 F,1,241282,241501,0,1 F,0,241501,242815,1 M,0,241501,243034,161,264,161,266 F,0,242815,243034,1,0
Sprite,Foreground,Centre,"Lyric\lyric-66.png",320,240 M,0,241720,241939,176,345,176,304 F,1,241720,241939,0,1 F,0,241939,242815,1 M,0,241939,243034,176,304,176,306 F,0,242815,243034,1,0
Sprite,Foreground,Centre,"Lyric\lyric-68.png",320,240 M,1,242158,242377,165,398,165,346 F,1,242158,242377,0,1 F,0,242377,242815,1 M,0,242377,243034,165,346,165,347 F,0,242815,243034,1,0
Sprite,Foreground,Centre,"Lyric\lyric-69.png",320,240 F,0,242815,243034,0,1 M,0,242815,248508,222,144,222,147 F,0,243034,248289,1 F,0,248289,248508,1,0
Sprite,Foreground,Centre,"Lyric\lyric-71.png",320,240 F,0,243909,244128,0,1 M,0,243909,248508,206,252,206,255 F,0,244128,248289,1 F,0,248289,248508,1,0
Sprite,Foreground,Centre,"Lyric\lyric-72.png",320,240 F,0,245004,245223,0,1 M,0,245004,248508,197,349,197,351 F,0,245223,248289,1 F,0,248289,248508,1,0
Sprite,Foreground,Centre,"Lyric\lyric-73.png",320,240 F,0,247413,247632,0,1 M,0,247413,248508,207,409,207,410 F,0,247632,248289,1 F,0,248289,248508,1,0
Sprite,Foreground,Centre,"Lyric\lyric-74.png",320,240 F,0,248289,248508,0,1 M,0,248289,252888,175,107,175,109 F,0,248508,252669,1 F,0,252669,252888,1,0
Sprite,Foreground,Centre,"Lyric\lyric-75.png",320,240 F,0,248946,249165,0,1 M,0,248946,252888,175,155,175,158 F,0,249165,252669,1 F,0,252669,252888,1,0
Sprite,Foreground,Centre,"Lyric\lyric-76.png",320,240 F,0,250041,250260,0,1 M,0,250041,252888,192,219,192,221 F,0,250260,252669,1 F,0,252669,252888,1,0
Sprite,Foreground,Centre,"Lyric\lyric-77.png",320,240 M,1,250698,250917,128,272,176,272 F,1,250698,250917,0,1 F,0,250917,252669,1 M,0,250917,252888,176,272,176,274 F,0,252669,252888,1,0
Sprite,Foreground,Centre,"Lyric\lyric-46.png",320,240 M,1,251355,251574,246,321,195,308 F,1,251355,251574,0,1 F,0,251574,252669,1 M,0,251574,252888,195,308,195,310 F,0,252669,252888,1,0.003999939
Sprite,Foreground,Centre,"Lyric\lyric-15.png",320,240 M,1,251793,252012,123,380,177,348 F,1,251793,252012,0,1 F,0,252012,252669,1 M,0,252012,252888,177,348,177,349 F,0,252669,252888,1,0
Sprite,Foreground,Centre,"Lyric\lyric-78.png",320,240 F,0,252669,252888,0,1 M,0,252669,257048,228,128,228,131 F,0,252888,256829,1 F,0,256829,257048,1,0
Sprite,Foreground,Centre,"Lyric\lyric-79.png",320,240 F,0,253763,253982,0,1 M,0,253763,257048,217,174,217,176 F,0,253982,256829,1 F,0,256829,257048,1,0
Sprite,Foreground,Centre,"Lyric\lyric-9.png",320,240 M,1,254420,254639,312,200,233,212 F,1,254420,254639,0,1 F,0,254639,256829,1 M,0,254639,257048,233,212,233,214 F,0,256829,257048,1,0
Sprite,Foreground,Centre,"Lyric\lyric-124.png",320,240 M,1,254858,255077,149,237,221,254 F,1,254858,255077,0,1 F,0,255077,256829,1 M,0,255077,257048,221,254,221,256 F,0,256829,257048,1,0
Sprite,Foreground,Centre,"Lyric\lyric-125.png",320,240 M,1,255734,255953,304,273,233,300 F,1,255734,255953,0,1 F,0,255953,256829,1 M,0,255953,257048,233,300,233,302 F,0,256829,257048,1,0
Sprite,Foreground,Centre,"Lyric\lyric-32.png",320,240 F,0,256172,256391,0,1 M,0,256172,257048,221,345,221,347 F,0,256391,256829,1 F,0,256829,257048,1,0
Sprite,Foreground,Centre,"SB\SB-BG.jpg",320,240 M,0,263180,,320,240 F,0,263180,263617,1,0 S,0,263180,263617,0.8,0.88
Sprite,Foreground,Centre,"Lyric\lyric-126.png",320,240 F,0,256829,257048,0,1 M,0,256829,263398,176,152,176,156 F,0,257048,263180,1 F,0,263180,263398,1,0
Sprite,Foreground,Centre,"Lyric\lyric-127.png",320,240 F,0,257924,258143,0,1 M,0,257924,263398,162,250,162,253 F,0,258143,263180,1 F,0,263180,263398,1,0
Sprite,Foreground,Centre,"Lyric\lyric-128.png",320,240 F,0,259019,259238,0,1 M,0,259019,263398,174,330,174,332 F,0,259238,263180,1 F,0,263180,263398,1,0
Sprite,Foreground,Centre,"Lyric\lyric-16.png",320,240 F,0,260990,261209,0.168,1 M,0,260990,263398,160,393,160,396 F,0,261209,263180,1 F,0,263180,263398,1,0.168
Sprite,Foreground,Centre,"SB\SB-BG.jpg",320,240 M,0,249165,,320,240 F,0,249165,249603,1,0 S,0,249165,249603,0.8,0.896
Sprite,Foreground,Centre,"SB\SB-BG.jpg",320,240 F,0,256172,256610,1,0 S,0,256172,256610,0.8000001,0.8800001
Sprite,Foreground,Centre,"SB\SB-BG.jpg",320,240 F,0,256829,257267,1,0 S,0,256829,257267,0.8,0.888
Sprite,Foreground,Centre,"SB\SB-BG.jpg",320,240 F,0,257924,258362,1,0 S,0,257924,258362,0.8,0.896
Sprite,Foreground,Centre,"SB\SB-BG.jpg",320,240 F,0,258581,259019,1,0 S,0,258581,259019,0.8000001,0.8879998
Sprite,Foreground,Centre,"SB\SB-BG.jpg",320,240 F,0,259676,260114,1,0 S,0,259676,260114,0.8000001,0.8880001
Sprite,Foreground,Centre,"SB\OP effect.png",320,240 M,0,14262,,224,235 F,0,14262,14562,0,1 S,0,14262,14862,0.1599997,1.136 F,0,14562,14862,1,0
Sprite,Foreground,Centre,"SB\OP effect.png",320,240 M,0,45515,,196,184 F,0,45515,45734,0,0.5 S,0,45515,45953,0.2239998,1 F,0,45734,45953,0.5,0
Sprite,Foreground,Centre,"SB\OP effect.png",320,240 F,0,59749,59968,0.6118721,1 S,0,59749,60187,0.224,0.816 M,0,59968,,180,165 F,0,59968,60187,1,0
Sprite,Foreground,Centre,"SB\OP effect.png",320,240 M,0,81428,,228,242 F,0,81428,81647,0,1 S,0,81428,81866,0.2960001,1 F,0,81647,81866,1,0
Sprite,Foreground,Centre,"SB\OP effect.png",320,240 M,0,102012,,201,257 F,0,102012,102231,0,1 S,0,102012,102450,0.2480002,1 F,0,102231,102450,1,0
Sprite,Foreground,Centre,"SB\OP effect.png",320,240 M,0,116026,,152,213 F,0,116026,116245,0,1 S,0,116026,116464,0.2639999,1 F,0,116245,116464,1,0
Sprite,Foreground,Centre,"SB\OP effect.png",320,240 M,0,138362,,205,208 F,0,138362,138581,0,1 S,0,138362,138800,0.2640001,0.9359999 F,0,138581,138800,1,0
Sprite,Foreground,Centre,"SB\OP effect.png",320,240 M,0,145807,,173,329 F,0,145807,146026,0,1 S,0,145807,146245,0.2879999,1.04 F,0,146026,146245,1,0
Sprite,Foreground,Centre,"SB\OP effect.png",320,240 M,0,186099,,199,209 F,0,186099,186318,0,1 S,0,186099,186537,0.248,1 F,0,186318,186537,1,0
Sprite,Foreground,Centre,"SB\OP effect.png",320,240 M,0,200114,,192,213 F,0,200114,200333,0,1 S,0,200114,200552,0.2479999,1 F,0,200333,200552,1,0
Sprite,Foreground,Centre,"SB\SB-BG.jpg",320,240 M,0,212377,,320,240 F,0,212377,212815,1,0 S,0,212377,212815,0.7999998,0.8959999
Sprite,Foreground,Centre,"SB\SB-BG.jpg",320,240 M,0,215880,,320,240 F,0,215880,216318,1,0 S,0,215880,216318,0.8,0.896
Sprite,Foreground,Centre,"SB\SB-BG.jpg",320,240 F,0,216756,217194,1,0 S,0,216756,217194,0.8,0.9199998
Sprite,Foreground,Centre,"SB\SB-BG2.jpg",320,240 S,0,219384,,0.904 F,0,219384,219603,0,1 M,0,219384,223107,319,348,319,381 F,0,219603,222888,1 F,0,222888,223107,1,0
Sprite,Foreground,Centre,"Lyric\Title-1.png",320,240 F,0,219384,219603,0,1 M,0,219384,223107,184,412,235,371 F,0,219603,222888,1 F,0,222888,223107,1,0
Sprite,Foreground,Centre,"SB\SB-BG3.jpg",320,240 S,0,222888,,0.904 F,0,222888,223107,0,1 M,0,222888,226610,342,224,314,244 F,0,223107,226391,1,0.9657541 F,0,226391,226610,0.9657541,0
Sprite,Foreground,Centre,"Lyric\Title-2.png",320,240 F,0,222888,223107,0,1 M,0,222888,226610,178,301,235,364 F,0,223107,226391,1,0.9785963 F,0,226391,226610,0.9785963,0
Sprite,Foreground,Centre,"SB\SB-BG4.jpg",320,240 S,0,226391,,0.84 F,0,226391,226610,0,1 M,0,226391,230114,304,248,332,236 F,0,226610,229895,1,0.9634703 F,0,229895,230114,0.9634703,0
Sprite,Foreground,Centre,"Lyric\Title-3.png",320,240 F,0,226391,226610,0,1 M,0,226391,230114,327,338,342,291 F,0,226610,229895,1 F,0,229895,230114,1,0
Sprite,Foreground,Centre,"SB\SB-BG5.jpg",320,240 S,0,229895,,0.8640001 F,0,229895,230114,0,1 M,0,229895,231866,320,240,312,243 F,0,230114,231647,1 F,0,231647,231866,1,0
Sprite,Foreground,Centre,"Lyric\Title-4.png",320,240 F,0,229895,230114,0,1 M,0,229895,231866,230,413,244,426 F,0,230114,231647,1 F,0,231647,231866,1,0 M,0,231866,,244,426
Sprite,Foreground,Centre,"SB\OP effect.png",320,240 M,0,243909,,205,252 F,0,243909,244128,0,1 S,0,243909,244347,0.288,1 F,0,244128,244347,1,0
Sprite,Foreground,Centre,"SB\OP effect.png",320,240 M,0,257924,,167,246 F,0,257924,258362,1,0 S,0,257924,258362,0.2399998,1.016
Sprite,Foreground,Centre,"SB\SB-BG.jpg",320,240 M,0,270187,,320,240 F,0,270187,270625,1,0 S,0,270187,270625,0.8,0.8959998
Sprite,Foreground,Centre,"SB\SB-BG.jpg",320,240 F,0,270844,271282,1,0 S,0,270844,271282,0.8,0.92
Sprite,Foreground,Centre,"SB\SB-BG.jpg",320,240 F,0,271939,272377,1,0 S,0,271939,272377,0.8,0.8880001
Sprite,Foreground,Centre,"SB\SB-BG.jpg",320,240 F,0,272596,273034,1,0 S,0,272596,273034,0.7999998,0.9119998
Sprite,Foreground,Centre,"SB\SB-BG.jpg",320,240 F,0,273690,274128,1,0 S,0,273690,274128,0.8,0.8960001
Sprite,Foreground,Centre,"SB\SB-BG.jpg",320,240 F,0,277194,277632,1,0 S,0,277194,277632,0.8,0.888
Sprite,Foreground,Centre,"SB\SB-BG.jpg",320,240 F,0,284201,284639,1,0 S,0,284201,284639,0.8000001,0.9119999
Sprite,Foreground,Centre,"SB\SB-BG.jpg",320,240 F,0,284858,285296,1,0 S,0,284858,285296,0.8,0.9039999
Sprite,Foreground,Centre,"SB\SB-BG.jpg",320,240 F,0,285953,286391,1,0 S,0,285953,286391,0.8,0.912
Sprite,Foreground,Centre,"SB\SB-BG.jpg",320,240 F,0,286610,287048,1,0 S,0,286610,287048,0.8000001,0.9040002
Sprite,Foreground,Centre,"SB\SB-BG.jpg",320,240 F,0,287705,288143,1,0 S,0,287705,288143,0.8,0.904
Sprite,Foreground,Centre,"SB\SB-BG.jpg",320,240 F,0,289457,289895,1,0 S,0,289457,289895,0.7999998,0.9119998
//Storyboard Sound Samples
//Background Colour Transformations
3,100,163,162,255

[TimingPoints]
1010,600,4,2,0,20,1,0
2262,600,4,2,0,30,1,0
4662,-100,4,2,0,35,0,0
7062,-100,4,2,0,40,0,0
9462,-100,4,2,0,45,0,0
11862,-100,4,2,0,50,0,0
14262,-100,4,2,0,55,0,0
16662,-100,4,2,0,55,0,0
19362,-100,4,2,0,38,0,0
19962,-100,4,2,0,26,0,0
20562,-100,4,2,0,14,0,0
21162,-100,4,2,0,5,0,0
23180,437.956204379562,4,2,1,60,1,0
36318,-100,4,2,2,45,0,0
36756,-100,4,2,2,60,0,0
36975,-100,4,2,1,60,0,0
48143,-100,4,2,2,50,0,0
48362,-100,4,2,1,60,0,0
48581,-100,4,1,1,50,0,0
48800,-100,4,2,1,60,0,0
53398,-100,4,2,2,50,0,0
53617,-100,4,2,1,60,0,0
53836,-100,4,1,1,50,0,0
54055,-100,4,2,1,60,0,0
56902,-100,4,2,2,50,0,0
57121,-100,4,2,1,60,0,0
57340,-100,4,1,1,50,0,0
57559,-100,4,2,1,60,0,0
62158,-100,4,2,1,45,0,0
62596,-100,4,2,1,30,0,0
63034,-100,4,2,1,15,0,0
63471,-100,4,2,1,5,0,0
65223,-100,4,2,1,60,0,0
70917,-100,4,2,2,50,0,0
71136,-100,4,2,1,60,0,0
71355,-100,4,1,1,50,0,0
71574,-100,4,2,1,60,0,0
74420,-100,4,2,2,50,0,0
74639,-100,4,2,1,60,0,0
74858,-100,4,1,1,50,0,0
75077,-100,4,2,1,60,0,0
78800,-100,4,2,1,45,0,0
79238,-100,4,2,1,60,0,0
79676,-100,4,2,2,50,0,0
79895,-100,4,2,1,60,0,0
80114,-100,4,1,1,50,0,0
80333,-100,4,2,1,60,0,0
81428,-100,4,2,2,50,0,0
81647,-100,4,2,1,60,0,0
81866,-100,4,1,1,50,0,0
82085,-100,4,2,1,60,0,0
83180,-100,4,2,2,50,0,0
83398,-100,4,2,1,60,0,0
83617,-100,4,1,1,50,0,0
83836,-100,4,2,1,60,0,0
84931,-100,4,2,2,50,0,0
85150,-100,4,2,1,60,0,0
85369,-100,4,1,1,50,0,0
85588,-100,4,2,1,60,0,0
91501,-100,4,2,1,15,0,0
91939,-100,4,2,1,30,0,0
92377,-100,4,2,1,45,0,0
92815,-100,4,2,2,60,0,0
93252,-100,4,2,1,60,0,1
98946,-100,4,2,2,50,0,1
99165,-100,4,2,1,60,0,1
99384,-100,4,1,1,50,0,1
99603,-100,4,2,1,60,0,1
107158,-100,4,2,1,60,0,0
107267,-100,4,2,1,60,0,1
118216,-100,4,2,2,50,0,1
118654,-100,4,1,1,50,0,1
118873,-100,4,2,1,60,0,1
120844,-100,4,2,1,45,0,1
121282,-100,4,2,1,60,0,0
134420,-100,4,2,2,45,0,0
134858,-100,4,2,2,60,0,0
135077,-100,4,2,1,60,0,0
140990,-100,4,2,2,50,0,0
141209,-100,4,2,1,60,0,0
141428,-100,4,1,1,50,0,0
141647,-100,4,2,1,60,0,0
146245,-100,4,2,1,45,0,0
146683,-100,4,2,1,30,0,0
147121,-100,4,2,1,15,0,0
147559,-100,4,2,1,5,0,0
149311,-100,4,2,1,60,0,0
158508,-100,4,2,2,50,0,0
158727,-100,4,2,1,60,0,0
158946,-100,4,1,1,50,0,0
159165,-100,4,2,1,60,0,0
162888,-100,4,2,1,45,0,0
163325,-100,4,2,1,60,0,0
163763,-100,4,2,2,50,0,0
163982,-100,4,2,1,60,0,0
164201,-100,4,1,1,50,0,0
164420,-100,4,2,1,60,0,0
165515,-100,4,2,2,50,0,0
165734,-100,4,2,1,60,0,0
165953,-100,4,1,1,50,0,0
166172,-100,4,2,1,60,0,0
170771,-100,4,2,2,60,0,0
170990,-100,4,2,1,60,0,0
172523,-100,4,2,2,60,0,0
172742,-100,4,2,1,60,0,0
175588,-100,4,2,1,15,0,0
176026,-100,4,2,1,30,0,0
176464,-100,4,2,1,15,0,0
176902,-100,4,2,2,60,0,0
177340,-100,4,2,1,60,0,1
191245,-100,4,2,1,60,0,0
191355,-100,4,2,1,60,0,1
202304,-100,4,2,2,50,0,1
202523,-100,4,2,1,60,0,1
202742,-100,4,1,1,50,0,1
202961,-100,4,2,1,60,0,1
204931,-100,4,2,1,45,0,1
205369,-100,4,2,1,60,0,0
211063,-100,4,2,2,50,0,0
211282,-100,4,2,1,60,0,0
211501,-100,4,1,1,50,0,0
211720,-100,4,2,1,60,0,0
231866,-100,4,2,1,45,0,0
232304,-100,4,2,1,30,0,0
232742,-100,4,2,1,15,0,0
232961,-100,4,2,1,5,0,0
233398,-166.666666666667,4,2,2,20,0,0
242158,-125,4,2,1,30,0,0
242596,-125,4,2,2,30,0,0
242815,-125,4,2,1,30,0,0
243909,-125,4,2,1,40,0,0
244347,-125,4,2,2,40,0,0
244566,-125,4,2,1,40,0,0
245661,-125,4,2,1,50,0,0
246099,-125,4,2,2,40,0,0
246318,-125,4,2,1,50,0,0
247413,-100,4,2,1,15,0,0
247851,-100,4,2,1,30,0,0
248289,-100,4,2,1,45,0,0
248727,-100,4,2,2,60,0,0
249165,-100,4,2,1,60,0,1
262742,-100,4,2,1,45,0,1
263180,-100,4,2,1,60,0,0
263617,-100,4,2,2,50,0,0
263836,-100,4,2,1,60,0,0
264055,-100,4,1,1,50,0,0
264274,-100,4,2,1,60,0,0
267121,-100,4,2,2,50,0,0
267340,-100,4,2,1,60,0,0
267559,-100,4,1,1,50,0,0
267778,-100,4,2,1,60,0,0
276756,-100,4,2,1,45,0,0
277194,-100,4,2,1,60,0,0
289019,-100,4,2,1,45,0,0
289457,-100,4,2,1,60,0,0
290333,-100,4,2,1,45,0,0
290771,-100,4,2,1,30,0,0
291209,-100,4,2,1,15,0,0
291647,-100,4,2,1,5,0,0

[Colours]
Combo1 : 151,151,255
Combo2 : 171,252,203

[HitObjects]
320,160,1010,1,2
328,212,1310,2,0,B|312:288|236:296,1,130
228,196,2262,6,0,B|195:157|211:102|253:85,2,130,2|0|2
324,244,4062,1,0
224,272,4662,2,0,B|212:316|160:336|119:312,2,130,2|0|2
176,180,6462,1,0
76,152,7062,6,0,B|32:180|28:236|56:272,2,130,2|0|2
176,180,8862,1,0
276,152,9462,2,0,B|308:124|304:56|264:36,2,130,2|0|2
256,252,11262,1,0
348,204,11862,6,0,B|376:160|432:156|468:184,2,130,2|0|2
332,308,13662,1,0
416,248,14262,2,0,B|452:280|448:344|412:368,2,130,2|0|2
320,208,16062,1,0
268,116,16662,6,0,B|240:84|176:88|152:124,2,130,2|0|2
220,208,18462,1,0
256,192,19062,12,4,23180
208,140,35442,6,0,B|180:124|144:128,1,65,2|8
96,144,35880,2,0,B|40:164|24:244|64:284|112:296,2,195,8|8|4
200,140,37632,5,8
128,216,38070,2,0,B|156:248|216:252|248:228,1,130,2|8
308,144,38946,2,0,B|340:116|336:52|296:28,2,130,2|8|2
248,228,40260,2,0,B|284:236|304:264,1,65,8|2
344,292,40698,6,0,B|376:320|432:320|464:288,2,130,2|8|2
404,208,42012,1,8
304,188,42450,2,0,B|312:152|336:132|336:132|364:108|368:76,2,130,2|8|2
244,104,43763,1,8
192,96,43982,1,2
144,104,44201,6,0,B|71:114|20:72,1,130,2|8
48,176,45077,2,0,B|4:196|-8:260|20:296,1,130,2|8
112,252,45953,1,2
196,316,46391,1,8
112,252,46829,1,2
156,156,47267,1,8
156,156,47705,6,0,B|112:120|116:52|164:12|212:20,2,195,2|0|8
224,236,49457,2,0,B|256:260|252:296,1,65,2|8
348,256,50114,1,8
320,356,50552,2,0,B|346:374|383:359,2,65,8|8|8
268,348,51209,6,0,B|229:379|172:361|155:318,1,130,4|8
92,240,52085,2,0,B|112:208|176:200|208:228,1,130,2|8
280,152,52961,2,0,B|328:120|376:148|376:148|420:124|464:152,2,195,2|0|8
200,216,54712,6,0,B|160:184|160:128|196:92,1,130,2|8
264,28,55588,2,0,B|288:64|348:68|384:40,1,130,2|8
468,104,56464,2,0,B|512:152|512:232|452:276,2,195,2|0|8
380,156,58216,6,0,B|412:204|356:248|316:212,2,130,2|8|2
360,52,59530,1,8
288,128,59968,2,0,B|244:136|212:184|224:232,2,130,2|8|2
284,24,61282,1,8
284,24,61501,1,2
256,192,61720,12,4,65223
280,92,65661,5,8
280,92,66099,1,2
336,180,66537,2,0,B|340:216|316:244,1,65,8|0
276,268,66975,2,0,B|228:284|220:356|252:384,2,130,2|8|2
348,344,68289,1,8
348,344,68727,6,0,B|384:328|404:268|376:228,1,130,2|8
288,176,69603,1,2
392,160,70041,2,0,B|400:124|380:92,1,65,8|0
368,48,70479,2,0,B|324:16|276:40|276:40|228:16|184:48,2,195,2|0|8
316,140,72231,6,0,B|312:176|292:200|292:200|272:224|268:264,1,130,2|8
181,316,73107,2,0,B|152:348|85:344|65:308,1,130,2|8
128,228,73982,2,0,B|144:176|116:132|116:132|88:88|108:36,2,195,2|0|8
28,200,75734,6,0,B|8:240|24:296|72:312,1,130,2|8
168,332,76610,2,0,B|204:360|260:344|280:304,1,130,2|8
240,208,77486,1,2
344,212,77924,2,0,B|404:232,2,65,8|0|2
320,168,78581,1,8
300,120,78800,2,0,B|240:96,1,65,8|8
188,84,79238,6,0,B|216:120|216:184|168:228|116:220,2,195,4|0|8
292,72,80990,2,0,B|320:32|376:12|436:32|464:72,2,195,2|0|8
316,172,82742,6,0,B|364:156|424:192|432:256|404:300,2,195,2|0|8
300,276,84493,2,0,B|284:332|232:352|176:340|152:288,2,195,2|0|8
240,192,86245,6,0,B|208:156|212:100|248:76,1,130,4|8
212,36,86902,1,0
160,24,87121,2,0,B|137:66|84:83|48:58,1,130,4|8
84,156,87997,5,2
176,204,88435,2,0,B|160:236|124:248,1,65,8|8
40,300,89092,2,0,B|52:332|88:340,1,65,2|8
188,316,89749,6,0,B|216:348|276:348|308:316,1,130,4|8
336,276,90406,1,0
336,276,90625,2,0,B|368:244|420:244|453:277,1,130,4|8
256,192,91501,12,4,92815
292,41,93252,6,0,B|318:72|297:134|256:152,1,130,4|8
192,72,94128,1,2
88,56,94566,1,8
36,140,95004,2,0,B|8:172|20:236|64:252,1,130,2|8
140,316,95880,2,0,B|144:352|168:376,2,65,2|8|8
224,256,96756,6,0,B|252:284|312:284|344:248,1,130,2|8
280,168,97632,1,2
280,168,98070,1,8
316,76,98508,2,0,B|268:64|220:92|220:92|172:120|128:100,2,195,2|0|8
408,32,100260,5,4
408,32,100698,2,0,B|428:64|420:100,1,65,8|4
460,192,101355,2,0,B|489:182|507:149,2,65,2|8|2
408,196,102012,5,4
404,300,102450,2,0,B|368:304|343:280,1,65,8|4
240,264,103107,2,0,B|229:299|249:327,2,65,2|8|2
232,212,103763,6,0,B|216:164|164:144|120:164,2,130,4|8|2
144,268,105077,1,8
144,268,105515,2,0,B|100:284|44:256|36:212,1,130,2|8
52,116,106391,6,0,B|84:56,1,65,2|8
156,132,107048,1,8
208,132,107267,6,0,B|212:92|260:60|308:76,1,130,4|8
300,180,108143,1,2
376,108,108581,1,8
428,16,109019,2,0,B|476:32|496:84|484:120,1,130,2|8
412,204,109895,2,0,B|380:224|376:260,2,65,2|8|8
476,284,110771,6,0,B|472:328|424:364|380:360,1,130,2|8
296,308,111647,1,2
280,204,112085,1,8
180,172,112523,2,0,B|196:88|132:56,2,130,2|8|2
80,144,113836,1,8
74,148,114274,5,4
68,152,114712,2,0,B|42:180|56:215,1,65,8|4
63,317,115369,2,0,B|28:324|2:303,2,65,2|8|2
112,304,116026,5,4
204,348,116464,2,0,B|229:316|215:281,1,65,8|4
268,196,117121,2,0,B|239:170|206:181,2,65,2|8|2
312,224,117778,6,0,B|360:252|408:236|408:236|460:216|500:232,2,195,4|0|8
372,140,119530,6,0,B|346:113|314:117,2,65,2|8|8
424,152,120187,2,0,B|460:142|472:113,2,65,2|8|8
392,192,120844,2,0,B|381:228|401:253,2,65,2|2|4
324,144,133544,6,0,B|264:108,1,65,2|8
284,60,133982,2,0,B|288:112|228:152|168:140|140:96,2,195,8|8|4
388,80,135734,5,8
360,180,136172,2,0,B|308:184|276:232|288:272,1,130,2|8
184,260,137048,2,0,B|172:300|200:348|244:360,1,130,2|8
287,268,137924,2,0,B|347:296|415:268,1,130,2|8
456,240,138581,1,2
456,240,138800,6,0,B|508:192|488:120,2,130,2|8|2
388,164,140114,1,8
388,164,140552,2,0,B|344:128|288:152|288:152|240:124|196:152,2,195,2|0|8
392,216,142085,1,2
348,240,142304,6,0,B|312:304|236:296,2,130,2|8|2
256,192,143617,1,8
164,144,144055,2,0,B|200:80|276:88,2,130,2|8|2
256,192,145369,1,8
256,192,145807,12,4,149311
360,212,149749,5,8
360,212,150187,1,2
324,308,150625,1,8
252,232,151063,2,0,B|208:292|140:288,2,130,2|8|2
292,136,152377,1,8
188,148,152815,5,2
120,72,153252,1,8
224,56,153690,1,2
292,136,154128,1,8
224,56,154566,2,0,B|252:24|316:20|344:48,2,130,2|8|2
120,72,155880,1,8
44,144,156318,5,0
96,236,156756,2,0,B|116:268|156:272,2,65,8|0|2
176,172,157632,2,0,B|208:184|240:172,1,65,8|0
284,148,158070,2,0,B|304:192|352:216|408:216|456:184,2,195,2|0|8
272,44,159822,5,2
356,108,160260,1,8
256,144,160698,2,0,B|220:148|200:120,2,65,2|0|8
188,224,161574,1,2
188,224,162012,2,0,B|156:236|136:260,2,65,8|0|2
232,200,162669,1,8
284,192,162888,2,0,B|316:184|348:204,1,65,8|8
396,216,163325,6,0,B|424:256|428:312|380:364|332:360,2,195,4|0|8
304,264,165077,2,0,B|276:224|272:168|320:116|368:116,2,195,2|0|8
224,332,166829,5,2
204,232,167267,2,0,B|196:196|212:164,2,65,8|0|2
224,332,168143,2,0,B|188:344|160:324,2,65,8|0|2
204,232,169019,1,8
148,144,169457,1,2
192,48,169895,1,8
296,32,170333,6,0,B|344:76|420:80|484:44,1,195,4|0
500,96,171209,2,0,B|436:140|440:212,1,130,4|8
480,300,172085,6,0,B|412:332|336:284|336:216,1,195,2|8
256,152,173179,2,0,B|232:180|232:212,1,65,2|8
268,308,173836,5,4
162,292,174274,2,0,B|94:308,2,65,8|0|4
232,211,175150,1,8
256,192,175588,12,4,176902
256,148,177340,6,0,B|384:104,1,130,4|8
356,208,178216,2,0,B|228:252,1,130,2|8
160,176,179092,2,0,B|124:200|112:248|132:292,1,130,2|8
216,356,179968,2,0,B|248:376|280:360,2,65,2|8|8
212,252,180844,6,0,B|80:216,1,130,2|8
86,113,181720,2,0,B|211:78,1,130,2|8
304,32,182596,2,0,B|332:72|320:124|284:152,1,130,2|8
320,248,183471,1,2
388,168,183909,2,0,B|416:188|424:224,1,65,8|8
424,272,184347,5,4
320,248,184785,2,0,B|252:256,1,65,8|4
288,156,185442,2,0,B|296:88,2,65,2|8|2
236,164,186099,5,4
132,152,186537,2,0,B|96:140|68:160,1,65,8|4
96,268,187194,2,0,B|92:308|60:324,2,65,2|8|2
148,268,187851,5,4
236,324,188289,1,8
308,248,188727,1,2
408,276,189165,1,8
508,244,189603,2,0,B|496:196|452:168|408:168,1,130,2|8
312,148,190479,6,0,B|276:88,1,65,2|8
176,120,191136,1,8
164,172,191355,6,0,B|136:300,1,130,4|8
48,248,192231,2,0,B|76:120,1,130,2|8
168,68,193107,2,0,B|200:72|228:88|228:88|256:72|292:68,1,130,2|8
392,36,193982,2,0,B|404:68|388:104,2,65,2|8|8
292,68,194858,6,0,B|272:136|328:184,1,130,2|8
248,252,195734,2,0,B|199:200|129:225,1,130,2|8
100,124,196610,2,0,B|168:107|182:34,2,130,2|8|2
28,200,197924,2,0,B|16:232|28:268,1,65,8|8
56,304,198362,5,4
148,256,198800,2,0,B|172:280|208:272,1,65,8|4
292,336,199457,2,0,B|322:351|356:336,2,65,2|8|2
248,308,200114,5,4
320,236,200552,2,0,B|328:168,1,65,8|4
248,108,201209,2,0,B|244:40,2,65,2|8|2
236,160,201866,6,0,B|176:188|176:292|236:324,2,195,4|0|8
308,84,203617,6,8,B|348:28,2,65,2|8|8
340,124,204274,2,0,B|412:108,2,65,2|8|8
340,176,204931,2,0,B|400:204,1,65,2|2
424,248,205369,6,0,B|448:316|388:364,1,130,4|8
324,284,206245,1,2
324,284,206683,1,8
236,340,207121,2,0,B|172:300|172:232,1,130,2|8
248,164,207997,1,2
152,128,208435,1,8
152,128,208654,1,8
152,128,208873,6,0,B|164:88|208:60|256:64,2,130,2|8|2
248,164,210187,1,8
164,224,210625,2,0,B|104:232|60:196|40:144|64:96,2,195,2|2|8
264,232,212377,6,0,B|392:184,1,130,4|8
360,84,213252,2,0,B|396:76|428:92,2,65,2|2|8
268,132,214128,2,0,B|140:180,1,130,2|8
144,280,215004,2,0,B|72:272,2,65,2|8|8
244,312,215880,6,0,B|300:364,2,65,4|2|8
340,272,216756,2,0,B|392:216,2,65,4|2|8
288,180,217632,2,0,B|232:128,2,65,2|2|8
196,228,218508,2,0,B|144:284,2,65,2|8|8
288,180,219384,5,4
256,192,231647,12,0,233836
276,84,235150,5,2
156,120,236026,1,0
200,236,236902,1,2
320,200,237778,2,0,B|356:220,2,39.0000009298325,0|2|2
268,168,238654,6,0,B|232:148,2,39.0000009298325,0|2|2
324,140,239530,1,2
436,84,240406,1,2
432,208,241282,1,2
308,320,242158,6,0,B|268:340|228:320|228:320|188:300|156:320,1,156,4|2
172,236,243252,2,0,B|141:232|124:248,2,52,2|8|2
212,240,243909,6,0,B|256:204|264:140|232:100,1,156,4|2
152,120,245004,2,0,B|120:120|104:100,2,52,2|8|2
192,120,245661,6,0,B|245:138|304:111|321:62,1,156,4|2
400,92,246756,2,0,B|376:148,2,52,2|8|2
256,192,247413,12,4,248727
332,121,249165,5,4
364,220,249603,1,8
287,291,250041,1,8
256,192,250479,1,8
179,262,250917,5,8
147,163,251355,1,8
220,91,251793,1,8
256,192,252231,1,8
220,92,252669,6,0,B|160:52|96:60,1,130,8|8
112,164,253544,2,0,B|107:235|146:287,1,130,8|8
232,228,254420,2,0,B|296:196|321:136,1,130,8|8
356,40,255296,1,8
416,124,255734,2,0,B|424:160|452:176,1,65,8|8
460,228,256172,5,4
380,300,256610,2,0,B|348:284|328:256,1,65,8|4
328,156,257267,1,2
284,128,257486,1,8
260,80,257705,1,2
264,28,257924,5,4
164,48,258362,2,0,B|152:80|160:116,1,65,8|4
228,192,259019,1,2
180,212,259238,1,8
128,212,259457,1,2
84,188,259676,5,4
72,292,260114,1,8
176,312,260552,1,2
276,284,260990,1,8
360,220,261428,6,0,B|384:160,2,65,2|8|8
284,148,262304,2,0,B|256:216,2,65,8|8|2
308,100,262961,1,2
296,48,263179,6,0,B|244:20|200:44|200:44|156:68|108:48,2,195,4|0|8
388,96,264931,2,0,B|428:112|452:172|432:216,1,130,2|8
412,308,265807,2,0,B|372:304|352:272,2,65,2|8|8
316,352,266683,6,0,B|268:320|224:344|224:344|180:320|132:352,2,195,2|0|8
288,252,268435,2,0,B|236:200|236:136,1,130,2|8
148,192,269311,1,2
148,88,269749,2,0,B|164:56|196:44,1,65,8|8
244,32,270187,5,4
348,48,270625,2,0,B|392:100,1,65,8|4
324,180,271282,2,0,B|380:212,2,65,2|8|2
280,152,271939,5,4
192,208,272377,2,0,B|136:256,1,65,8|4
244,280,273034,2,0,B|208:340,2,65,2|8|2
268,236,273690,5,4
340,312,274128,1,8
372,212,274566,1,2
296,140,275004,1,8
396,108,275442,5,2
320,40,275880,1,8
220,68,276318,1,2
192,168,276756,1,8
220,68,277194,6,0,B|168:20|96:36,1,130,4|8
136,132,278070,2,0,B|192:180|264:164,1,130,2|8
328,88,278946,2,0,B|380:136|356:212,2,130,2|8|2
256,165,280260,1,8
276,268,280698,6,0,B|160:336,1,130,2|8
80,272,281574,2,0,B|196:204,1,130,2|8
112,140,282450,2,0,B|-4:208,2,130,2|8|2
128,36,283763,2,0,B|164:40|188:64,1,65,8|8
212,108,284201,5,4
308,72,284639,2,0,B|332:132,1,65,8|4
400,212,285296,2,0,B|376:280,2,65,2|8|2
376,164,285953,5,4
296,232,286391,2,0,B|228:212,1,65,8|4
132,188,287048,2,0,B|116:120,2,65,2|8|2
132,240,287705,5,4
204,316,288143,1,8
104,340,288581,1,2
132,240,289019,1,8
256,192,289457,12,0,292961
