osu file format v9

[General]
AudioFilename: 01. Prism Love.mp3
AudioLeadIn: 1000
PreviewTime: 91949
Countdown: 0
SampleSet: Soft
StackLeniency: 0.4
Mode: 0
LetterboxInBreaks: 0

[Editor]
DistanceSpacing: 1
BeatDivisor: 4
GridSize: 4

[Metadata]
Title:Prism Love
Artist:Yellow Zebra
Creator:l1106188
Version:Lunatic
Source:Touhou
Tags:DarknessAngel bossandy fujimiya yuki komeiji koishi last remote yoshiha Paint and Porbity

[Difficulty]
HPDrainRate:7
CircleSize:4
OverallDifficulty:7
ApproachRate:8
SliderMultiplier:1.8
SliderTickRate:1

[Events]
//Background and Video events
0,0,"BG.jpg"
//Break Periods
2,23380,34692
2,121482,132794
//Storyboard Layer 0 (Background)
//Storyboard Layer 1 (Fail)
//Storyboard Layer 2 (Pass)
//Storyboard Layer 3 (Foreground)
Sprite,Foreground,Centre,"Lyric\lyric-1.png",320,240 F,0,1010,1310,0,1 M,0,1010,7362,213,149,213,153 F,0,1310,,1 F,0,1310,7062,1 F,0,7062,7362,1,0
Sprite,Foreground,Centre,"Lyric\lyric-2.png",320,240 F,0,3462,3762,0,1 M,0,3462,7362,182,225,182,227 F,0,3762,7062,1 F,0,7062,7362,1,0
Sprite,Foreground,Centre,"Lyric\lyric-3.png",320,240 M,1,4662,4962,263,257,211,273 F,1,4662,4962,0,1 F,0,4962,7062,1 M,0,4962,7362,211,273,211,274 F,0,7062,7362,1,0
Sprite,Foreground,Centre,"Lyric\lyric-4.png",320,240 M,1,5262,5562,146,301,182,319 F,1,5262,5562,0,1 F,0,5562,7062,1 M,0,5562,7362,182,319,182,321 F,0,7062,7362,1,0
Sprite,Foreground,Centre,"Lyric\lyric-5.png",320,240 M,1,5862,6162,237,363,213,353 F,1,5862,6162,0,1 F,0,6162,7062,1 M,0,6162,7362,213,353,213,355 F,0,7062,7362,1,0
Sprite,Foreground,Centre,"Lyric\lyric-6.png",320,240 F,0,7062,7362,0,1 M,0,7062,13062,212,114,212,121 F,0,7362,12762,1 F,0,12762,13062,1,0
Sprite,Foreground,Centre,"Lyric\lyric-7.png",320,240 F,0,8262,8562,0,1 M,0,8262,13062,212,181,212,186 F,0,8562,12762,1 F,0,12762,13062,1,0
Sprite,Foreground,Centre,"Lyric\lyric-8.png",320,240 M,1,9462,9762,92,218,184,245 F,1,9462,9762,0,1 F,0,9762,12762,1 M,0,9762,13062,184,245,184,248 F,0,12762,13062,1,0
Sprite,Foreground,Centre,"Lyric\lyric-9.png",320,240 M,1,10062,10362,288,272,212,287 F,1,10062,10362,0,1 F,0,10362,12762,1 M,0,10362,13062,212,287,212,290 F,0,12762,13062,1,0
Sprite,Foreground,Centre,"Lyric\lyric-3.png",320,240 M,1,10662,10962,109,298,177,326 F,1,10662,10962,0,1 F,0,10962,12762,1 M,0,10962,13062,177,326,177,328 F,0,12762,13062,1,0
Sprite,Foreground,Centre,"Lyric\lyric-4.png",320,240 M,1,11262,11562,91,385,153,373 F,1,11262,11562,0,1 F,0,11562,12762,1 M,0,11562,13062,153,373,153,374 F,0,12762,13062,1,0
Sprite,Foreground,Centre,"Lyric\lyric-5.png",320,240 M,1,11862,12162,248,436,173,414 F,1,11862,12162,0,1 F,0,12162,12762,1 M,0,12162,13062,173,414,173,415 F,0,12762,13062,1,0
Sprite,Foreground,Centre,"Lyric\lyric-11.png",320,240 F,0,12762,13062,0,1 M,0,12762,21762,222,118,222,125 F,0,13062,21462,1 F,0,21462,21762,1,0
Sprite,Foreground,Centre,"Lyric\lyric-12.png",320,240 F,0,13662,13962,0,1 M,0,13662,21762,201,167,201,173 F,0,13962,14262,1 F,0,14262,21462,1 F,0,21462,21762,1,0
Sprite,Foreground,Centre,"Lyric\lyric-13.png",320,240 F,0,14262,14562,0,1 M,0,14262,21762,225,242,225,245 F,0,14562,21462,1 F,0,21462,21762,1,0
Sprite,Foreground,Centre,"Lyric\lyric-14.png",320,240 F,0,15762,16062,0,1 M,0,15762,21762,192,302,192,304 F,0,16062,21462,1 F,0,21462,,1 F,0,21462,21762,1,0
Sprite,Foreground,Centre,"Lyric\lyric-15.png",320,240 F,0,16662,16962,0,1 M,0,16662,21762,193,338,193,341 F,0,16962,21462,1 F,0,21462,21762,1,0
Sprite,Foreground,Centre,"Lyric\lyric-16.png",320,240 F,0,18462,18762,0,1 M,0,18462,21762,162,373,162,376 F,0,18762,21462,1 F,0,21462,21762,1,0
Sprite,Foreground,Centre,"SB\SB-BG.jpg",320,240 M,0,37194,,320,240 F,0,37194,37632,1,0 S,0,37194,37632,0.8,0.936
Sprite,Foreground,Centre,"SB\SB-BG.jpg",320,240 F,0,23180,23617,1,0 S,0,23180,23617,0.8,0.8959998
Sprite,Foreground,Centre,"Lyric\lyric-17.png",320,240 F,0,37194,37413,0,1 M,0,37194,43982,170,183,170,188 F,0,37413,43763,1 F,0,43763,43982,1,0
Sprite,Foreground,Centre,"Lyric\lyric-18.png",320,240 F,0,38946,39165,0,1 M,0,38946,43982,157,227,157,229 F,0,39165,43763,1 F,0,43763,43982,1,0
Sprite,Foreground,Centre,"Lyric\lyric-19.png",320,240 M,1,40260,40479,203,270,170,278 F,1,40260,40479,0,1 F,0,40479,43763,1 M,0,40479,43982,170,278,170,280 F,0,43763,43982,1,0
Sprite,Foreground,Centre,"Lyric\lyric-21.png",320,240 F,0,41574,41793,0,1 M,0,41574,43982,147,358,147,360 F,0,41793,43763,1 F,0,43763,43982,1,0
Sprite,Foreground,Centre,"Lyric\lyric-22.png",320,240 F,0,43763,43982,0,1 M,0,43763,45734,212,124,212,126 F,0,43982,50771,1 M,0,45734,50990,212,126,212,130 F,0,50771,50990,1,0
Sprite,Foreground,Centre,"Lyric\lyric-23.png",320,240 F,0,45515,45734,0,1 M,0,45515,50990,193,174,193,177 F,0,45734,,1 F,0,45734,50771,1 F,0,50771,50990,1,0
Sprite,Foreground,Centre,"Lyric\lyric-24.png",320,240 M,1,46391,46610,265,222,213,217 F,1,46391,46610,0,1 F,0,46610,50771,1 M,0,46610,50990,213,217,213,219 F,0,50771,50990,1,0
Sprite,Foreground,Centre,"Lyric\lyric-25.png",320,240 M,0,46829,47048,143,252,181,246 F,1,46829,47048,0,1 F,0,47048,50771,1 M,0,47048,50990,181,246,181,248 F,0,50771,50990,1,0
Sprite,Foreground,Centre,"Lyric\lyric-26.png",320,240 M,0,47705,47924,238,298,212,278 F,1,47705,47924,0.01200012,1 F,0,47924,,1 F,0,47924,50771,1 M,0,47924,50990,212,278,212,281 F,0,50771,50990,1,0
Sprite,Foreground,Centre,"Lyric\lyric-27.png",320,240 F,0,49457,49676,0,1 M,0,49457,50990,246,310,246,311 F,0,49676,50771,1 F,0,50771,50990,1,0
Sprite,Foreground,Centre,"Lyric\lyric-28.png",320,240 F,0,50771,50990,0,1 M,0,50771,57997,241,102,241,105 F,0,50990,57778,1 F,0,57778,57997,1,0
Sprite,Foreground,Centre,"Lyric\lyric-29.png",320,240 F,0,51209,51428,0,1 M,0,51209,57997,228,152,228,158 F,0,51428,57778,1 F,0,57778,57997,1,0
Sprite,Foreground,Centre,"Lyric\lyric-31.png",320,240 F,0,52085,52304,0,1 M,0,52085,57997,238,193,238,196 F,0,52304,57778,1 F,0,57778,57997,1,0
Sprite,Foreground,Centre,"Lyric\lyric-32.png",320,240 F,0,52961,53180,0,1 M,0,52961,57997,228,232,228,235 F,0,53180,57778,1 F,0,57778,57997,1,0
Sprite,Foreground,Centre,"Lyric\lyric-33.png",320,240 F,0,54055,54274,0,1 M,0,54055,57997,171,105,171,108 F,0,54274,57778,1 F,0,57778,57997,1,0
Sprite,Foreground,Centre,"Lyric\lyric-34.png",320,240 F,0,54931,55150,0,1 M,0,54931,57997,158,148,158,151 F,0,55150,57778,1 F,0,57778,57997,1,0
Sprite,Foreground,Centre,"Lyric\lyric-35.png",320,240 F,0,55807,56026,0,1 M,0,55807,57997,177,204,177,205 F,0,56026,57778,1 F,0,57778,57997,1,0
Sprite,Foreground,Centre,"Lyric\lyric-3.png",320,240 M,1,56464,56683,124,282,154,265 F,1,56464,56683,0,1 F,0,56683,57778,1 M,0,56683,57997,154,265,154,267 F,0,57778,57997,1,0
Sprite,Foreground,Centre,"Lyric\lyric-4.png",320,240 M,1,56902,57121,214,325,178,306 F,1,56902,57121,0,1 F,0,57121,57778,1 M,0,57121,57997,178,306,178,307 F,0,57778,57997,1,0
Sprite,Foreground,Centre,"Lyric\lyric-5.png",320,240 M,1,57340,57559,139,351,159,340 F,1,57340,57559,0,1 F,0,57559,57778,1 M,0,57559,57997,159,340 F,0,57778,57997,1,0
Sprite,Foreground,Centre,"Lyric\lyric-36.png",320,240 F,0,57778,57997,0,1 M,0,57778,63690,234,184,234,190 F,0,57997,63471,1 F,0,63471,63690,1,0
Sprite,Foreground,Centre,"Lyric\lyric-37.png",320,240 F,0,59749,59968,0,1 M,0,59749,63690,181,167,181,169 F,0,59968,63471,1 F,0,63471,63690,1,0
Sprite,Foreground,Centre,"Lyric\lyric-38.png",320,240 F,0,60625,60844,0,1 M,0,60625,63690,166,247,166,249 F,0,60844,63471,1 F,0,63471,63690,1,0
Sprite,Foreground,Centre,"Lyric\lyric-39.png",320,240 M,1,61282,61501,158,349,183,338 F,1,61282,61501,0,1 F,0,61501,63471,1 M,0,61501,63690,183,338,183,341 F,0,63471,63690,1,0
Sprite,Foreground,Centre,"SB\SB-BG.jpg",320,240 M,0,65223,,320,240 F,0,65223,65661,1,0 S,0,65223,65661,0.8000001,0.8800001
Sprite,Foreground,Centre,"Lyric\lyric-41.png",320,240 F,0,65223,65442,0,1 M,0,65223,72450,240,147,240,149 F,0,65442,72231,1 F,0,72231,72450,1,0
Sprite,Foreground,Centre,"Lyric\lyric-42.png",320,240 F,0,66537,66756,0,1 M,0,66537,72450,224,211,224,213 F,0,66756,72231,1 F,0,72231,72450,1,0
Sprite,Foreground,Centre,"Lyric\lyric-43.png",320,240 F,0,66975,67194,0,1 M,0,66975,72450,241,266,241,269 F,0,67194,72231,1 F,0,72231,72450,1,0.09199997
Sprite,Foreground,Centre,"Lyric\lyric-44.png",320,240 F,0,68727,68946,0,1 M,0,68727,72450,173,212,173,215 F,0,68946,72231,1 F,0,72231,72450,1,0
Sprite,Foreground,Centre,"Lyric\lyric-45.png",320,240 F,0,70041,70260,0,1 M,0,70041,72450,164,284,164,286 F,0,70260,72231,1 F,0,72231,72450,1,0
Sprite,Foreground,Centre,"Lyric\lyric-46.png",320,240 F,0,71136,71355,0,1 M,0,71136,72450,179,334,179,335 F,0,71355,72231,1 F,0,72231,72450,1,0
Sprite,Foreground,Centre,"SB\SB-BG.jpg",320,240 M,0,79238,,320,240 F,0,79238,79676,1,0 S,0,79238,79676,0.7999998,0.888
Sprite,Foreground,Centre,"Lyric\lyric-47.png",320,240 F,0,72231,72450,0,1 M,0,72231,79457,181,231,181,236 F,0,72450,79238,1 F,0,79238,79457,1,0
Sprite,Foreground,Centre,"Lyric\lyric-48.png",320,240 F,0,73982,74201,0,1 M,0,73982,79457,173,280,173,283 F,0,74201,79238,1 F,0,79238,79457,1,0
Sprite,Foreground,Centre,"Lyric\lyric-49.png",320,240 F,0,74639,74858,0,1 M,0,74639,79457,184,332,184,334 F,0,74858,79238,1 F,0,79238,79457,1,0
Sprite,Foreground,Centre,"Lyric\lyric-51.png",320,240 F,0,76391,76610,0,1 M,0,76391,79457,140,257,140,260 F,0,76610,79238,1 F,0,79238,79457,1,0
Sprite,Foreground,Centre,"Lyric\lyric-52.png",320,240 F,0,77048,77267,0,1 M,0,77048,79457,130,326,130,327 F,0,77267,79238,1 F,0,79238,79457,1,0
Sprite,Foreground,Centre,"Lyric\lyric-53.png",320,240 F,0,78143,78362,0,1 M,0,78143,79457,140,395,140,397 F,0,78362,79238,1 F,0,79238,79457,1,0
Sprite,Foreground,Centre,"Lyric\lyric-54.png",320,240 F,0,79238,79457,0,1 M,0,79238,86464,236,131,236,139 F,0,79457,86245,1 F,0,86245,86464,1,0
Sprite,Foreground,Centre,"Lyric\lyric-55.png",320,240 F,0,81428,81647,0,1 M,0,81428,86464,227,242,227,245 F,0,81647,86245,1 F,0,86245,86464,1,0
Sprite,Foreground,Centre,"SB\SB-BG.jpg",320,240 M,0,86245,,320,240 F,0,86245,86683,1,0 S,0,86245,86683,0.8,0.888
Sprite,Foreground,Centre,"SB\SB-BG.jpg",320,240 F,0,87121,87559,1,0 S,0,87121,87559,0.8,0.928
Sprite,Foreground,Centre,"Lyric\lyric-56.png",320,240 F,0,82742,82961,0,1 M,0,82742,86464,183,164,183,169 F,0,82961,86245,1 F,0,86245,86464,1,0
Sprite,Foreground,Centre,"Lyric\lyric-57.png",320,240 F,0,84055,84274,0,1 M,0,84055,86464,174,244,174,247 F,0,84274,86245,1 F,0,86245,86464,1,0
Sprite,Foreground,Centre,"Lyric\lyric-58.png",320,240 F,0,84931,85150,0,1 M,0,84931,86464,170,304,170,305 F,0,85150,86245,1 F,0,86245,86464,1,0
Sprite,Foreground,Centre,"SB\SB-BG.jpg",320,240 F,0,89749,90187,1,0 S,0,89749,90187,0.8,0.9040001
Sprite,Foreground,Centre,"SB\SB-BG.jpg",320,240 F,0,90625,91063,1,0 S,0,90625,91063,0.8,0.9039999
Sprite,Foreground,Centre,"Lyric\lyric-4.png",320,240 F,0,86245,86464,0,1 M,0,86245,89968,225,212,225,216 F,0,86464,89749,1 F,0,89749,89968,1,0
Sprite,Foreground,Centre,"Lyric\lyric-59.png",320,240 F,0,86902,87121,0,1 M,0,86902,89968,218,273,218,275 F,0,87121,89749,1 F,0,89749,89968,1,0
Sprite,Foreground,Centre,"Lyric\lyric-61.png",320,240 F,0,91939,92158,0,1 M,0,91939,96975,235,121,235,128 F,0,92158,96756,1 F,0,96756,96975,1,0
Sprite,Foreground,Centre,"Lyric\lyric-62.png",320,240 F,0,94128,94347,0,1 M,0,94128,96975,222,208,222,211 F,0,94347,96756,1 F,0,96756,96975,1,0
Sprite,Foreground,Centre,"Lyric\lyric-63.png",320,240 M,1,95004,95223,123,306,210,279 F,0,95004,95223,0,1 F,1,95223,96756,1 M,0,95223,96975,210,279,210,280 F,0,96756,96975,1,0
Sprite,Foreground,Centre,"Lyric\lyric-31.png",320,240 M,0,95442,95661,261,358,220,320 F,0,95442,95661,0,1 F,1,95661,96756,1 M,0,95661,96975,220,320,220,322 F,0,96756,96975,1,0
Sprite,Foreground,Centre,"Lyric\lyric-4.png",320,240 M,1,95880,96099,127,366,205,360 F,1,95880,96099,0.04399994,1 F,0,96099,96756,1 M,0,96099,96975,205,360,205,362 F,0,96756,96975,1,0.1040001
Sprite,Foreground,Centre,"Lyric\lyric-64.png",320,240 M,1,96756,96975,458,0,187,125 F,1,96756,96975,0,1 F,0,96975,100917,1 M,0,96975,101136,187,125,187,128 F,0,100917,101136,1,0
Sprite,Foreground,Centre,"Lyric\lyric-65.png",320,240 F,0,98289,98508,0,1 M,0,98289,101136,173,161,173,164 F,0,98508,100917,1 F,0,100917,101136,1,0
Sprite,Foreground,Centre,"Lyric\lyric-66.png",320,240 F,0,98508,98727,0,1 M,0,98508,101136,191,197,191,199 F,0,98727,100917,1 F,0,100917,101136,1,0
Sprite,Foreground,Centre,"Lyric\lyric-48.png",320,240 F,0,98946,99165,0,1 M,0,98946,101136,172,236,172,237 F,0,99165,100917,1 F,0,100917,101136,1,0
Sprite,Foreground,Centre,"Lyric\lyric-67.png",320,240 M,1,99384,99603,237,281,187,276 F,1,99384,99603,0,1 F,0,99603,100917,1 M,0,99603,101136,187,276,187,278 F,0,100917,101136,1,0
Sprite,Foreground,Centre,"Lyric\lyric-66.png",320,240 M,1,99822,100041,113,328,174,316 F,1,99822,100041,0,1 F,0,100041,100917,1 M,0,100041,101136,174,316,174,317 F,0,100917,101136,1,0
Sprite,Foreground,Centre,"Lyric\lyric-68.png",320,240 M,1,100260,100479,247,357,191,354 F,1,100260,100479,0,1 F,0,100479,100917,1 M,0,100479,101136,191,354,191,355 F,0,100917,101136,1,0.02
Sprite,Foreground,Centre,"Lyric\lyric-69.png",320,240 F,0,100917,101136,0,1 M,0,100917,106610,222,154,222,159 F,0,101136,106391,1 F,0,106391,106610,1,0
Sprite,Foreground,Centre,"Lyric\lyric-71.png",320,240 F,0,102012,102231,0,1 M,0,102012,106610,202,258,202,262 F,0,102231,106391,1 F,0,106391,106610,1,0
Sprite,Foreground,Centre,"Lyric\lyric-72.png",320,240 F,0,103107,103325,0,1 M,0,103107,106610,229,352,229,355 F,0,103325,106391,1 F,0,106391,106610,1,0
Sprite,Foreground,Centre,"Lyric\lyric-73.png",320,240 F,0,105515,105734,0.228,1 M,0,105515,106610,202,410,202,411 F,0,105734,106391,1 F,0,106391,106610,1,0
Sprite,Foreground,Centre,"Lyric\lyric-74.png",320,240 F,0,106391,106610,0,1 M,0,106391,110990,172,117,172,119 F,0,106610,110771,1 F,0,110771,110990,1,0
Sprite,Foreground,Centre,"Lyric\lyric-75.png",320,240 F,0,107048,107267,0,1 M,0,107048,110990,169,165,169,167 F,0,107267,110771,1 F,0,110771,110990,1,0
Sprite,Foreground,Centre,"Lyric\lyric-76.png",320,240 F,0,108143,108362,0,1 M,0,108143,110990,153,231,153,233 F,0,108362,110771,1 F,0,110771,110990,1,0
Sprite,Foreground,Centre,"Lyric\lyric-77.png",320,240 M,1,108800,109019,87,286,153,284 F,1,108800,109019,0,1 F,0,109019,110771,1 M,0,109019,110990,153,284,153,285 F,0,110771,110990,1,0
Sprite,Foreground,Centre,"Lyric\lyric-46.png",320,240 M,1,109457,109676,247,300,170,322 F,1,109457,109676,0,1 F,0,109676,110771,1 M,0,109676,110990,170,322,170,323 F,0,110771,110990,1,0
Sprite,Foreground,Centre,"Lyric\lyric-15.png",320,240 M,1,109895,110114,98,367,170,361 F,1,109895,110114,0.03600006,1 F,0,110114,110771,1 M,0,110114,110990,170,361,170,362 F,0,110771,110990,1,0.05600006
Sprite,Foreground,Centre,"Lyric\lyric-78.png",320,240 M,1,110771,110990,137,25,217,152 F,0,110771,110990,0,1 F,0,110990,114931,1 M,0,110990,115150,217,152,217,155 F,0,114931,115150,1,0
Sprite,Foreground,Centre,"Lyric\lyric-79.png",320,240 F,0,111866,112085,0,1 M,0,111866,115150,207,198,207,201 F,0,112085,114931,1 F,0,114931,115150,1,0
Sprite,Foreground,Centre,"Lyric\lyric-9.png",320,240 M,1,112523,112742,291,238,222,235 F,1,112523,112742,0,1 F,0,112742,114931,1 M,0,112742,115150,222,235,222,237 F,0,114931,115150,1,0
Sprite,Foreground,Centre,"Lyric\lyric-81.png",320,240 M,1,112961,113179,156,271,209,272 F,1,112961,113179,0,1 F,0,113179,114931,1 M,0,113179,115150,209,272,209,274 F,0,114931,115150,1,0
Sprite,Foreground,Centre,"Lyric\lyric-46.png",320,240 M,1,114274,114493,267,338,221,311 F,1,114274,114493,0,1 F,0,114493,114931,1 M,0,114493,115150,221,311,221,312 F,0,114931,115150,1,0
Sprite,Foreground,Centre,"SB\SB-BG.jpg",320,240 F,0,121282,121720,1,0 S,0,121282,121720,0.8000001,0.8800002
Sprite,Foreground,Centre,"Lyric\lyric-82.png",320,240 F,0,114931,115150,0,1 M,0,114931,121501,173,126,173,129 F,0,115150,121282,1 F,0,121282,121501,1,0
Sprite,Foreground,Centre,"Lyric\lyric-83.png",320,240 F,0,116026,116245,0,1 M,0,116026,121501,155,219,155,221 F,0,116245,121282,1 F,0,121282,121501,1,0
Sprite,Foreground,Centre,"Lyric\lyric-84.png",320,240 F,0,117121,117340,0,1 M,0,117121,121501,170,326,170,327 F,0,117340,121282,1 F,0,121282,121501,1,0
Sprite,Foreground,Centre,"Lyric\lyric-85.png",320,240 F,0,119092,119311,0.1039999,1 M,0,119092,121501,156,403,156,404 F,0,119311,121282,1 F,0,121282,121501,1,0.132
Sprite,Foreground,Centre,"SB\SB-BG.jpg",320,240 M,0,116026,,320,240 F,0,116026,116464,1,0 S,0,116026,116464,0.8,0.92
Sprite,Foreground,Centre,"SB\SB-BG.jpg",320,240 M,0,114931,,320,240 F,0,114931,115369,1,0 S,0,114931,115369,0.8,0.8799999
Sprite,Foreground,Centre,"SB\SB-BG.jpg",320,240 M,0,114274,,320,240 F,0,114274,114712,1,0 S,0,114274,114712,0.7999998,0.8879997
Sprite,Foreground,Centre,"SB\SB-BG.jpg",320,240 F,0,107267,107705,1,0 S,0,107267,107705,0.8079998,0.8879998
Sprite,Foreground,Centre,"SB\SB-BG.jpg",320,240 F,0,103763,104201,1,0 S,0,103763,104201,0.8,0.904
Sprite,Foreground,Centre,"SB\SB-BG.jpg",320,240 F,0,102669,103107,1,0 S,0,102669,103107,0.8,0.8880001
Sprite,Foreground,Centre,"SB\SB-BG.jpg",320,240 F,0,116683,117121,1,0 S,0,116683,117121,0.7999998,0.8799998
Sprite,Foreground,Centre,"SB\SB-BG.jpg",320,240 F,0,102012,102450,1,0 S,0,102012,102450,0.8,0.896
Sprite,Foreground,Centre,"SB\SB-BG.jpg",320,240 M,0,100917,,320,240 F,0,100917,101355,1,0 S,0,100917,101355,0.8,0.8879999
Sprite,Foreground,Centre,"SB\SB-BG.jpg",320,240 M,0,100260,,320,240 F,0,100260,100698,1,0 S,0,100260,100698,0.8,0.8880001
Sprite,Foreground,Centre,"SB\SB-BG.jpg",320,240 F,0,93252,93690,1,0 S,0,93252,93690,0.8,0.9040001
Sprite,Foreground,Centre,"SB\SB-BG.jpg",320,240 M,0,117778,,320,240 F,0,117778,118216,1,0 S,0,117778,118216,0.8,0.864
Sprite,Foreground,Centre,"SB\SB-BG.jpg",320,240 F,0,135296,135734,1,0 S,0,135296,135734,0.8000001,0.8960001
Sprite,Foreground,Centre,"Lyric\lyric-86.png",320,240 F,0,135296,135515,0,1 M,0,135296,142085,206,101,206,107 F,0,135515,141866,1 F,0,141866,142085,1,0
Sprite,Foreground,Centre,"Lyric\lyric-87.png",320,240 F,0,137048,137267,0,1 M,0,137048,142085,193,143,193,147 F,0,137267,141866,1 F,0,141866,142085,1,0
Sprite,Foreground,Centre,"Lyric\lyric-88.png",320,240 F,0,138362,138581,0,1 M,0,138362,142085,206,212,206,215 F,0,138581,141866,1 F,0,141866,142085,1,0
Sprite,Foreground,Centre,"Lyric\lyric-89.png",320,240 F,0,139676,139895,0,1 M,0,139676,142085,195,305,195,308 F,0,139895,141866,1 F,0,141866,142085,1,0
Sprite,Foreground,Centre,"Lyric\lyric-91.png",320,240 F,0,141866,142085,0,1 M,0,141866,147340,158,115,158,119 F,0,142085,147121,1 F,0,147121,147340,1,0
Sprite,Foreground,Centre,"Lyric\lyric-92.png",320,240 F,0,142961,143180,0,1 M,0,142961,147340,174,166,174,168 F,0,143180,147121,1 F,0,147121,147340,1,0
Sprite,Foreground,Centre,"Lyric\lyric-31.png",320,240 M,1,144055,144274,236,224,160,204 F,1,144055,144274,0,1 F,0,144274,147121,1 M,0,144274,147340,160,204,160,206 F,0,147121,147340,1,0
Sprite,Foreground,Centre,"Lyric\lyric-93.png",320,240 M,1,144493,144712,111,258,175,245 F,1,144493,144712,0,1 F,0,144712,147121,1 M,0,144712,147340,175,245,175,247 F,0,147121,147340,1,0
Sprite,Foreground,Centre,"Lyric\lyric-94.png",320,240 M,1,144931,145150,217,308,162,285 F,1,144931,145150,0,1 F,0,145150,147121,1 M,0,145150,147340,162,285,162,287 F,0,147121,147340,1,0
Sprite,Foreground,Centre,"Lyric\lyric-87.png",320,240 F,0,145807,146026,0,1 M,0,145807,147340,174,329,174,330 F,0,146026,147121,1 F,0,147121,147340,1,0
Sprite,Foreground,Centre,"SB\SB-BG.jpg",320,240 F,0,149311,149749,1,0 S,0,149311,149749,0.8,0.896
Sprite,Foreground,Centre,"Lyric\lyric-95.png",320,240 F,0,149311,149530,0,1 M,0,149311,156537,227,127,227,129 F,0,149530,156318,1 F,0,156318,156537,1,0
Sprite,Foreground,Centre,"Lyric\lyric-96.png",320,240 F,0,150625,150844,0,1 M,0,150625,156537,215,196,215,199 F,0,150844,156318,1 F,0,156318,156537,1,0
Sprite,Foreground,Centre,"Lyric\lyric-97.png",320,240 F,0,151063,151282,0,1 M,0,151063,156537,227,251,227,254 F,0,151282,156318,1 F,0,156318,156537,1,0
Sprite,Foreground,Centre,"Lyric\lyric-98.png",320,240 F,0,152815,153034,0,1 M,0,152815,156537,178,273,178,275 F,0,153034,156318,1 F,0,156318,156537,1,0
Sprite,Foreground,Centre,"Lyric\lyric-99.png",320,240 F,0,154128,154347,0,1 M,0,154128,156537,189,334,189,336 F,0,154347,156318,1 F,0,156318,156537,1,0
Sprite,Foreground,Centre,"Lyric\lyric-48.png",320,240 F,0,155223,155442,0.16,1 M,0,155223,156537,178,388,178,390 F,0,155442,156318,1 F,0,156318,156537,1,0
Sprite,Foreground,Centre,"SB\SB-BG.jpg",320,240 F,0,163325,163763,1,0 S,0,163325,163763,0.8,0.912
Sprite,Foreground,Centre,"Lyric\lyric-101.png",320,240 F,0,156318,156537,0,1 M,0,156318,163544,171,163,171,165 F,0,156537,163325,1 F,0,163325,163544,1,0
Sprite,Foreground,Centre,"Lyric\lyric-102.png",320,240 F,0,158070,158289,0,1 M,0,158070,163544,182,221,182,223 F,0,158289,163325,1 F,0,163325,163544,1,0
Sprite,Foreground,Centre,"Lyric\lyric-103.png",320,240 F,0,159822,160041,0,1 M,0,159822,163544,172,298,172,301 F,0,160041,163325,1 F,0,163325,163544,1,0
Sprite,Foreground,Centre,"Lyric\lyric-48.png",320,240 F,0,162231,162450,0,1 M,0,162231,163544,161,360,161,362 F,0,162450,163325,1 F,0,163325,163544,1,0
Sprite,Foreground,Centre,"Lyric\lyric-104.png",320,240 F,0,163325,163544,0,1 M,0,163325,170552,233,138,233,140 F,0,163544,170333,1 F,0,170333,170552,1,0
Sprite,Foreground,Centre,"Lyric\lyric-105.png",320,240 F,0,165515,165734,0,1 M,0,165515,170552,223,229,223,232 F,0,165734,170333,1 F,0,170333,170552,1,0
Sprite,Foreground,Centre,"SB\SB-BG.jpg",320,240 M,0,170333,,320,240 F,0,170333,170771,1,0 S,0,170333,170771,0.8,0.9120001
Sprite,Foreground,Centre,"SB\SB-BG.jpg",320,240 F,0,171209,171647,1,0 S,0,171209,171647,0.8000001,0.9280001
Sprite,Foreground,Centre,"Lyric\lyric-106.png",320,240 F,0,166829,167048,0,1 M,0,166829,170552,175,224,175,227 F,0,167048,170333,1 F,0,170333,170552,1,0
Sprite,Foreground,Centre,"Lyric\lyric-107.png",320,240 F,0,169019,169238,0,1 M,0,169019,170552,169,317,169,318 F,0,169238,170333,1 F,0,170333,170552,1,0
Sprite,Foreground,Centre,"SB\SB-BG.jpg",320,240 F,0,173836,174274,1,0 S,0,173836,174274,0.8,0.912
Sprite,Foreground,Centre,"SB\SB-BG.jpg",320,240 F,0,174712,175150,1,0 S,0,174712,175150,0.7999998,0.8959999
Sprite,Foreground,Centre,"Lyric\lyric-15.png",320,240 F,0,170333,170552,0,1 M,0,170333,173617,135,251,135,255 F,0,170552,173398,1 F,0,173398,173617,1,0
Sprite,Foreground,Centre,"Lyric\lyric-59.png",320,240 F,0,170990,171209,0,1 M,0,170990,173617,132,311,132,313 F,0,171209,173398,1 F,0,173398,173617,1,0
Sprite,Foreground,Centre,"Lyric\lyric-108.png",320,240 F,0,176026,176245,0,1 M,0,176026,181063,230,144,230,149 F,0,176245,180844,1 F,0,180844,181063,1,0
Sprite,Foreground,Centre,"Lyric\lyric-109.png",320,240 F,0,178216,178435,0,1 M,0,178216,181063,215,228,215,230 F,0,178435,180844,1 F,0,180844,181063,1,0
Sprite,Foreground,Centre,"Lyric\lyric-63.png",320,240 M,1,179092,179311,158,275,197,292 F,1,179092,179311,0,1 F,0,179311,180844,1 M,0,179311,181063,197,292,197,293 F,0,180844,181063,1,0
Sprite,Foreground,Centre,"Lyric\lyric-31.png",320,240 M,1,179530,179749,303,308,213,329 F,1,179530,179749,0,1 F,0,179749,180844,1 M,0,179749,181063,213,329,213,330 F,0,180844,181063,1,0
Sprite,Foreground,Centre,"Lyric\lyric-4.png",320,240 M,1,179968,180187,154,380,199,368 F,1,179968,180187,0.09200012,1 F,0,180187,180844,1 M,0,180187,181063,199,368 F,0,180844,181063,1
Sprite,Foreground,Centre,"Lyric\lyric-64.png",320,240 M,1,180844,181063,45,67,186,129 F,0,180844,181063,0,1 F,0,181063,185004,1 M,0,181063,185223,186,129,186,132 F,0,185004,185223,1,0
Sprite,Foreground,Centre,"Lyric\lyric-65.png",320,240 F,0,182377,182596,0,1 M,0,182377,185223,196,165,196,168 F,0,182596,,1 F,0,182596,185004,1 F,0,185004,185223,1,0
Sprite,Foreground,Centre,"Lyric\lyric-66.png",320,240 M,1,182596,182815,130,179,184,204 F,1,182596,182815,0,1 F,0,182815,185004,1 M,0,182815,185223,184,204,184,207 F,0,185004,185223,1,0
Sprite,Foreground,Centre,"Lyric\lyric-48.png",320,240 M,1,183034,183252,232,237,194,242 F,1,183034,183252,0,1 F,0,183252,185004,1 M,0,183252,185223,194,242,194,244 F,0,185004,185223,1,0
Sprite,Foreground,Centre,"Lyric\lyric-111.png",320,240 M,1,183471,183690,125,284,182,285 F,1,183471,183690,0,1 F,0,183690,185004,1 M,0,183690,185223,182,285,182,287 F,0,185004,185223,1,0
Sprite,Foreground,Centre,"Lyric\lyric-66.png",320,240 M,1,183909,184128,229,340,193,328 F,1,183909,184128,0.07199997,1 F,1,184128,185004,1 M,0,184128,185223,193,328,193,329 F,0,185004,185223,1,0
Sprite,Foreground,Centre,"Lyric\lyric-112.png",320,240 M,1,184347,184566,126,382,179,380 F,1,184347,184566,0,1 F,0,184566,185004,1 M,0,184566,185223,179,380,179,382 F,0,185004,185223,1,0.04399994
Sprite,Foreground,Centre,"Lyric\lyric-113.png",320,240 F,0,185004,185223,0,1 M,0,185004,190698,236,136,236,140 F,0,185223,190479,1 F,0,190479,190698,1,0
Sprite,Foreground,Centre,"Lyric\lyric-114.png",320,240 M,0,186099,186318,197,215,197,216 F,0,186099,186318,0,1 F,0,186318,190479,1 M,0,186318,190698,197,216,197,217 F,0,190479,190698,1,0
Sprite,Foreground,Centre,"Lyric\lyric-115.png",320,240 F,0,187194,187413,0,1 M,0,187194,190698,160,280,160,282 F,0,187413,190479,1 F,0,190479,190698,1,0
Sprite,Foreground,Centre,"Lyric\lyric-116.png",320,240 F,0,189603,189822,0,1 M,0,189603,190698,157,338,157,339 F,0,189822,190479,1 F,0,190479,190698,1,0
Sprite,Foreground,Centre,"Lyric\lyric-1.png",320,240 F,0,190479,190698,0,1 M,0,190479,195077,164,125,164,129 F,0,190698,194858,1 F,0,194858,195077,1,0
Sprite,Foreground,Centre,"Lyric\lyric-2.png",320,240 F,0,192231,192450,0,1 M,0,192231,195077,178,204,178,207 F,0,192450,194858,1 F,0,194858,195077,1,0
Sprite,Foreground,Centre,"Lyric\lyric-3.png",320,240 M,1,193107,193325,232,285,156,256 F,1,193107,193325,0,1 F,0,193325,194858,1 M,0,193325,195077,156,256,156,257 F,0,194858,195077,1,0
Sprite,Foreground,Centre,"Lyric\lyric-4.png",320,240 M,1,193544,193763,137,324,177,300 F,1,193544,193763,0,1 F,0,193763,194858,1 M,0,193763,195077,177,300,177,301 F,0,194858,195077,1,0
Sprite,Foreground,Centre,"Lyric\lyric-5.png",320,240 M,1,193982,194201,217,358,165,338 F,1,193982,194201,0,1 F,0,194201,194858,1 M,0,194201,195077,165,338,165,339 F,0,194858,195077,1,0
Sprite,Foreground,Centre,"Lyric\lyric-6.png",320,240 M,1,194858,195077,326,113,214,104 F,1,194858,195077,0,1 F,0,195077,199019,1 M,0,195077,199238,214,104,214,107 F,0,199019,199238,1,0
Sprite,Foreground,Centre,"Lyric\lyric-7.png",320,240 F,0,195734,195953,0,1 M,0,195734,199238,207,173,207,176 F,0,195953,199019,1 F,0,199019,199238,1,0
Sprite,Foreground,Centre,"Lyric\lyric-8.png",320,240 M,1,196610,196829,131,223,187,240 F,1,196610,196829,0,1 F,0,196829,199019,1 M,0,196829,199238,187,240,187,243 F,0,199019,199238,1,0
Sprite,Foreground,Centre,"Lyric\lyric-9.png",320,240 M,1,197048,197267,272,271,204,283 F,1,197048,197267,0,1 F,0,197267,199019,1 M,0,197267,199238,204,283,204,285 F,0,199019,199238,1,0
Sprite,Foreground,Centre,"Lyric\lyric-3.png",320,240 M,0,197486,197705,110,320,186,322 F,1,197486,197705,0,1 F,0,197705,199019,1 M,0,197705,199238,186,322,186,324 F,0,199019,199238,1,0
Sprite,Foreground,Centre,"Lyric\lyric-4.png",320,240 M,1,197924,198143,260,372,204,364 F,1,197924,198143,0.06,1 F,0,198143,199019,1 M,0,198143,199238,204,364,204,365 F,0,199019,199238,1,0
Sprite,Foreground,Centre,"Lyric\lyric-5.png",320,240 M,1,198362,198581,137,406,188,398 F,1,198362,198581,0,1 F,0,198581,199019,1 M,0,198581,199238,188,398,188,400 F,0,199019,199238,1,0
Sprite,Foreground,Centre,"SB\SB-BG.jpg",320,240 F,0,205369,205807,1,0 S,0,205369,205807,0.8,0.9199999
Sprite,Foreground,Centre,"Lyric\lyric-117.png",320,240 F,0,199238,199457,0,1 M,0,199238,205588,174,139,174,143 F,0,199457,205369,1 F,0,205369,205588,1,0
Sprite,Foreground,Centre,"Lyric\lyric-118.png",320,240 F,0,200114,200333,0,1 M,0,200114,205588,187,218,187,220 F,0,200333,205369,1 F,0,205369,205588,1,0
Sprite,Foreground,Centre,"Lyric\lyric-119.png",320,240 F,0,201209,201428,0,1 M,0,201209,205588,165,284,165,285 F,0,201428,205369,1 F,0,205369,205588,1,0
Sprite,Foreground,Centre,"Lyric\lyric-121.png",320,240 F,0,203179,203398,0,1 M,0,203179,205588,185,344,185,345 F,0,203398,205369,1 F,0,205369,205588,1,0
Sprite,Foreground,Centre,"SB\SB-BG.jpg",320,240 M,0,177340,,320,240 F,0,177340,177778,1,0 S,0,177340,177778,0.8,0.9119999
Sprite,Foreground,Centre,"SB\SB-BG.jpg",320,240 F,0,184347,184785,1,0 S,0,184347,184785,0.8,0.9039999
Sprite,Foreground,Centre,"SB\SB-BG.jpg",320,240 F,0,185004,185442,1,0 S,0,185004,185442,0.8,0.92
Sprite,Foreground,Centre,"SB\SB-BG.jpg",320,240 F,0,186099,186537,1,0 S,0,186099,186537,0.8000001,0.9120001
Sprite,Foreground,Centre,"SB\SB-BG.jpg",320,240 F,0,186756,187194,1,0 S,0,186756,187194,0.8,0.912
Sprite,Foreground,Centre,"SB\SB-BG.jpg",320,240 F,0,187851,188289,1,0 S,0,187851,188289,0.8000001,0.8960001
Sprite,Foreground,Centre,"SB\SB-BG.jpg",320,240 F,0,191355,191793,1,0 S,0,191355,191793,0.8000001,0.896
Sprite,Foreground,Centre,"SB\SB-BG.jpg",320,240 M,0,198362,,320,240 F,0,198362,198800,1,0 S,0,198362,198800,0.8,0.8959998
Sprite,Foreground,Centre,"SB\SB-BG.jpg",320,240 F,0,199019,199457,1,0 S,0,199019,199457,0.8,0.888
Sprite,Foreground,Centre,"SB\SB-BG.jpg",320,240 F,0,200114,200552,1,0 S,0,200114,200552,0.8,0.888
Sprite,Foreground,Centre,"SB\SB-BG.jpg",320,240 F,0,200771,201209,1,0 S,0,200771,201209,0.8,0.8959998
Sprite,Foreground,Centre,"SB\SB-BG.jpg",320,240 F,0,201866,202304,1,0 S,0,201866,202304,0.7999998,0.888
Sprite,Foreground,Centre,"Lyric\lyric-61.png",320,240 F,0,233836,234055,0,1 M,0,233836,238873,208,128,208,131 F,0,234055,238654,1 F,0,238654,238873,1,0
Sprite,Foreground,Centre,"Lyric\lyric-122.png",320,240 F,0,236026,236245,0,1 M,0,236026,238873,191,212,191,213 F,0,236245,238654,1 F,0,238654,238873,1,0
Sprite,Foreground,Centre,"Lyric\lyric-63.png",320,240 M,1,236902,237121,186,325,182,277 F,1,236902,237121,0,1 F,0,237121,238654,1 M,0,237121,238873,182,277,182,279 F,0,238654,,1 F,0,238654,238873,1,0
Sprite,Foreground,Centre,"Lyric\lyric-31.png",320,240 M,1,237340,237559,193,349,194,317 F,1,237340,237559,0,1 F,0,237559,238654,1 M,0,237559,238873,194,317,194,319 F,0,238654,238873,1,0
Sprite,Foreground,Centre,"Lyric\lyric-4.png",320,240 M,1,237778,237997,183,391,183,356 F,1,237778,237997,0,1 F,0,237997,238654,1 M,0,237997,238873,183,356,183,359 F,0,238654,238873,1,0.06
Sprite,Foreground,Centre,"SB\SB-BG.jpg",320,240 M,0,242158,,320,240 F,0,242158,242596,1,0 S,0,242158,242596,0.8,0.8880001
Sprite,Foreground,Centre,"SB\SB-BG.jpg",320,240 F,0,243909,244347,1,0 S,0,243909,244347,0.8,0.8960001
Sprite,Foreground,Centre,"SB\SB-BG.jpg",320,240 F,0,245661,246099,1,0 S,0,245661,246099,0.8000001,0.8960001
Sprite,Foreground,Centre,"SB\SB-BG.jpg",320,240 F,0,247413,247851,1,0 S,0,247413,247851,0.8,0.896
Sprite,Foreground,Centre,"Lyric\lyric-64.png",320,240 F,0,238654,238873,0,1 M,0,238654,243034,164,115,164,116 F,0,238873,242815,1 F,0,242815,243034,1,0
Sprite,Foreground,Centre,"Lyric\lyric-65.png",320,240 F,0,240187,240406,0,1 M,0,240187,243034,171,149,171,152 F,0,240406,242815,1 F,0,242815,243034,1,0
Sprite,Foreground,Centre,"Lyric\lyric-66.png",320,240 M,1,240406,240625,160,225,163,188 F,1,240406,240625,0,1 F,0,240625,242815,1 M,0,240625,243034,163,188,163,190 F,0,242815,243034,1,0
Sprite,Foreground,Centre,"Lyric\lyric-48.png",320,240 M,1,240844,241063,168,256,168,224 F,1,240844,241063,0,1 F,0,241063,242815,1 M,0,241063,243034,168,224,168,226 F,0,242815,243034,1,0
Sprite,Foreground,Centre,"Lyric\lyric-67.png",320,240 M,1,241282,241501,156,298,161,264 F,1,241282,241501,0,1 F,0,241501,242815,1 M,0,241501,243034,161,264,161,266 F,0,242815,243034,1,0
Sprite,Foreground,Centre,"Lyric\lyric-66.png",320,240 M,0,241720,241939,176,345,176,304 F,1,241720,241939,0,1 F,0,241939,242815,1 M,0,241939,243034,176,304,176,306 F,0,242815,243034,1,0
Sprite,Foreground,Centre,"Lyric\lyric-68.png",320,240 M,1,242158,242377,165,398,165,346 F,1,242158,242377,0,1 F,0,242377,242815,1 M,0,242377,243034,165,346,165,347 F,0,242815,243034,1,0
Sprite,Foreground,Centre,"Lyric\lyric-69.png",320,240 F,0,242815,243034,0,1 M,0,242815,248508,222,144,222,147 F,0,243034,248289,1 F,0,248289,248508,1,0
Sprite,Foreground,Centre,"Lyric\lyric-71.png",320,240 F,0,243909,244128,0,1 M,0,243909,248508,206,252,206,255 F,0,244128,248289,1 F,0,248289,248508,1,0
Sprite,Foreground,Centre,"Lyric\lyric-72.png",320,240 F,0,245004,245223,0,1 M,0,245004,248508,197,349,197,351 F,0,245223,248289,1 F,0,248289,248508,1,0
Sprite,Foreground,Centre,"Lyric\lyric-73.png",320,240 F,0,247413,247632,0,1 M,0,247413,248508,207,409,207,410 F,0,247632,248289,1 F,0,248289,248508,1,0
Sprite,Foreground,Centre,"Lyric\lyric-74.png",320,240 F,0,248289,248508,0,1 M,0,248289,252888,175,107,175,109 F,0,248508,252669,1 F,0,252669,252888,1,0
Sprite,Foreground,Centre,"Lyric\lyric-75.png",320,240 F,0,248946,249165,0,1 M,0,248946,252888,175,155,175,158 F,0,249165,252669,1 F,0,252669,252888,1,0
Sprite,Foreground,Centre,"Lyric\lyric-76.png",320,240 F,0,250041,250260,0,1 M,0,250041,252888,192,219,192,221 F,0,250260,252669,1 F,0,252669,252888,1,0
Sprite,Foreground,Centre,"Lyric\lyric-77.png",320,240 M,1,250698,250917,128,272,176,272 F,1,250698,250917,0,1 F,0,250917,252669,1 M,0,250917,252888,176,272,176,274 F,0,252669,252888,1,0
Sprite,Foreground,Centre,"Lyric\lyric-46.png",320,240 M,1,251355,251574,246,321,195,308 F,1,251355,251574,0,1 F,0,251574,252669,1 M,0,251574,252888,195,308,195,310 F,0,252669,252888,1,0.003999939
Sprite,Foreground,Centre,"Lyric\lyric-15.png",320,240 M,1,251793,252012,123,380,177,348 F,1,251793,252012,0,1 F,0,252012,252669,1 M,0,252012,252888,177,348,177,349 F,0,252669,252888,1,0
Sprite,Foreground,Centre,"Lyric\lyric-78.png",320,240 F,0,252669,252888,0,1 M,0,252669,257048,228,128,228,131 F,0,252888,256829,1 F,0,256829,257048,1,0
Sprite,Foreground,Centre,"Lyric\lyric-79.png",320,240 F,0,253763,253982,0,1 M,0,253763,257048,217,174,217,176 F,0,253982,256829,1 F,0,256829,257048,1,0
Sprite,Foreground,Centre,"Lyric\lyric-9.png",320,240 M,1,254420,254639,312,200,233,212 F,1,254420,254639,0,1 F,0,254639,256829,1 M,0,254639,257048,233,212,233,214 F,0,256829,257048,1,0
Sprite,Foreground,Centre,"Lyric\lyric-124.png",320,240 M,1,254858,255077,149,237,221,254 F,1,254858,255077,0,1 F,0,255077,256829,1 M,0,255077,257048,221,254,221,256 F,0,256829,257048,1,0
Sprite,Foreground,Centre,"Lyric\lyric-125.png",320,240 M,1,255734,255953,304,273,233,300 F,1,255734,255953,0,1 F,0,255953,256829,1 M,0,255953,257048,233,300,233,302 F,0,256829,257048,1,0
Sprite,Foreground,Centre,"Lyric\lyric-32.png",320,240 F,0,256172,256391,0,1 M,0,256172,257048,221,345,221,347 F,0,256391,256829,1 F,0,256829,257048,1,0
Sprite,Foreground,Centre,"SB\SB-BG.jpg",320,240 M,0,263180,,320,240 F,0,263180,263617,1,0 S,0,263180,263617,0.8,0.88
Sprite,Foreground,Centre,"Lyric\lyric-126.png",320,240 F,0,256829,257048,0,1 M,0,256829,263398,176,152,176,156 F,0,257048,263180,1 F,0,263180,263398,1,0
Sprite,Foreground,Centre,"Lyric\lyric-127.png",320,240 F,0,257924,258143,0,1 M,0,257924,263398,162,250,162,253 F,0,258143,263180,1 F,0,263180,263398,1,0
Sprite,Foreground,Centre,"Lyric\lyric-128.png",320,240 F,0,259019,259238,0,1 M,0,259019,263398,174,330,174,332 F,0,259238,263180,1 F,0,263180,263398,1,0
Sprite,Foreground,Centre,"Lyric\lyric-16.png",320,240 F,0,260990,261209,0.168,1 M,0,260990,263398,160,393,160,396 F,0,261209,263180,1 F,0,263180,263398,1,0.168
Sprite,Foreground,Centre,"SB\SB-BG.jpg",320,240 M,0,249165,,320,240 F,0,249165,249603,1,0 S,0,249165,249603,0.8,0.896
Sprite,Foreground,Centre,"SB\SB-BG.jpg",320,240 F,0,256172,256610,1,0 S,0,256172,256610,0.8000001,0.8800001
Sprite,Foreground,Centre,"SB\SB-BG.jpg",320,240 F,0,256829,257267,1,0 S,0,256829,257267,0.8,0.888
Sprite,Foreground,Centre,"SB\SB-BG.jpg",320,240 F,0,257924,258362,1,0 S,0,257924,258362,0.8,0.896
Sprite,Foreground,Centre,"SB\SB-BG.jpg",320,240 F,0,258581,259019,1,0 S,0,258581,259019,0.8000001,0.8879998
Sprite,Foreground,Centre,"SB\SB-BG.jpg",320,240 F,0,259676,260114,1,0 S,0,259676,260114,0.8000001,0.8880001
Sprite,Foreground,Centre,"SB\OP effect.png",320,240 M,0,14262,,224,235 F,0,14262,14562,0,1 S,0,14262,14862,0.1599997,1.136 F,0,14562,14862,1,0
Sprite,Foreground,Centre,"SB\OP effect.png",320,240 M,0,45515,,196,184 F,0,45515,45734,0,0.5 S,0,45515,45953,0.2239998,1 F,0,45734,45953,0.5,0
Sprite,Foreground,Centre,"SB\OP effect.png",320,240 F,0,59749,59968,0.6118721,1 S,0,59749,60187,0.224,0.816 M,0,59968,,180,165 F,0,59968,60187,1,0
Sprite,Foreground,Centre,"SB\OP effect.png",320,240 M,0,81428,,228,242 F,0,81428,81647,0,1 S,0,81428,81866,0.2960001,1 F,0,81647,81866,1,0
Sprite,Foreground,Centre,"SB\OP effect.png",320,240 M,0,102012,,201,257 F,0,102012,102231,0,1 S,0,102012,102450,0.2480002,1 F,0,102231,102450,1,0
Sprite,Foreground,Centre,"SB\OP effect.png",320,240 M,0,116026,,152,213 F,0,116026,116245,0,1 S,0,116026,116464,0.2639999,1 F,0,116245,116464,1,0
Sprite,Foreground,Centre,"SB\OP effect.png",320,240 M,0,138362,,205,208 F,0,138362,138581,0,1 S,0,138362,138800,0.2640001,0.9359999 F,0,138581,138800,1,0
Sprite,Foreground,Centre,"SB\OP effect.png",320,240 M,0,145807,,173,329 F,0,145807,146026,0,1 S,0,145807,146245,0.2879999,1.04 F,0,146026,146245,1,0
Sprite,Foreground,Centre,"SB\OP effect.png",320,240 M,0,186099,,199,209 F,0,186099,186318,0,1 S,0,186099,186537,0.248,1 F,0,186318,186537,1,0
Sprite,Foreground,Centre,"SB\OP effect.png",320,240 M,0,200114,,192,213 F,0,200114,200333,0,1 S,0,200114,200552,0.2479999,1 F,0,200333,200552,1,0
Sprite,Foreground,Centre,"SB\SB-BG.jpg",320,240 M,0,212377,,320,240 F,0,212377,212815,1,0 S,0,212377,212815,0.7999998,0.8959999
Sprite,Foreground,Centre,"SB\SB-BG.jpg",320,240 M,0,215880,,320,240 F,0,215880,216318,1,0 S,0,215880,216318,0.8,0.896
Sprite,Foreground,Centre,"SB\SB-BG.jpg",320,240 F,0,216756,217194,1,0 S,0,216756,217194,0.8,0.9199998
Sprite,Foreground,Centre,"SB\SB-BG2.jpg",320,240 S,0,219384,,0.904 F,0,219384,219603,0,1 M,0,219384,223107,319,348,319,381 F,0,219603,222888,1 F,0,222888,223107,1,0
Sprite,Foreground,Centre,"Lyric\Title-1.png",320,240 F,0,219384,219603,0,1 M,0,219384,223107,184,412,235,371 F,0,219603,222888,1 F,0,222888,223107,1,0
Sprite,Foreground,Centre,"SB\SB-BG3.jpg",320,240 S,0,222888,,0.904 F,0,222888,223107,0,1 M,0,222888,226610,342,224,314,244 F,0,223107,226391,1,0.9657541 F,0,226391,226610,0.9657541,0
Sprite,Foreground,Centre,"Lyric\Title-2.png",320,240 F,0,222888,223107,0,1 M,0,222888,226610,178,301,235,364 F,0,223107,226391,1,0.9785963 F,0,226391,226610,0.9785963,0
Sprite,Foreground,Centre,"SB\SB-BG4.jpg",320,240 S,0,226391,,0.84 F,0,226391,226610,0,1 M,0,226391,230114,304,248,332,236 F,0,226610,229895,1,0.9634703 F,0,229895,230114,0.9634703,0
Sprite,Foreground,Centre,"Lyric\Title-3.png",320,240 F,0,226391,226610,0,1 M,0,226391,230114,327,338,342,291 F,0,226610,229895,1 F,0,229895,230114,1,0
Sprite,Foreground,Centre,"SB\SB-BG5.jpg",320,240 S,0,229895,,0.8640001 F,0,229895,230114,0,1 M,0,229895,231866,320,240,312,243 F,0,230114,231647,1 F,0,231647,231866,1,0
Sprite,Foreground,Centre,"Lyric\Title-4.png",320,240 F,0,229895,230114,0,1 M,0,229895,231866,230,413,244,426 F,0,230114,231647,1 F,0,231647,231866,1,0 M,0,231866,,244,426
Sprite,Foreground,Centre,"SB\OP effect.png",320,240 M,0,243909,,205,252 F,0,243909,244128,0,1 S,0,243909,244347,0.288,1 F,0,244128,244347,1,0
Sprite,Foreground,Centre,"SB\OP effect.png",320,240 M,0,257924,,167,246 F,0,257924,258362,1,0 S,0,257924,258362,0.2399998,1.016
Sprite,Foreground,Centre,"SB\SB-BG.jpg",320,240 M,0,270187,,320,240 F,0,270187,270625,1,0 S,0,270187,270625,0.8,0.8959998
Sprite,Foreground,Centre,"SB\SB-BG.jpg",320,240 F,0,270844,271282,1,0 S,0,270844,271282,0.8,0.92
Sprite,Foreground,Centre,"SB\SB-BG.jpg",320,240 F,0,271939,272377,1,0 S,0,271939,272377,0.8,0.8880001
Sprite,Foreground,Centre,"SB\SB-BG.jpg",320,240 F,0,272596,273034,1,0 S,0,272596,273034,0.7999998,0.9119998
Sprite,Foreground,Centre,"SB\SB-BG.jpg",320,240 F,0,273690,274128,1,0 S,0,273690,274128,0.8,0.8960001
Sprite,Foreground,Centre,"SB\SB-BG.jpg",320,240 F,0,277194,277632,1,0 S,0,277194,277632,0.8,0.888
Sprite,Foreground,Centre,"SB\SB-BG.jpg",320,240 F,0,284201,284639,1,0 S,0,284201,284639,0.8000001,0.9119999
Sprite,Foreground,Centre,"SB\SB-BG.jpg",320,240 F,0,284858,285296,1,0 S,0,284858,285296,0.8,0.9039999
Sprite,Foreground,Centre,"SB\SB-BG.jpg",320,240 F,0,285953,286391,1,0 S,0,285953,286391,0.8,0.912
Sprite,Foreground,Centre,"SB\SB-BG.jpg",320,240 F,0,286610,287048,1,0 S,0,286610,287048,0.8000001,0.9040002
Sprite,Foreground,Centre,"SB\SB-BG.jpg",320,240 F,0,287705,288143,1,0 S,0,287705,288143,0.8,0.904
Sprite,Foreground,Centre,"SB\SB-BG.jpg",320,240 F,0,289457,289895,1,0 S,0,289457,289895,0.7999998,0.9119998
//Storyboard Sound Samples
//Background Colour Transformations
3,100,163,162,255

[TimingPoints]
1010,600,4,2,2,20,1,0
2262,600,4,2,2,30,1,0
4662,-100,4,2,2,35,0,0
7062,-100,4,2,2,40,0,0
9462,-100,4,2,2,45,0,0
11862,-100,4,2,2,50,0,0
14262,-100,4,2,2,55,0,0
16662,-100,4,2,2,55,0,0
19362,-100,4,2,2,38,0,0
19962,-100,4,2,2,26,0,0
20562,-100,4,2,2,14,0,0
21162,-100,4,2,2,5,0,0
23180,437.956204379562,4,2,1,60,1,0
36318,-100,4,2,1,45,0,0
36756,-100,4,2,1,60,0,0
64128,-100,4,2,1,40,0,0
64785,-100,4,2,1,50,0,0
65223,-100,4,2,1,60,0,0
78800,-100,4,2,1,45,0,0
79238,-100,4,2,1,60,0,0
91501,-100,4,2,1,15,0,0
91939,-100,4,2,1,30,0,0
92377,-100,4,2,1,45,0,0
92815,-100,4,2,2,60,0,0
93252,-100,4,2,1,60,0,1
107158,-100,4,2,1,60,0,0
107267,-100,4,2,1,60,0,1
120844,-100,4,2,1,45,0,1
121282,-100,4,2,1,60,0,0
134420,-100,4,2,1,45,0,0
134858,-100,4,2,1,60,0,0
148216,-100,4,2,1,40,0,0
148873,-100,4,2,1,50,0,0
149311,-100,4,2,1,60,0,0
162888,-100,4,2,1,45,0,0
163325,-100,4,2,1,60,0,0
175588,-100,4,2,1,15,0,0
176026,-100,4,2,1,30,0,0
176464,-100,4,2,1,45,0,0
176902,-100,4,2,2,60,0,0
177340,-100,4,2,1,60,0,1
191245,-100,4,2,1,60,0,0
191355,-100,4,2,1,60,0,1
204931,-100,4,2,1,45,0,1
205369,-100,4,2,1,60,0,0
229895,-100,4,2,1,45,0,0
230333,-100,4,2,1,50,0,0
230771,-100,4,2,1,55,0,0
231209,-100,4,2,1,60,0,0
231866,-100,4,2,1,45,0,0
232304,-100,4,2,1,30,0,0
232742,-100,4,2,1,15,0,0
232961,-100,4,2,1,5,0,0
233398,-166.666666666667,4,2,2,20,0,0
242158,-125,4,2,1,30,0,0
243909,-125,4,2,1,40,0,0
245661,-125,4,2,1,50,0,0
247413,-100,4,2,1,15,0,0
247851,-100,4,2,1,30,0,0
248289,-100,4,2,1,45,0,0
248727,-100,4,2,2,60,0,0
249165,-100,4,2,1,60,0,1
262742,-100,4,2,1,45,0,1
263180,-100,4,2,1,60,0,0
276756,-100,4,2,1,45,0,0
277194,-100,4,2,1,60,0,0
289019,-100,4,2,1,45,0,0
289457,-100,4,2,1,60,0,0
290333,-100,4,2,1,45,0,0
290771,-100,4,2,1,30,0,0
291209,-100,4,2,1,15,0,0
291647,-100,4,2,1,5,0,0

[Colours]
Combo1 : 151,151,255
Combo2 : 171,252,203

[HitObjects]
136,88,1010,2,0,B|168:52|220:64,1,90,0|0
188,244,1910,1,0
196,144,2262,5,2
276,64,2562,2,0,B|296:112,1,45,2|0
352,56,2862,1,0
436,172,3162,2,0,B|448:128,1,45,2|0
372,132,3462,5,2
260,224,3762,2,0,B|284:272,1,45,2|0
332,208,4062,1,0
456,280,4362,1,2
312,284,4662,5,2
284,152,4962,2,0,B|232:140,1,45,2|0
192,196,5262,1,0
144,52,5562,2,0,B|100:72,1,45,2|2
52,124,5862,5,2
116,156,6012,1,0
112,228,6162,1,2
40,244,6312,1,2
4,180,6462,1,0
90,299,6762,1,2
228,272,7062,5,2
188,132,7362,1,2
188,132,7512,1,0
256,108,7662,1,0
400,100,7962,1,2
400,100,8112,1,2
352,156,8262,6,0,B|344:184|356:208,1,45,2|0
388,264,8562,2,0,B|404:292|424:292,1,45,2|0
492,304,8862,1,0
468,196,9162,1,2
324,84,9462,5,2
300,264,9762,2,0,B|276:308,2,45,2|0|0
264,40,10362,2,0,B|244:80,1,45,2|0
188,32,10662,5,2
116,48,10812,1,0
96,116,10962,1,2
148,168,11112,1,2
216,148,11262,1,0
76,188,11562,1,2
148,312,11862,5,2
288,280,12162,2,0,B|324:312,1,45,2|0
356,244,12462,1,0
440,124,12762,2,0,B|412:164,1,45,2|0
364,108,13062,5,2
236,172,13362,2,0,B|212:128,1,45,2|0
288,120,13662,1,0
172,36,13962,1,2
315,48,14262,5,2
184,108,14562,2,0,B|144:132,1,45,2|0
100,72,14862,1,0
180,192,15162,2,0,B|156:240,1,45,2|0
92,204,15462,5,2
232,244,15762,2,0,B|248:288,1,45,2|0
180,312,16062,1,0
304,240,16362,1,2
264,108,16662,6,0,B|288:60|344:64,1,90,2|2
332,136,17112,1,0
400,112,17262,2,0,B|416:164|372:196,1,90,0|2
332,136,17712,1,0
304,204,17862,6,0,B|316:256|376:268,1,90,2|2
436,256,18312,1,0
408,324,18462,2,0,B|368:352|320:328,1,90,0|2
256,192,19062,12,4,23180
264,152,35442,5,2
328,216,35661,1,8
240,240,35880,1,8
264,152,36099,1,2
352,128,36318,5,8
392,152,36428,1,8
416,188,36537,2,0,B|432:240|396:280,2,90,8|8|0
392,152,37085,1,8
352,128,37194,6,0,B|316:164|260:164|216:140|204:92,1,180,4|8
288,64,37851,1,0
132,48,38070,1,2
120,136,38289,1,2
48,80,38508,2,0,B|8:148|60:204,1,135,8|8
112,228,38946,6,0,B|164:232|192:192,2,90,0|0|8
120,136,39603,1,0
104,319,39822,2,0,B|161:329|234:300|261:245,1,180,2|8
268,160,40479,1,2
296,108,40588,1,8
352,88,40698,6,0,B|411:66|483:103|492:165,1,180,2|8
472,260,41355,1,0
408,196,41574,2,0,B|360:256|404:320,1,135,2|0
360,328,42012,2,0,B|320:300|276:300,1,90,8|0
220,212,42450,6,0,B|248:168|232:124|232:124|216:80|248:40,1,180,2|8
320,96,43107,1,0
144,156,43325,2,0,B|112:200|132:244|132:244|104:284|116:328,1,180,2|8
200,304,43982,1,2
216,260,44092,1,8
220,212,44201,6,0,B|312:244|393:196,1,180,2|8
384,284,44858,1,0
456,336,45077,1,2
472,56,45515,2,0,B|416:96|344:80,1,135,8|8
320,128,45953,5,2
56,68,46391,1,8
128,328,46829,1,2
56,68,47267,1,8
88,152,47486,1,0
144,80,47705,6,0,B|184:112|180:168|180:168|212:192|208:240,1,180,2|8
152,317,48362,2,0,B|112:288|116:240,1,90,0|2
236,352,48800,1,2
324,328,49019,1,8
324,328,49457,6,0,B|364:360|412:340,1,90,2|8
124,260,49895,2,0,B|92:300|112:348,1,90,2|8
188,60,50333,2,0,B|148:28|100:48,1,90,2|8
388,124,50771,2,0,B|420:84|400:36,1,90,8|8
356,36,51099,1,8
332,72,51209,6,0,B|300:112|320:160,2,90,4|0|8
232,108,51866,2,0,B|244:56,2,45,0|0|2
100,168,52304,1,2
116,24,52523,1,8
200,272,52961,6,0,B|248:276|280:240,2,90,2|0|8
364,276,53617,1,0
280,240,53836,1,2
292,88,54055,2,0,B|312:40|360:32,1,90,2|8
444,52,54493,1,0
460,108,54603,1,8
452,164,54712,6,0,B|424:204|376:208,1,90,2|0
280,160,55150,1,8
340,272,55369,2,0,B|296:296|249:278|249:278|204:260|164:284,1,180
104,152,56026,1,8
256,92,56245,1,0
388,212,56464,5,2
156,64,56902,1,8
120,320,57340,1,2
156,64,57778,1,8
144,152,57997,1,8
180,232,58216,6,0,B|216:200|264:212,2,90,2|0|8
240,301,58873,1,0
233,141,59092,2,0,B|301:121|353:177|333:245,1,180,2|8
448,232,59749,2,0,B|452:180,1,45,0|8
468,132,59968,6,0,B|424:112|416:60,1,90,2|0
332,96,60406,1,8
248,60,60625,1,8
104,116,60844,5,2
116,264,61063,1,2
190,134,61282,1,8
58,194,61501,1,8
201,226,61720,6,0,B|205:278|236:316|289:326|333:310,1,180,2|8
297,220,62377,1,0
384,236,62596,2,0,B|426:268|424:321,1,90,2|2
296,220,63034,2,0,B|304:172|348:140|400:148,1,135,8|8
395,147,63471,6,0,B|372:100|404:60,1,90,2|8
312,72,63909,1,8
172,81,64128,5,8
150,69,64238,1,8
127,68,64347,1,8
107,76,64457,1,8
91,88,64566,1,8
79,108,64676,1,8
75,128,64785,1,8
79,152,64895,1,8
91,168,65004,1,8
111,180,65114,1,8
128,188,65223,6,0,B|176:212|176:264,2,90,4|0|8
84,268,65880,1,0
261,278,66099,2,0,B|271:217|239:152|189:126,1,180,2|8
200,344,66756,1,8
388,344,66975,6,0,B|476:288|460:192,1,180,2|8
512,116,67632,1,0
287,44,67851,2,0,B|287:90|324:124|378:138|423:105,1,180,2|8
376,29,68508,1,8
200,48,68727,6,0,B|212:92|196:136|148:164|95:155,1,180,2|8
116,68,69384,1,0
36,256,69603,2,0,B|64:224|120:216|168:244|181:292,1,180,2|8
96,324,70260,1,8
288,340,70479,6,0,B|320:304|370:309|370:309|400:276|449:276,1,180,2|8
448,368,71136,1,0
412,208,71355,2,0,B|452:128,1,90,2|0
342,143,71793,2,0,B|328:232,1,90,8|8
236,264,72231,6,0,B|247:84,1,180,2|8
156,96,72888,1,0
321,199,73107,2,0,B|292:164|241:151|189:159|159:191,1,180,2|8
321,199,73763,1,8
152,328,73982,6,0,B|180:364|232:376|284:368|313:335,1,180,2|8
152,328,74639,1,0
236,264,74858,2,0,B|200:228|152:224|152:224|140:180|100:156,1,180,2|8
60,240,75515,1,8
172,88,75734,6,0,B|200:52|248:36|300:52|328:88,1,180,2|8
408,48,76391,1,0
356,280,76610,2,0,B|409:269|440:224|432:164|406:136,1,180,2|8
336,192,77267,1,8
276,336,77486,6,0,B|252:288|264:248|264:248|236:208|252:160,1,180,2|8
324,108,78143,1,0
172,48,78362,1,8
176,212,78581,1,8
164,300,78800,2,8,B|140:300|120:284,1,45
88,240,79019,2,8,B|76:216|84:192,1,45
112,144,79238,6,0,B|152:104|244:112|268:192,1,180,4|8
252,268,79895,1,0
440,124,80114,2,0,B|456:188|392:248|332:232,1,180,2|8
348,140,80771,1,0
284,76,80990,6,0,B|192:116|108:80,2,180,2|8|2
284,248,82085,1,2
260,164,82304,2,0,B|208:176|196:232,1,90,8|8
284,248,82742,6,0,B|324:272|368:248|368:248|416:224|456:240,1,180,2|8
416,320,83398,1,0
332,348,83617,2,0,B|240:376|160:324,1,180,2|8
92,180,84274,1,0
168,232,84493,6,0,B|212:252|260:236|300:192|288:144,2,180,2|8|2
200,148,85588,1,2
240,68,85807,2,0,B|288:40|336:56|364:96,1,135,8|0
372,136,86245,6,0,B|368:180|308:204|248:192|224:152,1,180,4|8
156,100,86902,1,2
212,260,87121,2,0,B|212:312|160:344|104:344|72:308,1,180,4|8
49,218,87778,1,0
72,124,87997,6,0,B|60:80|76:32|132:4|180:16,1,180,2|8
256,80,88654,1,8
212,172,88873,2,0,B|256:192|300:172,1,90,2|8
156,100,89311,1,8
256,80,89530,2,0,B|300:64,1,45,2|2
352,88,89749,6,0,B|408:120|408:212|364:244,1,180,4|8
408,324,90406,1,2
300,172,90625,2,0,B|256:212|256:292|316:328,1,180,4|8
228,360,91282,1,2
228,360,91391,1,2
228,360,91501,6,8,B|192:328,3,45
168,336,91939,2,0,B|180:284,3,45,8|8|8|8
164,260,92377,2,0,B|132:224,3,45,8|8|8|8
88,228,92815,1,4
52,80,93252,6,0,B|84:44|132:44,1,90,4|0
196,12,93581,1,0
196,84,93690,2,0,B|240:72|284:88,1,90,8|0
356,88,94019,1,8
320,152,94128,2,0,B|360:184|356:240,1,90,2|2
392,296,94457,1,0
320,292,94566,2,0,B|304:340|252:356,1,90,8|0
128,240,95004,6,0,B|76:216|76:164,1,90,2|0
148,168,95333,1,0
164,96,95442,2,0,B|204:64|252:84,1,90,8|0
216,148,95771,1,8
268,196,95880,2,0,B|280:248|244:276,1,90,0|2
200,220,96209,1,0
216,148,96318,1,8
392,64,96756,6,0,B|348:44|304:64,1,90,2|0
232,60,97085,1,0
232,60,97194,1,8
348,148,97413,1,0
284,180,97523,2,0,B|296:208|324:216,1,45,8|2
456,204,97851,2,0,B|484:228|484:256,1,45,2|0
412,264,98070,2,0,B|368:272|344:316,1,90,8|2
220,240,98508,6,0,B|192:196|204:152,1,90,2|0
176,88,98836,1,0
176,88,98946,1,8
48,152,99165,1,0
92,96,99274,2,0,B|112:112|120:140,1,45,8|2
56,264,99603,2,0,B|48:292|60:312,1,45,2|0
124,284,99822,2,0,B|148:324|196:340,1,90,8|2
252,208,100260,6,0,B|268:304|364:336,1,180,4|8
320,160,100917,2,0,B|304:64|208:32,1,180,4|2
188,120,101574,1,8
124,60,101793,1,2
304,72,102012,6,0,B|348:44|400:56|440:100|436:148,1,180,4|8
264,208,102669,2,0,B|292:252|276:312|224:348|180:336,1,180,4|2
180,248,103325,1,8
108,304,103544,1,2
264,120,103763,5,4
440,60,104201,1,8
396,240,104639,1,2
264,120,105077,1,8
116,240,105515,5,2
80,100,105734,1,8
216,56,105953,1,2
252,196,106172,1,8
116,240,106391,2,0,B|100:292,3,45,2|8|2|8
124,324,106829,1,8
208,292,107048,2,0,B|252:288,1,45,2|2
288,316,107267,6,0,B|320:280|376:288,1,90,4|0
420,236,107596,1,0
352,216,107705,2,0,B|332:172|344:128,1,90,8|0
332,60,108034,1,8
272,20,108143,2,0,B|248:68|280:108,1,90,2|2
344,128,108471,5,0
344,128,108581,1,8
208,176,108800,1,0
128,56,109019,6,0,B|76:48|48:92,1,90,2|0
112,128,109347,1,0
48,160,109457,2,0,B|68:204|124:200,1,90,8|0
112,128,109785,5,8
128,56,109895,2,0,B|176:68|184:120,1,90,2|8
192,192,110223,2,0,B|228:216,1,45,0|8
392,104,110771,5,2
256,60,110990,2,0,B|216:88,1,45
152,56,111209,1,8
52,160,111428,2,0,B|80:120,1,45,0|8
148,128,111647,1,2
52,236,111866,2,0,B|92:264,1,45,2|0
148,220,112085,2,0,B|176:268|140:312,1,90,8|2
228,176,112523,5,2
292,304,112742,2,0,B|276:264,1,45
348,252,112961,1,8
360,108,113179,2,0,B|402:114,1,45,0|8
376,180,113398,1,2
497,263,113617,2,0,B|470:296,1,45,2|0
424,240,113836,1,8
292,304,114055,1,8
304,160,114274,6,0,B|212:196|128:164,1,180,4|8
256,36,114931,2,0,B|348:12|440:36,1,180,4|2
476,116,115588,1,8
452,204,115807,1,2
284,264,116026,6,0,B|288:320|256:360|200:376|152:360,1,180,4|8
11,243,116683,2,0,B|26:184|99:153|157:190,1,180,4|2
195,271,117340,1,8
102,265,117559,1,2
260,120,117778,5,4
84,76,118216,1,8
260,120,118654,1,2
428,76,119092,1,8
388,252,119530,6,0,B|400:204|441:184,1,90,2|8
256,202,119968,2,0,B|256:292,1,90,8|2
124,252,120406,2,0,B|112:204|71:184,1,90,8|8
256,202,120844,1,2
256,180,120953,1,8
256,156,121063,1,8
256,132,121172,1,8
256,108,121282,1,4
192,124,133544,6,0,B|232:100|280:108,1,90,2|8
408,164,133982,2,0,B|372:192|320:176,1,90,8|8
180,204,134420,5,8
224,200,134530,1,8
260,224,134639,2,0,B|300:248|300:300,2,90,8|8|0
224,200,135187,1,8
180,204,135296,6,0,B|120:200|92:148|88:100|120:60,1,180,4|8
192,116,135953,1,0
376,72,136172,2,0,B|424:80|444:124,1,90,2|2
364,164,136610,2,0,B|378:235|450:259,1,135,8|8
484,288,137048,6,0,B|400:332,1,90,2|0
312,328,137486,1,8
268,192,137705,1,0
176,304,137924,2,0,B|160:352|104:376|48:360|24:320,1,180,2|8
96,268,138581,1,2
76,212,138690,1,8
88,156,138800,6,0,B|148:80|252:104,1,180,2|8
224,188,139457,2,0,B|248:196|276:192,1,45
303,174,139676,2,0,B|363:122|327:54,1,135,2|0
340,16,140114,2,0,B|428:32,1,90,8|0
487,248,140552,6,0,B|444:252|410:219|382:170|412:120,1,180,2|8
496,160,141209,1,0
368,300,141428,2,0,B|276:356|196:292,1,180,2|8
212,204,142085,1,2
236,164,142194,1,8
236,120,142304,6,0,B|216:48|124:28|72:84,1,180,2|8
144,144,142961,1,0
320,64,143179,1,2
320,64,143617,2,0,B|352:132|324:204,1,135,8|8
304,232,144055,5,2
100,56,144493,1,8
48,320,144931,1,2
304,232,145369,1,8
244,164,145588,1,0
252,76,145807,6,0,B|348:52|424:124,1,180,2|8
424,208,146464,1,0
340,172,146683,1,2
252,188,146902,1,2
196,260,147121,1,8
196,260,147559,6,0,B|152:288|104:268,1,90,2|8
316,256,147997,2,0,B|360:280|404:260,1,90,8|8
428,252,148325,1,8
448,236,148435,1,8
464,216,148544,1,8
476,192,148654,1,8
484,164,148763,1,8
484,136,148873,1,8
480,108,148982,1,8
472,84,149092,1,8
460,60,149201,1,8
440,44,149311,6,0,B|348:0|264:44,1,180,4|8
304,124,149968,1,0
336,208,150187,2,0,B|280:236|208:192|212:124,1,180,2|8
396,140,150844,1,8
264,288,151063,6,0,B|204:254|128:304|134:362,1,180,2|8
224,372,151720,1,0
324,213,151939,2,0,B|348:228|368:268|372:324|312:368,1,180,2|8
224,372,152596,1,8
116,188,152815,6,0,B|76:160|68:112|80:56|136:36,1,180,2|8
176,120,153471,1,0
176,120,153690,2,0,B|208:88|256:96|256:96|308:104|344:68,1,180,2|8
276,9,154347,1,8
332,176,154566,6,0,B|280:188|240:180|240:180|200:216|152:208,1,180,2|8
176,120,155223,1,0
76,268,155442,2,0,B|52:216|68:172,1,90,2|2
248,292,155880,2,0,B|204:312|160:308,1,90,8|8
352,92,156318,6,0,B|400:96|428:140|436:196|400:236,1,180,2|8
332,176,156975,1,0
420,32,157194,2,0,B|384:-4|324:-4|276:24|264:68,1,180,2|8
352,92,157851,1,8
188,20,158070,6,0,B|124:92|160:188,1,180,2|8
208,360,158727,1,0
184,276,158946,2,0,B|136:288|80:268|56:208|72:168,1,180,2|8
160,188,159603,1,0
272,296,159822,6,0,B|344:344|448:324,1,180,2|8
324,228,160479,1,0
472,124,160698,2,0,B|428:124|400:172|400:172|368:132|316:132,1,180,2|8
392,72,161355,1,8
232,124,161574,6,0,B|196:92|140:84|92:112|76:156,1,180,2|8
160,188,162231,1,0
80,228,162450,2,0,B|104:276|151:275,1,90,2|8
236,240,162888,1,8
242,296,162997,1,8
214,344,163107,1,2
244,148,163325,6,0,B|324:200|420:168,1,180,4|8
308,252,163982,1,0
308,252,164201,2,0,B|302:156|378:89,1,180,2|8
468,92,164858,1,0
308,32,165077,6,0,B|232:96|136:68,2,180,2|8|2
154,152,166172,2,0,B|200:165|245:152,1,90,2|8
68,124,166610,1,8
208,240,166829,6,0,B|232:288|216:340|176:372|132:368,1,180,2|8
124,280,167486,1,0
124,280,167705,2,0,B|148:340|240:348|276:300,1,180,2|8
260,168,168362,1,0
408,200,168581,6,0,B|464:276|432:372,2,180,2|8|2
292,60,169676,1,2
356,124,169895,2,0,B|292:172|224:124,1,135,8|0
204,72,170333,6,0,B|228:116|216:164|168:204|120:196,1,180,4|8
124,108,170990,1,2
108,288,171209,2,0,B|148:256|200:260|244:288|256:336,1,180,4|8
168,360,171866,1,0
256,332,172085,6,0,B|266:288|310:260|362:256|402:288,1,180,2|8
328,164,172742,2,0,B|356:200|408:196,1,90,8|2
264,100,173179,2,0,B|236:64|184:68,1,90,8|8
244,188,173617,2,0,B|220:204|196:200,1,45,2|2
160,160,173836,6,0,B|172:200|136:260|68:260|36:232,1,180,4|8
120,332,174493,1,2
80,164,174712,2,0,B|68:116|112:68|164:64|204:88,1,180,4|8
312,60,175369,1,2
356,64,175479,1,2
400,72,175588,6,8,B|424:108,3,45
432,132,176026,2,8,B|416:176,3,45
444,212,176464,2,8,B|388:216,3,45
364,256,176902,1,4
200,184,177340,6,0,B|148:196|116:156,1,90,4|0
180,108,177669,1,0
104,80,177778,2,0,B|52:92|40:140,1,90,8|0
60,216,178107,1,8
104,284,178216,2,0,B|68:324|84:372,1,90,2|2
160,344,178544,1,0
184,264,178654,2,0,B|232:276|264:236,1,90,8|0
328,88,179092,6,0,B|376:64|420:88,1,90,2|0
376,156,179420,1,0
415,85,179530,6,0,B|460:112|456:160,1,90,8|0
376,156,179858,1,8
456,159,179968,6,0,B|452:207|404:231,1,90,2|8
376,156,180296,1,0
376,156,180406,1,8
184,112,180844,6,0,B|152:148|104:144,1,90,0|0
24,140,181172,1,0
24,140,181282,1,8
80,292,181501,2,0,B|52:328,1,45,0|8
128,352,181720,2,0,B|148:308|196:300,1,90,2|2
276,288,182048,2,0,B|257:247,1,45,0|8
316,96,182377,1,2
344,256,182596,6,0,B|308:172,1,90,2|0
244,128,182924,1,0
244,128,183034,1,8
396,76,183252,2,0,B|440:92,1,45,0|8
380,148,183471,2,0,B|420:236,1,90,2|2
400,312,183800,2,0,B|384:332|356:336,1,45,0|8
492,208,184128,1,8
312,184,184347,6,0,B|284:216|232:228|172:208|160:148,1,180,4|8
336,100,185004,2,0,B|384:108|412:152|412:208|380:244,1,180,4|2
300,280,185661,1,8
212,284,185880,1,2
232,104,186099,6,0,B|208:68|156:56|100:76|84:120,1,180,4|8
124,296,186756,2,0,B|128:340|164:376|220:392|272:352,1,180,4|2
300,280,187413,1,8
212,284,187632,1,2
156,112,187851,5,4
436,44,188289,1,8
356,320,188727,1,2
436,44,189165,1,8
156,112,189603,5,2
312,148,189822,1,8
164,212,190041,1,2
248,72,190260,1,8
260,232,190479,2,0,B|276:276,3,45,2|8|2|8
252,312,190917,1,8
164,332,191136,2,0,B|116:344,1,45,2|2
80,328,191355,6,0,B|88:276|48:244,1,90,4|0
44,168,191683,1,0
56,88,191793,2,0,B|92:56|140:64,1,90,8|0
120,144,192121,1,8
100,224,192231,2,0,B|148:232|184:200,1,90,2|2
196,120,192559,2,0,B|228:124|244:144,1,45,0|8
352,252,192888,1,0
416,104,193107,6,0,B|368:88|328:112,1,90,2|0
300,188,193435,1,0
352,252,193544,2,0,B|360:300|408:324,1,90,8|0
436,244,193873,1,8
464,168,193982,2,0,B|504:140|496:88,1,90,2|8
444,28,194311,2,0,B|420:20|392:28,1,45,0|8
248,124,194858,5,2
92,76,195077,2,0,B|128:48,1,45
208,52,195296,1,8
244,208,195515,2,0,B|208:236,1,45,0|8
128,232,195734,1,2
248,124,195953,2,0,B|276:120|296:140,1,45,2|0
324,208,196172,1,8
468,284,196391,1,2
456,124,196610,5,2
380,268,196829,2,0,B|364:284|340:288,1,45
264,264,197048,1,8
328,116,197267,2,0,B|324:92|308:72,1,45,0|8
236,44,197486,1,2
208,204,197705,2,0,B|228:184|252:184,1,45,2|0
324,208,197924,1,8
180,284,198143,1,8
172,104,198362,6,0,B|128:84|76:96|40:136|40:184,1,180,4|8
116,344,199019,2,0,B|152:384|208:380|256:352|264:304,1,180,4|2
248,224,199676,1,8
180,284,199895,1,2
300,148,200114,6,0,B|340:176|340:228|340:228|376:256|384:304,1,180,4|8
384,120,200771,2,0,B|364:72|312:48|264:60|232:92,1,180,4|2
216,180,201428,1,8
300,148,201647,1,2
304,308,201866,5,4
52,164,202304,1,8
304,24,202742,1,2
52,164,203179,1,8
304,308,203617,6,0,B|352:304|384:344,1,90,2|8
438,194,204055,2,0,B|420:240|448:280,1,90,8|2
352,168,204493,2,0,B|331:211|282:219,1,90,8|8
268,128,204931,2,2,B|236:96,3,45
192,88,205369,6,0,B|128:88|72:160|92:220,1,180,4|8
176,244,206026,1,0
104,296,206245,2,0,B|56:308|20:268,2,90,2|2|8
176,244,206902,1,0
196,332,207121,6,0,B|232:360|288:352,1,90,2|0
304,176,207559,2,0,B|356:172|392:140,1,90,8|0
264,264,207997,2,0,B|312:272|352:252,1,90,2|2
320,84,208435,2,0,B|364:64|384:20,1,90,8|8
232,112,208873,6,0,B|152:52|60:80,1,180,2|8
80,168,209530,1,0
253,204,209749,2,0,B|204:212|168:184,1,90,2|2
332,248,210187,2,0,B|352:204|332:160,1,90,8|0
248,288,210625,6,0,B|272:332|320:336,1,90,2|0
400,92,211063,2,0,B|364:64|316:68,1,90,8|0
284,84,211391,1,2
252,116,211501,2,0,B|228:164|256:204,1,90,2|0
400,308,211939,2,0,B|432:272|420:224,1,90,8|8
168,320,212377,6,0,B|124:340|72:332,2,90,4|2|8
232,256,213034,1,2
80,172,213252,2,0,B|116:144|164:148,2,90,2|2|8
144,236,213909,1,2
384,88,214128,6,0,B|412:132|392:180,1,90,2|2
284,308,214566,2,0,B|256:264|276:216,1,90,8|2
444,248,215004,1,2
400,268,215114,1,8
357,258,215223,1,2
224,148,215442,2,0,B|268:120|316:140,1,90,8|2
292,48,215880,6,0,B|240:36,3,45,4|2|2|2
168,76,216318,2,0,B|128:96,3,45,8|2|2|2
224,148,216756,2,0,B|212:192,3,45,4|2|2|2
92,200,217194,2,0,B|116:244,3,45,8|2|8|2
204,328,217632,6,0,B|256:316,3,45,2|2|2|2
380,320,218070,2,0,B|412:280,3,45,8|2|2|2
312,184,218508,2,0,B|288:136,3,45,0|2|0|2
436,136,218946,2,0,B|457:96,3,45,8|2|8|2
256,116,219384,5,4
108,200,219603,2,0,B|118:248|168:262,1,90,2|8
256,116,220041,1,4
84,112,220260,2,0,B|36:123|16:176,1,90,2|2
176,92,220698,2,0,B|164:44|116:24,1,90,8|4
256,116,221136,5,0
392,72,221355,2,0,B|436:52,2,45,2|0|8
340,144,221793,1,0
424,240,222012,2,0,B|448:196|428:144,2,90,2|4|8
256,308,222669,1,2
256,308,222888,5,4
216,120,223107,2,0,B|256:92|300:120,1,90,2|8
256,308,223544,1,4
140,176,223763,2,0,B|108:132|128:84,1,90,2|2
228,208,224201,2,0,B|212:256|160:268,1,90,8|4
308,224,224639,5,0
444,172,224858,2,0,B|480:200,2,45,0|0|8
428,96,225187,2,0,B|392:68,1,45
320,138,225515,1,2
209,49,225734,1,2
180,188,225953,1,8
356,220,226172,1,8
180,188,226391,5,4
268,216,226610,2,0,B|264:244|276:260,2,45,0|8|8
408,144,227048,2,0,B|360:124|316:140,2,90,8|2|2
292,56,227705,2,0,B|244:75|232:124,1,90,8|0
208,156,228034,1,4
168,172,228143,5,2
164,260,228362,2,0,B|172:308,2,45,0|0|8
88,212,228800,1,0
92,124,229019,1,8
204,48,229238,1,4
92,124,229457,1,8
48,132,229566,1,2
16,164,229676,1,2
320,148,229895,6,0,B|336:140|356:144,5,30,0|8|8|0|2|2
380,148,230333,2,0,B|396:152|408:164,5,30,0|8|8|0|2|2
424,184,230771,6,0,B|444:200|444:224,3,45,0|8|0|8
436,268,231209,2,0,B|432:292|412:312,3,45,0|8|0|4
256,192,231647,12,0,232961
384,120,233398,6,0,B|360:64|304:56,1,108.000002574921,2|0
144,40,234274,2,0,B|200:48,1,54.0000012874604,2|0
120,280,235150,6,0,B|92:336|32:328,1,108.000002574921,2|0
128,200,236026,2,0,B|156:164|204:168,2,81.0000019311905
192,252,236902,5,2
220,92,237340,1,0
344,196,237778,2,0,B|404:208,2,54.0000012874604,0|2|2
400,44,238654,6,0,B|352:80,2,54.0000012874604,0|2|2
276,148,239530,2,0,B|252:192|272:232,2,81.0000019311905,2|0|0
344,196,240406,6,0,B|360:232|348:272|312:296,2,108.000002574921,2|0|2
216,92,241720,2,0,B|184:100|168:128,1,54.0000012874604,0|2
92,112,242158,6,0,B|84:160|120:204|180:204,1,144,4|8
288,132,242815,2,0,B|328:132|360:152|360:152|388:132|424:132,1,144,2|2
420,212,243471,1,8
488,176,243690,1,2
448,288,243909,6,0,B|368:276|316:344,1,144,4|8
208,224,244566,2,0,B|232:280|176:332|136:328,1,144,2|2
132,248,245223,1,8
148,172,245442,1,2
260,108,245661,6,0,B|296:100|332:116|332:116|372:132|404:124,1,144,4|8
288,184,246318,2,0,B|252:192|216:176|216:176|184:160|148:172,1,144,2|2
176,248,246975,1,8
256,260,247194,1,2
336,252,247413,6,8,B|380:224,3,45,12|8|8|8
400,204,247851,2,8,B|408:152,3,45
396,116,248289,2,8,B|372:76,3,45
324,52,248727,1,4
160,128,249165,6,0,B|112:148|104:196,1,90,4|0
192,208,249493,1,0
136,280,249603,2,0,B|176:308|224:292,1,90,8|0
192,208,249931,1,8
281,223,250041,2,0,B|288:172|256:140,1,90,8|2
192,208,250369,1,0
192,208,250479,1,8
272,48,250698,1,0
421,155,250917,6,2,B|453:191|445:239,1,90,8|0
425,327,251245,1,0
425,327,251355,1,8
281,223,251574,2,0,B|261:239|261:263,1,45,0|8
349,283,251793,2,0,B|349:331|301:359,1,90,8|8
217,383,252121,2,0,B|209:355|221:335,1,45,0|8
224,180,252450,1,0
60,240,252669,6,0,B|32:200|52:152,1,90,8|0
136,188,252997,1,0
224,180,253107,2,0,B|232:232|188:260,1,90,8|0
136,188,253435,1,8
120,100,253544,2,0,B|148:60|192:52,1,90,8|2
272,100,253873,2,0,B|292:76|284:56,1,45,0|8
448,132,254201,1,2
296,228,254420,5,8
448,324,254639,2,0,B|444:276,1,45
392,208,254858,1,8
212,196,255077,2,0,B|196:240,1,45,0|8
252,312,255296,1,8
332,152,255515,2,0,B|360:116,1,45,2|0
412,44,255734,1,8
232,28,255953,1,8
128,176,256172,6,0,B|120:228|156:260|156:260|112:288|112:336,1,180,4|8
44,164,256829,2,0,B|52:112|100:80|152:84|184:112,1,180,4|2
212,196,257486,1,8
268,124,257705,1,2
464,180,257924,6,0,B|496:216|504:264|480:312|428:328,1,180,4|8
352,112,258581,2,0,B|348:56|296:24|240:28|208:60,1,180,4|2
268,124,259238,1,8
400,244,259457,1,2
400,244,259676,5,4
132,60,260114,1,8
108,384,260552,1,2
400,244,260990,1,8
216,224,261428,6,0,B|172:240|128:216,1,90,2|8
344,168,261866,2,0,B|384:148|440:156,1,90,8|2
180,136,262304,2,0,B|136:112|88:128,1,90,8|8
384,80,262742,2,2,B|424:60,3,45
468,68,263179,5,4
288,92,263617,1,8
380,248,264055,2,0,B|336:300|256:284,1,135,2|0
236,324,264493,2,0,B|172:236,1,90,8|0
221,170,264931,6,0,B|176:136|176:44|229:12,2,180,2|8|2
312,188,266026,2,0,B|300:236|252:256,1,90,8|8
92,180,266683,5,2
92,180,267121,1,8
204,320,267559,2,0,B|272:280|264:208,1,135,2|0
252,164,267997,2,0,B|340:188,1,90,8|0
404,124,268435,6,0,B|444:168|440:224|404:264|368:272,2,180,2|8|2
232,68,269749,2,8,B|196:104|144:96,1,90
44,244,270187,6,0,B|64:280|112:296|172:292|204:248,1,180,4|8
232,68,270844,2,0,B|212:32|164:16|104:20|72:64,1,180,4|8
36,152,271501,1,8
152,156,271720,1,2
268,144,271939,6,0,B|316:160|328:208,2,90,4|0|8
400,296,272596,2,0,B|304:336|232:268,1,180,4|2
192,188,273252,1,8
220,104,273471,1,2
348,228,273690,5,4
136,276,274128,1,8
88,64,274566,1,2
300,16,275004,1,8
300,16,275442,5,2
88,64,275880,1,8
136,276,276318,1,2
256,308,276537,1,8
348,228,276756,2,0,B|380:188,3,45,2|2|2|2
392,152,277194,6,0,B|432:120|432:76,2,90,4|0|8
340,80,277851,1,8
340,80,278070,1,2
260,200,278289,2,0,B|208:212|188:260,2,90,2|8|0
200,68,278946,6,0,B|148:60|112:96|112:96|80:128|36:136,1,180,2|8
104,196,279603,2,0,B|148:184|180:148,2,90,8|2|2
32,324,280260,1,8
176,328,280479,1,8
276,188,280698,6,0,B|228:212|224:260,1,90,2|0
312,268,281136,2,0,B|356:288|400:268,1,90,8|0
440,104,281574,2,0,B|392:96|352:128|352:128|320:92|272:92,1,180,2|8
276,188,282231,1,2
276,188,282450,6,0,B|228:188|196:148,1,90,2|0
56,152,282888,1,8
164,72,283107,1,8
128,200,283325,1,2
80,72,283544,1,2
128,200,283763,2,0,B|100:240|52:240,1,90,8|8
216,340,284201,6,0,B|296:388|392:352,1,180,4|8
472,192,284858,2,0,B|388:148|300:196,1,180,4|2
256,268,285515,1,8
344,272,285734,1,2
272,120,285953,6,0,B|236:72|156:60|104:96,1,180,4|8
92,267,286610,2,0,B|140:311|220:311|260:263,1,180,4|2
301,196,287267,1,8
272,120,287486,1,2
140,60,287705,6,0,B|92:56|48:96|36:136|44:184,2,180,4|8|2
176,64,288690,1,8
208,84,288800,1,0
224,116,288909,1,2
232,152,289019,2,2,B|236:180|216:200,3,45
204,224,289457,1,4
256,192,289566,12,0,292961
