osu file format v9

[General]
AudioFilename: 01. Prism Love.mp3
AudioLeadIn: 1000
PreviewTime: 91949
Countdown: 0
SampleSet: Soft
StackLeniency: 0.5
Mode: 0
LetterboxInBreaks: 0

[Editor]
DistanceSpacing: 1.7
BeatDivisor: 4
GridSize: 4

[Metadata]
Title:Prism Love
Artist:Yellow Zebra
Creator:l1106188
Version:D.N.Angel's Hard
Source:Touhou
Tags:DarknessAngel bossandy fujimiya yuki komeiji koishi last remote yoshiha Paint and Porbity

[Difficulty]
HPDrainRate:5
CircleSize:4
OverallDifficulty:6
ApproachRate:7
SliderMultiplier:1.4
SliderTickRate:1

[Events]
//Background and Video events
0,0,"BG.jpg"
//Break Periods
2,23380,34542
2,121482,132644
2,235150,241258
//Storyboard Layer 0 (Background)
//Storyboard Layer 1 (Fail)
//Storyboard Layer 2 (Pass)
//Storyboard Layer 3 (Foreground)
Sprite,Foreground,Centre,"Lyric\lyric-1.png",320,240 F,0,1010,1310,0,1 M,0,1010,7362,213,149,213,153 F,0,1310,,1 F,0,1310,7062,1 F,0,7062,7362,1,0
Sprite,Foreground,Centre,"Lyric\lyric-2.png",320,240 F,0,3462,3762,0,1 M,0,3462,7362,182,225,182,227 F,0,3762,7062,1 F,0,7062,7362,1,0
Sprite,Foreground,Centre,"Lyric\lyric-3.png",320,240 M,1,4662,4962,263,257,211,273 F,1,4662,4962,0,1 F,0,4962,7062,1 M,0,4962,7362,211,273,211,274 F,0,7062,7362,1,0
Sprite,Foreground,Centre,"Lyric\lyric-4.png",320,240 M,1,5262,5562,146,301,182,319 F,1,5262,5562,0,1 F,0,5562,7062,1 M,0,5562,7362,182,319,182,321 F,0,7062,7362,1,0
Sprite,Foreground,Centre,"Lyric\lyric-5.png",320,240 M,1,5862,6162,237,363,213,353 F,1,5862,6162,0,1 F,0,6162,7062,1 M,0,6162,7362,213,353,213,355 F,0,7062,7362,1,0
Sprite,Foreground,Centre,"Lyric\lyric-6.png",320,240 F,0,7062,7362,0,1 M,0,7062,13062,212,114,212,121 F,0,7362,12762,1 F,0,12762,13062,1,0
Sprite,Foreground,Centre,"Lyric\lyric-7.png",320,240 F,0,8262,8562,0,1 M,0,8262,13062,212,181,212,186 F,0,8562,12762,1 F,0,12762,13062,1,0
Sprite,Foreground,Centre,"Lyric\lyric-8.png",320,240 M,1,9462,9762,92,218,184,245 F,1,9462,9762,0,1 F,0,9762,12762,1 M,0,9762,13062,184,245,184,248 F,0,12762,13062,1,0
Sprite,Foreground,Centre,"Lyric\lyric-9.png",320,240 M,1,10062,10362,288,272,212,287 F,1,10062,10362,0,1 F,0,10362,12762,1 M,0,10362,13062,212,287,212,290 F,0,12762,13062,1,0
Sprite,Foreground,Centre,"Lyric\lyric-3.png",320,240 M,1,10662,10962,109,298,177,326 F,1,10662,10962,0,1 F,0,10962,12762,1 M,0,10962,13062,177,326,177,328 F,0,12762,13062,1,0
Sprite,Foreground,Centre,"Lyric\lyric-4.png",320,240 M,1,11262,11562,91,385,153,373 F,1,11262,11562,0,1 F,0,11562,12762,1 M,0,11562,13062,153,373,153,374 F,0,12762,13062,1,0
Sprite,Foreground,Centre,"Lyric\lyric-5.png",320,240 M,1,11862,12162,248,436,173,414 F,1,11862,12162,0,1 F,0,12162,12762,1 M,0,12162,13062,173,414,173,415 F,0,12762,13062,1,0
Sprite,Foreground,Centre,"Lyric\lyric-11.png",320,240 F,0,12762,13062,0,1 M,0,12762,21762,222,118,222,125 F,0,13062,21462,1 F,0,21462,21762,1,0
Sprite,Foreground,Centre,"Lyric\lyric-12.png",320,240 F,0,13662,13962,0,1 M,0,13662,21762,201,167,201,173 F,0,13962,14262,1 F,0,14262,21462,1 F,0,21462,21762,1,0
Sprite,Foreground,Centre,"Lyric\lyric-13.png",320,240 F,0,14262,14562,0,1 M,0,14262,21762,225,242,225,245 F,0,14562,21462,1 F,0,21462,21762,1,0
Sprite,Foreground,Centre,"Lyric\lyric-14.png",320,240 F,0,15762,16062,0,1 M,0,15762,21762,192,302,192,304 F,0,16062,21462,1 F,0,21462,,1 F,0,21462,21762,1,0
Sprite,Foreground,Centre,"Lyric\lyric-15.png",320,240 F,0,16662,16962,0,1 M,0,16662,21762,193,338,193,341 F,0,16962,21462,1 F,0,21462,21762,1,0
Sprite,Foreground,Centre,"Lyric\lyric-16.png",320,240 F,0,18462,18762,0,1 M,0,18462,21762,162,373,162,376 F,0,18762,21462,1 F,0,21462,21762,1,0
Sprite,Foreground,Centre,"SB\SB-BG.jpg",320,240 M,0,37194,,320,240 F,0,37194,37632,1,0 S,0,37194,37632,0.8,0.936
Sprite,Foreground,Centre,"SB\SB-BG.jpg",320,240 F,0,23180,23617,1,0 S,0,23180,23617,0.8,0.8959998
Sprite,Foreground,Centre,"Lyric\lyric-17.png",320,240 F,0,37194,37413,0,1 M,0,37194,43982,170,183,170,188 F,0,37413,43763,1 F,0,43763,43982,1,0
Sprite,Foreground,Centre,"Lyric\lyric-18.png",320,240 F,0,38946,39165,0,1 M,0,38946,43982,157,227,157,229 F,0,39165,43763,1 F,0,43763,43982,1,0
Sprite,Foreground,Centre,"Lyric\lyric-19.png",320,240 M,1,40260,40479,203,270,170,278 F,1,40260,40479,0,1 F,0,40479,43763,1 M,0,40479,43982,170,278,170,280 F,0,43763,43982,1,0
Sprite,Foreground,Centre,"Lyric\lyric-21.png",320,240 F,0,41574,41793,0,1 M,0,41574,43982,147,358,147,360 F,0,41793,43763,1 F,0,43763,43982,1,0
Sprite,Foreground,Centre,"Lyric\lyric-22.png",320,240 F,0,43763,43982,0,1 M,0,43763,45734,212,124,212,126 F,0,43982,50771,1 M,0,45734,50990,212,126,212,130 F,0,50771,50990,1,0
Sprite,Foreground,Centre,"Lyric\lyric-23.png",320,240 F,0,45515,45734,0,1 M,0,45515,50990,193,174,193,177 F,0,45734,,1 F,0,45734,50771,1 F,0,50771,50990,1,0
Sprite,Foreground,Centre,"Lyric\lyric-24.png",320,240 M,1,46391,46610,265,222,213,217 F,1,46391,46610,0,1 F,0,46610,50771,1 M,0,46610,50990,213,217,213,219 F,0,50771,50990,1,0
Sprite,Foreground,Centre,"Lyric\lyric-25.png",320,240 M,0,46829,47048,143,252,181,246 F,1,46829,47048,0,1 F,0,47048,50771,1 M,0,47048,50990,181,246,181,248 F,0,50771,50990,1,0
Sprite,Foreground,Centre,"Lyric\lyric-26.png",320,240 M,0,47705,47924,238,298,212,278 F,1,47705,47924,0.01200012,1 F,0,47924,,1 F,0,47924,50771,1 M,0,47924,50990,212,278,212,281 F,0,50771,50990,1,0
Sprite,Foreground,Centre,"Lyric\lyric-27.png",320,240 F,0,49457,49676,0,1 M,0,49457,50990,246,310,246,311 F,0,49676,50771,1 F,0,50771,50990,1,0
Sprite,Foreground,Centre,"Lyric\lyric-28.png",320,240 F,0,50771,50990,0,1 M,0,50771,57997,241,102,241,105 F,0,50990,57778,1 F,0,57778,57997,1,0
Sprite,Foreground,Centre,"Lyric\lyric-29.png",320,240 F,0,51209,51428,0,1 M,0,51209,57997,228,152,228,158 F,0,51428,57778,1 F,0,57778,57997,1,0
Sprite,Foreground,Centre,"Lyric\lyric-31.png",320,240 F,0,52085,52304,0,1 M,0,52085,57997,238,193,238,196 F,0,52304,57778,1 F,0,57778,57997,1,0
Sprite,Foreground,Centre,"Lyric\lyric-32.png",320,240 F,0,52961,53180,0,1 M,0,52961,57997,228,232,228,235 F,0,53180,57778,1 F,0,57778,57997,1,0
Sprite,Foreground,Centre,"Lyric\lyric-33.png",320,240 F,0,54055,54274,0,1 M,0,54055,57997,171,105,171,108 F,0,54274,57778,1 F,0,57778,57997,1,0
Sprite,Foreground,Centre,"Lyric\lyric-34.png",320,240 F,0,54931,55150,0,1 M,0,54931,57997,158,148,158,151 F,0,55150,57778,1 F,0,57778,57997,1,0
Sprite,Foreground,Centre,"Lyric\lyric-35.png",320,240 F,0,55807,56026,0,1 M,0,55807,57997,177,204,177,205 F,0,56026,57778,1 F,0,57778,57997,1,0
Sprite,Foreground,Centre,"Lyric\lyric-3.png",320,240 M,1,56464,56683,124,282,154,265 F,1,56464,56683,0,1 F,0,56683,57778,1 M,0,56683,57997,154,265,154,267 F,0,57778,57997,1,0
Sprite,Foreground,Centre,"Lyric\lyric-4.png",320,240 M,1,56902,57121,214,325,178,306 F,1,56902,57121,0,1 F,0,57121,57778,1 M,0,57121,57997,178,306,178,307 F,0,57778,57997,1,0
Sprite,Foreground,Centre,"Lyric\lyric-5.png",320,240 M,1,57340,57559,139,351,159,340 F,1,57340,57559,0,1 F,0,57559,57778,1 M,0,57559,57997,159,340 F,0,57778,57997,1,0
Sprite,Foreground,Centre,"Lyric\lyric-36.png",320,240 F,0,57778,57997,0,1 M,0,57778,63690,234,184,234,190 F,0,57997,63471,1 F,0,63471,63690,1,0
Sprite,Foreground,Centre,"Lyric\lyric-37.png",320,240 F,0,59749,59968,0,1 M,0,59749,63690,181,167,181,169 F,0,59968,63471,1 F,0,63471,63690,1,0
Sprite,Foreground,Centre,"Lyric\lyric-38.png",320,240 F,0,60625,60844,0,1 M,0,60625,63690,166,247,166,249 F,0,60844,63471,1 F,0,63471,63690,1,0
Sprite,Foreground,Centre,"Lyric\lyric-39.png",320,240 M,1,61282,61501,158,349,183,338 F,1,61282,61501,0,1 F,0,61501,63471,1 M,0,61501,63690,183,338,183,341 F,0,63471,63690,1,0
Sprite,Foreground,Centre,"SB\SB-BG.jpg",320,240 M,0,65223,,320,240 F,0,65223,65661,1,0 S,0,65223,65661,0.8000001,0.8800001
Sprite,Foreground,Centre,"Lyric\lyric-41.png",320,240 F,0,65223,65442,0,1 M,0,65223,72450,240,147,240,149 F,0,65442,72231,1 F,0,72231,72450,1,0
Sprite,Foreground,Centre,"Lyric\lyric-42.png",320,240 F,0,66537,66756,0,1 M,0,66537,72450,224,211,224,213 F,0,66756,72231,1 F,0,72231,72450,1,0
Sprite,Foreground,Centre,"Lyric\lyric-43.png",320,240 F,0,66975,67194,0,1 M,0,66975,72450,241,266,241,269 F,0,67194,72231,1 F,0,72231,72450,1,0.09199997
Sprite,Foreground,Centre,"Lyric\lyric-44.png",320,240 F,0,68727,68946,0,1 M,0,68727,72450,173,212,173,215 F,0,68946,72231,1 F,0,72231,72450,1,0
Sprite,Foreground,Centre,"Lyric\lyric-45.png",320,240 F,0,70041,70260,0,1 M,0,70041,72450,164,284,164,286 F,0,70260,72231,1 F,0,72231,72450,1,0
Sprite,Foreground,Centre,"Lyric\lyric-46.png",320,240 F,0,71136,71355,0,1 M,0,71136,72450,179,334,179,335 F,0,71355,72231,1 F,0,72231,72450,1,0
Sprite,Foreground,Centre,"SB\SB-BG.jpg",320,240 M,0,79238,,320,240 F,0,79238,79676,1,0 S,0,79238,79676,0.7999998,0.888
Sprite,Foreground,Centre,"Lyric\lyric-47.png",320,240 F,0,72231,72450,0,1 M,0,72231,79457,181,231,181,236 F,0,72450,79238,1 F,0,79238,79457,1,0
Sprite,Foreground,Centre,"Lyric\lyric-48.png",320,240 F,0,73982,74201,0,1 M,0,73982,79457,173,280,173,283 F,0,74201,79238,1 F,0,79238,79457,1,0
Sprite,Foreground,Centre,"Lyric\lyric-49.png",320,240 F,0,74639,74858,0,1 M,0,74639,79457,184,332,184,334 F,0,74858,79238,1 F,0,79238,79457,1,0
Sprite,Foreground,Centre,"Lyric\lyric-51.png",320,240 F,0,76391,76610,0,1 M,0,76391,79457,140,257,140,260 F,0,76610,79238,1 F,0,79238,79457,1,0
Sprite,Foreground,Centre,"Lyric\lyric-52.png",320,240 F,0,77048,77267,0,1 M,0,77048,79457,130,326,130,327 F,0,77267,79238,1 F,0,79238,79457,1,0
Sprite,Foreground,Centre,"Lyric\lyric-53.png",320,240 F,0,78143,78362,0,1 M,0,78143,79457,140,395,140,397 F,0,78362,79238,1 F,0,79238,79457,1,0
Sprite,Foreground,Centre,"Lyric\lyric-54.png",320,240 F,0,79238,79457,0,1 M,0,79238,86464,236,131,236,139 F,0,79457,86245,1 F,0,86245,86464,1,0
Sprite,Foreground,Centre,"Lyric\lyric-55.png",320,240 F,0,81428,81647,0,1 M,0,81428,86464,227,242,227,245 F,0,81647,86245,1 F,0,86245,86464,1,0
Sprite,Foreground,Centre,"SB\SB-BG.jpg",320,240 M,0,86245,,320,240 F,0,86245,86683,1,0 S,0,86245,86683,0.8,0.888
Sprite,Foreground,Centre,"SB\SB-BG.jpg",320,240 F,0,87121,87559,1,0 S,0,87121,87559,0.8,0.928
Sprite,Foreground,Centre,"Lyric\lyric-56.png",320,240 F,0,82742,82961,0,1 M,0,82742,86464,183,164,183,169 F,0,82961,86245,1 F,0,86245,86464,1,0
Sprite,Foreground,Centre,"Lyric\lyric-57.png",320,240 F,0,84055,84274,0,1 M,0,84055,86464,174,244,174,247 F,0,84274,86245,1 F,0,86245,86464,1,0
Sprite,Foreground,Centre,"Lyric\lyric-58.png",320,240 F,0,84931,85150,0,1 M,0,84931,86464,170,304,170,305 F,0,85150,86245,1 F,0,86245,86464,1,0
Sprite,Foreground,Centre,"SB\SB-BG.jpg",320,240 F,0,89749,90187,1,0 S,0,89749,90187,0.8,0.9040001
Sprite,Foreground,Centre,"SB\SB-BG.jpg",320,240 F,0,90625,91063,1,0 S,0,90625,91063,0.8,0.9039999
Sprite,Foreground,Centre,"Lyric\lyric-4.png",320,240 F,0,86245,86464,0,1 M,0,86245,89968,225,212,225,216 F,0,86464,89749,1 F,0,89749,89968,1,0
Sprite,Foreground,Centre,"Lyric\lyric-59.png",320,240 F,0,86902,87121,0,1 M,0,86902,89968,218,273,218,275 F,0,87121,89749,1 F,0,89749,89968,1,0
Sprite,Foreground,Centre,"Lyric\lyric-61.png",320,240 F,0,91939,92158,0,1 M,0,91939,96975,235,121,235,128 F,0,92158,96756,1 F,0,96756,96975,1,0
Sprite,Foreground,Centre,"Lyric\lyric-62.png",320,240 F,0,94128,94347,0,1 M,0,94128,96975,222,208,222,211 F,0,94347,96756,1 F,0,96756,96975,1,0
Sprite,Foreground,Centre,"Lyric\lyric-63.png",320,240 M,1,95004,95223,123,306,210,279 F,0,95004,95223,0,1 F,1,95223,96756,1 M,0,95223,96975,210,279,210,280 F,0,96756,96975,1,0
Sprite,Foreground,Centre,"Lyric\lyric-31.png",320,240 M,0,95442,95661,261,358,220,320 F,0,95442,95661,0,1 F,1,95661,96756,1 M,0,95661,96975,220,320,220,322 F,0,96756,96975,1,0
Sprite,Foreground,Centre,"Lyric\lyric-4.png",320,240 M,1,95880,96099,127,366,205,360 F,1,95880,96099,0.04399994,1 F,0,96099,96756,1 M,0,96099,96975,205,360,205,362 F,0,96756,96975,1,0.1040001
Sprite,Foreground,Centre,"Lyric\lyric-64.png",320,240 M,1,96756,96975,458,0,187,125 F,1,96756,96975,0,1 F,0,96975,100917,1 M,0,96975,101136,187,125,187,128 F,0,100917,101136,1,0
Sprite,Foreground,Centre,"Lyric\lyric-65.png",320,240 F,0,98289,98508,0,1 M,0,98289,101136,173,161,173,164 F,0,98508,100917,1 F,0,100917,101136,1,0
Sprite,Foreground,Centre,"Lyric\lyric-66.png",320,240 F,0,98508,98727,0,1 M,0,98508,101136,191,197,191,199 F,0,98727,100917,1 F,0,100917,101136,1,0
Sprite,Foreground,Centre,"Lyric\lyric-48.png",320,240 F,0,98946,99165,0,1 M,0,98946,101136,172,236,172,237 F,0,99165,100917,1 F,0,100917,101136,1,0
Sprite,Foreground,Centre,"Lyric\lyric-67.png",320,240 M,1,99384,99603,237,281,187,276 F,1,99384,99603,0,1 F,0,99603,100917,1 M,0,99603,101136,187,276,187,278 F,0,100917,101136,1,0
Sprite,Foreground,Centre,"Lyric\lyric-66.png",320,240 M,1,99822,100041,113,328,174,316 F,1,99822,100041,0,1 F,0,100041,100917,1 M,0,100041,101136,174,316,174,317 F,0,100917,101136,1,0
Sprite,Foreground,Centre,"Lyric\lyric-68.png",320,240 M,1,100260,100479,247,357,191,354 F,1,100260,100479,0,1 F,0,100479,100917,1 M,0,100479,101136,191,354,191,355 F,0,100917,101136,1,0.02
Sprite,Foreground,Centre,"Lyric\lyric-69.png",320,240 F,0,100917,101136,0,1 M,0,100917,106610,222,154,222,159 F,0,101136,106391,1 F,0,106391,106610,1,0
Sprite,Foreground,Centre,"Lyric\lyric-71.png",320,240 F,0,102012,102231,0,1 M,0,102012,106610,202,258,202,262 F,0,102231,106391,1 F,0,106391,106610,1,0
Sprite,Foreground,Centre,"Lyric\lyric-72.png",320,240 F,0,103107,103325,0,1 M,0,103107,106610,229,352,229,355 F,0,103325,106391,1 F,0,106391,106610,1,0
Sprite,Foreground,Centre,"Lyric\lyric-73.png",320,240 F,0,105515,105734,0.228,1 M,0,105515,106610,202,410,202,411 F,0,105734,106391,1 F,0,106391,106610,1,0
Sprite,Foreground,Centre,"Lyric\lyric-74.png",320,240 F,0,106391,106610,0,1 M,0,106391,110990,172,117,172,119 F,0,106610,110771,1 F,0,110771,110990,1,0
Sprite,Foreground,Centre,"Lyric\lyric-75.png",320,240 F,0,107048,107267,0,1 M,0,107048,110990,169,165,169,167 F,0,107267,110771,1 F,0,110771,110990,1,0
Sprite,Foreground,Centre,"Lyric\lyric-76.png",320,240 F,0,108143,108362,0,1 M,0,108143,110990,153,231,153,233 F,0,108362,110771,1 F,0,110771,110990,1,0
Sprite,Foreground,Centre,"Lyric\lyric-77.png",320,240 M,1,108800,109019,87,286,153,284 F,1,108800,109019,0,1 F,0,109019,110771,1 M,0,109019,110990,153,284,153,285 F,0,110771,110990,1,0
Sprite,Foreground,Centre,"Lyric\lyric-46.png",320,240 M,1,109457,109676,247,300,170,322 F,1,109457,109676,0,1 F,0,109676,110771,1 M,0,109676,110990,170,322,170,323 F,0,110771,110990,1,0
Sprite,Foreground,Centre,"Lyric\lyric-15.png",320,240 M,1,109895,110114,98,367,170,361 F,1,109895,110114,0.03600006,1 F,0,110114,110771,1 M,0,110114,110990,170,361,170,362 F,0,110771,110990,1,0.05600006
Sprite,Foreground,Centre,"Lyric\lyric-78.png",320,240 M,1,110771,110990,137,25,217,152 F,0,110771,110990,0,1 F,0,110990,114931,1 M,0,110990,115150,217,152,217,155 F,0,114931,115150,1,0
Sprite,Foreground,Centre,"Lyric\lyric-79.png",320,240 F,0,111866,112085,0,1 M,0,111866,115150,207,198,207,201 F,0,112085,114931,1 F,0,114931,115150,1,0
Sprite,Foreground,Centre,"Lyric\lyric-9.png",320,240 M,1,112523,112742,291,238,222,235 F,1,112523,112742,0,1 F,0,112742,114931,1 M,0,112742,115150,222,235,222,237 F,0,114931,115150,1,0
Sprite,Foreground,Centre,"Lyric\lyric-81.png",320,240 M,1,112961,113179,156,271,209,272 F,1,112961,113179,0,1 F,0,113179,114931,1 M,0,113179,115150,209,272,209,274 F,0,114931,115150,1,0
Sprite,Foreground,Centre,"Lyric\lyric-46.png",320,240 M,1,114274,114493,267,338,221,311 F,1,114274,114493,0,1 F,0,114493,114931,1 M,0,114493,115150,221,311,221,312 F,0,114931,115150,1,0
Sprite,Foreground,Centre,"SB\SB-BG.jpg",320,240 F,0,121282,121720,1,0 S,0,121282,121720,0.8000001,0.8800002
Sprite,Foreground,Centre,"Lyric\lyric-82.png",320,240 F,0,114931,115150,0,1 M,0,114931,121501,173,126,173,129 F,0,115150,121282,1 F,0,121282,121501,1,0
Sprite,Foreground,Centre,"Lyric\lyric-83.png",320,240 F,0,116026,116245,0,1 M,0,116026,121501,155,219,155,221 F,0,116245,121282,1 F,0,121282,121501,1,0
Sprite,Foreground,Centre,"Lyric\lyric-84.png",320,240 F,0,117121,117340,0,1 M,0,117121,121501,170,326,170,327 F,0,117340,121282,1 F,0,121282,121501,1,0
Sprite,Foreground,Centre,"Lyric\lyric-85.png",320,240 F,0,119092,119311,0.1039999,1 M,0,119092,121501,156,403,156,404 F,0,119311,121282,1 F,0,121282,121501,1,0.132
Sprite,Foreground,Centre,"SB\SB-BG.jpg",320,240 M,0,116026,,320,240 F,0,116026,116464,1,0 S,0,116026,116464,0.8,0.92
Sprite,Foreground,Centre,"SB\SB-BG.jpg",320,240 M,0,114931,,320,240 F,0,114931,115369,1,0 S,0,114931,115369,0.8,0.8799999
Sprite,Foreground,Centre,"SB\SB-BG.jpg",320,240 M,0,114274,,320,240 F,0,114274,114712,1,0 S,0,114274,114712,0.7999998,0.8879997
Sprite,Foreground,Centre,"SB\SB-BG.jpg",320,240 F,0,107267,107705,1,0 S,0,107267,107705,0.8079998,0.8879998
Sprite,Foreground,Centre,"SB\SB-BG.jpg",320,240 F,0,103763,104201,1,0 S,0,103763,104201,0.8,0.904
Sprite,Foreground,Centre,"SB\SB-BG.jpg",320,240 F,0,102669,103107,1,0 S,0,102669,103107,0.8,0.8880001
Sprite,Foreground,Centre,"SB\SB-BG.jpg",320,240 F,0,116683,117121,1,0 S,0,116683,117121,0.7999998,0.8799998
Sprite,Foreground,Centre,"SB\SB-BG.jpg",320,240 F,0,102012,102450,1,0 S,0,102012,102450,0.8,0.896
Sprite,Foreground,Centre,"SB\SB-BG.jpg",320,240 M,0,100917,,320,240 F,0,100917,101355,1,0 S,0,100917,101355,0.8,0.8879999
Sprite,Foreground,Centre,"SB\SB-BG.jpg",320,240 M,0,100260,,320,240 F,0,100260,100698,1,0 S,0,100260,100698,0.8,0.8880001
Sprite,Foreground,Centre,"SB\SB-BG.jpg",320,240 F,0,93252,93690,1,0 S,0,93252,93690,0.8,0.9040001
Sprite,Foreground,Centre,"SB\SB-BG.jpg",320,240 M,0,117778,,320,240 F,0,117778,118216,1,0 S,0,117778,118216,0.8,0.864
Sprite,Foreground,Centre,"SB\SB-BG.jpg",320,240 F,0,135296,135734,1,0 S,0,135296,135734,0.8000001,0.8960001
Sprite,Foreground,Centre,"Lyric\lyric-86.png",320,240 F,0,135296,135515,0,1 M,0,135296,142085,206,101,206,107 F,0,135515,141866,1 F,0,141866,142085,1,0
Sprite,Foreground,Centre,"Lyric\lyric-87.png",320,240 F,0,137048,137267,0,1 M,0,137048,142085,193,143,193,147 F,0,137267,141866,1 F,0,141866,142085,1,0
Sprite,Foreground,Centre,"Lyric\lyric-88.png",320,240 F,0,138362,138581,0,1 M,0,138362,142085,206,212,206,215 F,0,138581,141866,1 F,0,141866,142085,1,0
Sprite,Foreground,Centre,"Lyric\lyric-89.png",320,240 F,0,139676,139895,0,1 M,0,139676,142085,195,305,195,308 F,0,139895,141866,1 F,0,141866,142085,1,0
Sprite,Foreground,Centre,"Lyric\lyric-91.png",320,240 F,0,141866,142085,0,1 M,0,141866,147340,158,115,158,119 F,0,142085,147121,1 F,0,147121,147340,1,0
Sprite,Foreground,Centre,"Lyric\lyric-92.png",320,240 F,0,142961,143180,0,1 M,0,142961,147340,174,166,174,168 F,0,143180,147121,1 F,0,147121,147340,1,0
Sprite,Foreground,Centre,"Lyric\lyric-31.png",320,240 M,1,144055,144274,236,224,160,204 F,1,144055,144274,0,1 F,0,144274,147121,1 M,0,144274,147340,160,204,160,206 F,0,147121,147340,1,0
Sprite,Foreground,Centre,"Lyric\lyric-93.png",320,240 M,1,144493,144712,111,258,175,245 F,1,144493,144712,0,1 F,0,144712,147121,1 M,0,144712,147340,175,245,175,247 F,0,147121,147340,1,0
Sprite,Foreground,Centre,"Lyric\lyric-94.png",320,240 M,1,144931,145150,217,308,162,285 F,1,144931,145150,0,1 F,0,145150,147121,1 M,0,145150,147340,162,285,162,287 F,0,147121,147340,1,0
Sprite,Foreground,Centre,"Lyric\lyric-87.png",320,240 F,0,145807,146026,0,1 M,0,145807,147340,174,329,174,330 F,0,146026,147121,1 F,0,147121,147340,1,0
Sprite,Foreground,Centre,"SB\SB-BG.jpg",320,240 F,0,149311,149749,1,0 S,0,149311,149749,0.8,0.896
Sprite,Foreground,Centre,"Lyric\lyric-95.png",320,240 F,0,149311,149530,0,1 M,0,149311,156537,227,127,227,129 F,0,149530,156318,1 F,0,156318,156537,1,0
Sprite,Foreground,Centre,"Lyric\lyric-96.png",320,240 F,0,150625,150844,0,1 M,0,150625,156537,215,196,215,199 F,0,150844,156318,1 F,0,156318,156537,1,0
Sprite,Foreground,Centre,"Lyric\lyric-97.png",320,240 F,0,151063,151282,0,1 M,0,151063,156537,227,251,227,254 F,0,151282,156318,1 F,0,156318,156537,1,0
Sprite,Foreground,Centre,"Lyric\lyric-98.png",320,240 F,0,152815,153034,0,1 M,0,152815,156537,178,273,178,275 F,0,153034,156318,1 F,0,156318,156537,1,0
Sprite,Foreground,Centre,"Lyric\lyric-99.png",320,240 F,0,154128,154347,0,1 M,0,154128,156537,189,334,189,336 F,0,154347,156318,1 F,0,156318,156537,1,0
Sprite,Foreground,Centre,"Lyric\lyric-48.png",320,240 F,0,155223,155442,0.16,1 M,0,155223,156537,178,388,178,390 F,0,155442,156318,1 F,0,156318,156537,1,0
Sprite,Foreground,Centre,"SB\SB-BG.jpg",320,240 F,0,163325,163763,1,0 S,0,163325,163763,0.8,0.912
Sprite,Foreground,Centre,"Lyric\lyric-101.png",320,240 F,0,156318,156537,0,1 M,0,156318,163544,171,163,171,165 F,0,156537,163325,1 F,0,163325,163544,1,0
Sprite,Foreground,Centre,"Lyric\lyric-102.png",320,240 F,0,158070,158289,0,1 M,0,158070,163544,182,221,182,223 F,0,158289,163325,1 F,0,163325,163544,1,0
Sprite,Foreground,Centre,"Lyric\lyric-103.png",320,240 F,0,159822,160041,0,1 M,0,159822,163544,172,298,172,301 F,0,160041,163325,1 F,0,163325,163544,1,0
Sprite,Foreground,Centre,"Lyric\lyric-48.png",320,240 F,0,162231,162450,0,1 M,0,162231,163544,161,360,161,362 F,0,162450,163325,1 F,0,163325,163544,1,0
Sprite,Foreground,Centre,"Lyric\lyric-104.png",320,240 F,0,163325,163544,0,1 M,0,163325,170552,233,138,233,140 F,0,163544,170333,1 F,0,170333,170552,1,0
Sprite,Foreground,Centre,"Lyric\lyric-105.png",320,240 F,0,165515,165734,0,1 M,0,165515,170552,223,229,223,232 F,0,165734,170333,1 F,0,170333,170552,1,0
Sprite,Foreground,Centre,"SB\SB-BG.jpg",320,240 M,0,170333,,320,240 F,0,170333,170771,1,0 S,0,170333,170771,0.8,0.9120001
Sprite,Foreground,Centre,"SB\SB-BG.jpg",320,240 F,0,171209,171647,1,0 S,0,171209,171647,0.8000001,0.9280001
Sprite,Foreground,Centre,"Lyric\lyric-106.png",320,240 F,0,166829,167048,0,1 M,0,166829,170552,175,224,175,227 F,0,167048,170333,1 F,0,170333,170552,1,0
Sprite,Foreground,Centre,"Lyric\lyric-107.png",320,240 F,0,169019,169238,0,1 M,0,169019,170552,169,317,169,318 F,0,169238,170333,1 F,0,170333,170552,1,0
Sprite,Foreground,Centre,"SB\SB-BG.jpg",320,240 F,0,173836,174274,1,0 S,0,173836,174274,0.8,0.912
Sprite,Foreground,Centre,"SB\SB-BG.jpg",320,240 F,0,174712,175150,1,0 S,0,174712,175150,0.7999998,0.8959999
Sprite,Foreground,Centre,"Lyric\lyric-15.png",320,240 F,0,170333,170552,0,1 M,0,170333,173617,135,251,135,255 F,0,170552,173398,1 F,0,173398,173617,1,0
Sprite,Foreground,Centre,"Lyric\lyric-59.png",320,240 F,0,170990,171209,0,1 M,0,170990,173617,132,311,132,313 F,0,171209,173398,1 F,0,173398,173617,1,0
Sprite,Foreground,Centre,"Lyric\lyric-108.png",320,240 F,0,176026,176245,0,1 M,0,176026,181063,230,144,230,149 F,0,176245,180844,1 F,0,180844,181063,1,0
Sprite,Foreground,Centre,"Lyric\lyric-109.png",320,240 F,0,178216,178435,0,1 M,0,178216,181063,215,228,215,230 F,0,178435,180844,1 F,0,180844,181063,1,0
Sprite,Foreground,Centre,"Lyric\lyric-63.png",320,240 M,1,179092,179311,158,275,197,292 F,1,179092,179311,0,1 F,0,179311,180844,1 M,0,179311,181063,197,292,197,293 F,0,180844,181063,1,0
Sprite,Foreground,Centre,"Lyric\lyric-31.png",320,240 M,1,179530,179749,303,308,213,329 F,1,179530,179749,0,1 F,0,179749,180844,1 M,0,179749,181063,213,329,213,330 F,0,180844,181063,1,0
Sprite,Foreground,Centre,"Lyric\lyric-4.png",320,240 M,1,179968,180187,154,380,199,368 F,1,179968,180187,0.09200012,1 F,0,180187,180844,1 M,0,180187,181063,199,368 F,0,180844,181063,1
Sprite,Foreground,Centre,"Lyric\lyric-64.png",320,240 M,1,180844,181063,45,67,186,129 F,0,180844,181063,0,1 F,0,181063,185004,1 M,0,181063,185223,186,129,186,132 F,0,185004,185223,1,0
Sprite,Foreground,Centre,"Lyric\lyric-65.png",320,240 F,0,182377,182596,0,1 M,0,182377,185223,196,165,196,168 F,0,182596,,1 F,0,182596,185004,1 F,0,185004,185223,1,0
Sprite,Foreground,Centre,"Lyric\lyric-66.png",320,240 M,1,182596,182815,130,179,184,204 F,1,182596,182815,0,1 F,0,182815,185004,1 M,0,182815,185223,184,204,184,207 F,0,185004,185223,1,0
Sprite,Foreground,Centre,"Lyric\lyric-48.png",320,240 M,1,183034,183252,232,237,194,242 F,1,183034,183252,0,1 F,0,183252,185004,1 M,0,183252,185223,194,242,194,244 F,0,185004,185223,1,0
Sprite,Foreground,Centre,"Lyric\lyric-111.png",320,240 M,1,183471,183690,125,284,182,285 F,1,183471,183690,0,1 F,0,183690,185004,1 M,0,183690,185223,182,285,182,287 F,0,185004,185223,1,0
Sprite,Foreground,Centre,"Lyric\lyric-66.png",320,240 M,1,183909,184128,229,340,193,328 F,1,183909,184128,0.07199997,1 F,1,184128,185004,1 M,0,184128,185223,193,328,193,329 F,0,185004,185223,1,0
Sprite,Foreground,Centre,"Lyric\lyric-112.png",320,240 M,1,184347,184566,126,382,179,380 F,1,184347,184566,0,1 F,0,184566,185004,1 M,0,184566,185223,179,380,179,382 F,0,185004,185223,1,0.04399994
Sprite,Foreground,Centre,"Lyric\lyric-113.png",320,240 F,0,185004,185223,0,1 M,0,185004,190698,236,136,236,140 F,0,185223,190479,1 F,0,190479,190698,1,0
Sprite,Foreground,Centre,"Lyric\lyric-114.png",320,240 M,0,186099,186318,197,215,197,216 F,0,186099,186318,0,1 F,0,186318,190479,1 M,0,186318,190698,197,216,197,217 F,0,190479,190698,1,0
Sprite,Foreground,Centre,"Lyric\lyric-115.png",320,240 F,0,187194,187413,0,1 M,0,187194,190698,160,280,160,282 F,0,187413,190479,1 F,0,190479,190698,1,0
Sprite,Foreground,Centre,"Lyric\lyric-116.png",320,240 F,0,189603,189822,0,1 M,0,189603,190698,157,338,157,339 F,0,189822,190479,1 F,0,190479,190698,1,0
Sprite,Foreground,Centre,"Lyric\lyric-1.png",320,240 F,0,190479,190698,0,1 M,0,190479,195077,164,125,164,129 F,0,190698,194858,1 F,0,194858,195077,1,0
Sprite,Foreground,Centre,"Lyric\lyric-2.png",320,240 F,0,192231,192450,0,1 M,0,192231,195077,178,204,178,207 F,0,192450,194858,1 F,0,194858,195077,1,0
Sprite,Foreground,Centre,"Lyric\lyric-3.png",320,240 M,1,193107,193325,232,285,156,256 F,1,193107,193325,0,1 F,0,193325,194858,1 M,0,193325,195077,156,256,156,257 F,0,194858,195077,1,0
Sprite,Foreground,Centre,"Lyric\lyric-4.png",320,240 M,1,193544,193763,137,324,177,300 F,1,193544,193763,0,1 F,0,193763,194858,1 M,0,193763,195077,177,300,177,301 F,0,194858,195077,1,0
Sprite,Foreground,Centre,"Lyric\lyric-5.png",320,240 M,1,193982,194201,217,358,165,338 F,1,193982,194201,0,1 F,0,194201,194858,1 M,0,194201,195077,165,338,165,339 F,0,194858,195077,1,0
Sprite,Foreground,Centre,"Lyric\lyric-6.png",320,240 M,1,194858,195077,326,113,214,104 F,1,194858,195077,0,1 F,0,195077,199019,1 M,0,195077,199238,214,104,214,107 F,0,199019,199238,1,0
Sprite,Foreground,Centre,"Lyric\lyric-7.png",320,240 F,0,195734,195953,0,1 M,0,195734,199238,207,173,207,176 F,0,195953,199019,1 F,0,199019,199238,1,0
Sprite,Foreground,Centre,"Lyric\lyric-8.png",320,240 M,1,196610,196829,131,223,187,240 F,1,196610,196829,0,1 F,0,196829,199019,1 M,0,196829,199238,187,240,187,243 F,0,199019,199238,1,0
Sprite,Foreground,Centre,"Lyric\lyric-9.png",320,240 M,1,197048,197267,272,271,204,283 F,1,197048,197267,0,1 F,0,197267,199019,1 M,0,197267,199238,204,283,204,285 F,0,199019,199238,1,0
Sprite,Foreground,Centre,"Lyric\lyric-3.png",320,240 M,0,197486,197705,110,320,186,322 F,1,197486,197705,0,1 F,0,197705,199019,1 M,0,197705,199238,186,322,186,324 F,0,199019,199238,1,0
Sprite,Foreground,Centre,"Lyric\lyric-4.png",320,240 M,1,197924,198143,260,372,204,364 F,1,197924,198143,0.06,1 F,0,198143,199019,1 M,0,198143,199238,204,364,204,365 F,0,199019,199238,1,0
Sprite,Foreground,Centre,"Lyric\lyric-5.png",320,240 M,1,198362,198581,137,406,188,398 F,1,198362,198581,0,1 F,0,198581,199019,1 M,0,198581,199238,188,398,188,400 F,0,199019,199238,1,0
Sprite,Foreground,Centre,"SB\SB-BG.jpg",320,240 F,0,205369,205807,1,0 S,0,205369,205807,0.8,0.9199999
Sprite,Foreground,Centre,"Lyric\lyric-117.png",320,240 F,0,199238,199457,0,1 M,0,199238,205588,174,139,174,143 F,0,199457,205369,1 F,0,205369,205588,1,0
Sprite,Foreground,Centre,"Lyric\lyric-118.png",320,240 F,0,200114,200333,0,1 M,0,200114,205588,187,218,187,220 F,0,200333,205369,1 F,0,205369,205588,1,0
Sprite,Foreground,Centre,"Lyric\lyric-119.png",320,240 F,0,201209,201428,0,1 M,0,201209,205588,165,284,165,285 F,0,201428,205369,1 F,0,205369,205588,1,0
Sprite,Foreground,Centre,"Lyric\lyric-121.png",320,240 F,0,203179,203398,0,1 M,0,203179,205588,185,344,185,345 F,0,203398,205369,1 F,0,205369,205588,1,0
Sprite,Foreground,Centre,"SB\SB-BG.jpg",320,240 M,0,177340,,320,240 F,0,177340,177778,1,0 S,0,177340,177778,0.8,0.9119999
Sprite,Foreground,Centre,"SB\SB-BG.jpg",320,240 F,0,184347,184785,1,0 S,0,184347,184785,0.8,0.9039999
Sprite,Foreground,Centre,"SB\SB-BG.jpg",320,240 F,0,185004,185442,1,0 S,0,185004,185442,0.8,0.92
Sprite,Foreground,Centre,"SB\SB-BG.jpg",320,240 F,0,186099,186537,1,0 S,0,186099,186537,0.8000001,0.9120001
Sprite,Foreground,Centre,"SB\SB-BG.jpg",320,240 F,0,186756,187194,1,0 S,0,186756,187194,0.8,0.912
Sprite,Foreground,Centre,"SB\SB-BG.jpg",320,240 F,0,187851,188289,1,0 S,0,187851,188289,0.8000001,0.8960001
Sprite,Foreground,Centre,"SB\SB-BG.jpg",320,240 F,0,191355,191793,1,0 S,0,191355,191793,0.8000001,0.896
Sprite,Foreground,Centre,"SB\SB-BG.jpg",320,240 M,0,198362,,320,240 F,0,198362,198800,1,0 S,0,198362,198800,0.8,0.8959998
Sprite,Foreground,Centre,"SB\SB-BG.jpg",320,240 F,0,199019,199457,1,0 S,0,199019,199457,0.8,0.888
Sprite,Foreground,Centre,"SB\SB-BG.jpg",320,240 F,0,200114,200552,1,0 S,0,200114,200552,0.8,0.888
Sprite,Foreground,Centre,"SB\SB-BG.jpg",320,240 F,0,200771,201209,1,0 S,0,200771,201209,0.8,0.8959998
Sprite,Foreground,Centre,"SB\SB-BG.jpg",320,240 F,0,201866,202304,1,0 S,0,201866,202304,0.7999998,0.888
Sprite,Foreground,Centre,"Lyric\lyric-61.png",320,240 F,0,233836,234055,0,1 M,0,233836,238873,208,128,208,131 F,0,234055,238654,1 F,0,238654,238873,1,0
Sprite,Foreground,Centre,"Lyric\lyric-122.png",320,240 F,0,236026,236245,0,1 M,0,236026,238873,191,212,191,213 F,0,236245,238654,1 F,0,238654,238873,1,0
Sprite,Foreground,Centre,"Lyric\lyric-63.png",320,240 M,1,236902,237121,186,325,182,277 F,1,236902,237121,0,1 F,0,237121,238654,1 M,0,237121,238873,182,277,182,279 F,0,238654,,1 F,0,238654,238873,1,0
Sprite,Foreground,Centre,"Lyric\lyric-31.png",320,240 M,1,237340,237559,193,349,194,317 F,1,237340,237559,0,1 F,0,237559,238654,1 M,0,237559,238873,194,317,194,319 F,0,238654,238873,1,0
Sprite,Foreground,Centre,"Lyric\lyric-4.png",320,240 M,1,237778,237997,183,391,183,356 F,1,237778,237997,0,1 F,0,237997,238654,1 M,0,237997,238873,183,356,183,359 F,0,238654,238873,1,0.06
Sprite,Foreground,Centre,"SB\SB-BG.jpg",320,240 M,0,242158,,320,240 F,0,242158,242596,1,0 S,0,242158,242596,0.8,0.8880001
Sprite,Foreground,Centre,"SB\SB-BG.jpg",320,240 F,0,243909,244347,1,0 S,0,243909,244347,0.8,0.8960001
Sprite,Foreground,Centre,"SB\SB-BG.jpg",320,240 F,0,245661,246099,1,0 S,0,245661,246099,0.8000001,0.8960001
Sprite,Foreground,Centre,"SB\SB-BG.jpg",320,240 F,0,247413,247851,1,0 S,0,247413,247851,0.8,0.896
Sprite,Foreground,Centre,"Lyric\lyric-64.png",320,240 F,0,238654,238873,0,1 M,0,238654,243034,164,115,164,116 F,0,238873,242815,1 F,0,242815,243034,1,0
Sprite,Foreground,Centre,"Lyric\lyric-65.png",320,240 F,0,240187,240406,0,1 M,0,240187,243034,171,149,171,152 F,0,240406,242815,1 F,0,242815,243034,1,0
Sprite,Foreground,Centre,"Lyric\lyric-66.png",320,240 M,1,240406,240625,160,225,163,188 F,1,240406,240625,0,1 F,0,240625,242815,1 M,0,240625,243034,163,188,163,190 F,0,242815,243034,1,0
Sprite,Foreground,Centre,"Lyric\lyric-48.png",320,240 M,1,240844,241063,168,256,168,224 F,1,240844,241063,0,1 F,0,241063,242815,1 M,0,241063,243034,168,224,168,226 F,0,242815,243034,1,0
Sprite,Foreground,Centre,"Lyric\lyric-67.png",320,240 M,1,241282,241501,156,298,161,264 F,1,241282,241501,0,1 F,0,241501,242815,1 M,0,241501,243034,161,264,161,266 F,0,242815,243034,1,0
Sprite,Foreground,Centre,"Lyric\lyric-66.png",320,240 M,0,241720,241939,176,345,176,304 F,1,241720,241939,0,1 F,0,241939,242815,1 M,0,241939,243034,176,304,176,306 F,0,242815,243034,1,0
Sprite,Foreground,Centre,"Lyric\lyric-68.png",320,240 M,1,242158,242377,165,398,165,346 F,1,242158,242377,0,1 F,0,242377,242815,1 M,0,242377,243034,165,346,165,347 F,0,242815,243034,1,0
Sprite,Foreground,Centre,"Lyric\lyric-69.png",320,240 F,0,242815,243034,0,1 M,0,242815,248508,222,144,222,147 F,0,243034,248289,1 F,0,248289,248508,1,0
Sprite,Foreground,Centre,"Lyric\lyric-71.png",320,240 F,0,243909,244128,0,1 M,0,243909,248508,206,252,206,255 F,0,244128,248289,1 F,0,248289,248508,1,0
Sprite,Foreground,Centre,"Lyric\lyric-72.png",320,240 F,0,245004,245223,0,1 M,0,245004,248508,197,349,197,351 F,0,245223,248289,1 F,0,248289,248508,1,0
Sprite,Foreground,Centre,"Lyric\lyric-73.png",320,240 F,0,247413,247632,0,1 M,0,247413,248508,207,409,207,410 F,0,247632,248289,1 F,0,248289,248508,1,0
Sprite,Foreground,Centre,"Lyric\lyric-74.png",320,240 F,0,248289,248508,0,1 M,0,248289,252888,175,107,175,109 F,0,248508,252669,1 F,0,252669,252888,1,0
Sprite,Foreground,Centre,"Lyric\lyric-75.png",320,240 F,0,248946,249165,0,1 M,0,248946,252888,175,155,175,158 F,0,249165,252669,1 F,0,252669,252888,1,0
Sprite,Foreground,Centre,"Lyric\lyric-76.png",320,240 F,0,250041,250260,0,1 M,0,250041,252888,192,219,192,221 F,0,250260,252669,1 F,0,252669,252888,1,0
Sprite,Foreground,Centre,"Lyric\lyric-77.png",320,240 M,1,250698,250917,128,272,176,272 F,1,250698,250917,0,1 F,0,250917,252669,1 M,0,250917,252888,176,272,176,274 F,0,252669,252888,1,0
Sprite,Foreground,Centre,"Lyric\lyric-46.png",320,240 M,1,251355,251574,246,321,195,308 F,1,251355,251574,0,1 F,0,251574,252669,1 M,0,251574,252888,195,308,195,310 F,0,252669,252888,1,0.003999939
Sprite,Foreground,Centre,"Lyric\lyric-15.png",320,240 M,1,251793,252012,123,380,177,348 F,1,251793,252012,0,1 F,0,252012,252669,1 M,0,252012,252888,177,348,177,349 F,0,252669,252888,1,0
Sprite,Foreground,Centre,"Lyric\lyric-78.png",320,240 F,0,252669,252888,0,1 M,0,252669,257048,228,128,228,131 F,0,252888,256829,1 F,0,256829,257048,1,0
Sprite,Foreground,Centre,"Lyric\lyric-79.png",320,240 F,0,253763,253982,0,1 M,0,253763,257048,217,174,217,176 F,0,253982,256829,1 F,0,256829,257048,1,0
Sprite,Foreground,Centre,"Lyric\lyric-9.png",320,240 M,1,254420,254639,312,200,233,212 F,1,254420,254639,0,1 F,0,254639,256829,1 M,0,254639,257048,233,212,233,214 F,0,256829,257048,1,0
Sprite,Foreground,Centre,"Lyric\lyric-124.png",320,240 M,1,254858,255077,149,237,221,254 F,1,254858,255077,0,1 F,0,255077,256829,1 M,0,255077,257048,221,254,221,256 F,0,256829,257048,1,0
Sprite,Foreground,Centre,"Lyric\lyric-125.png",320,240 M,1,255734,255953,304,273,233,300 F,1,255734,255953,0,1 F,0,255953,256829,1 M,0,255953,257048,233,300,233,302 F,0,256829,257048,1,0
Sprite,Foreground,Centre,"Lyric\lyric-32.png",320,240 F,0,256172,256391,0,1 M,0,256172,257048,221,345,221,347 F,0,256391,256829,1 F,0,256829,257048,1,0
Sprite,Foreground,Centre,"SB\SB-BG.jpg",320,240 M,0,263180,,320,240 F,0,263180,263617,1,0 S,0,263180,263617,0.8,0.88
Sprite,Foreground,Centre,"Lyric\lyric-126.png",320,240 F,0,256829,257048,0,1 M,0,256829,263398,176,152,176,156 F,0,257048,263180,1 F,0,263180,263398,1,0
Sprite,Foreground,Centre,"Lyric\lyric-127.png",320,240 F,0,257924,258143,0,1 M,0,257924,263398,162,250,162,253 F,0,258143,263180,1 F,0,263180,263398,1,0
Sprite,Foreground,Centre,"Lyric\lyric-128.png",320,240 F,0,259019,259238,0,1 M,0,259019,263398,174,330,174,332 F,0,259238,263180,1 F,0,263180,263398,1,0
Sprite,Foreground,Centre,"Lyric\lyric-16.png",320,240 F,0,260990,261209,0.168,1 M,0,260990,263398,160,393,160,396 F,0,261209,263180,1 F,0,263180,263398,1,0.168
Sprite,Foreground,Centre,"SB\SB-BG.jpg",320,240 M,0,249165,,320,240 F,0,249165,249603,1,0 S,0,249165,249603,0.8,0.896
Sprite,Foreground,Centre,"SB\SB-BG.jpg",320,240 F,0,256172,256610,1,0 S,0,256172,256610,0.8000001,0.8800001
Sprite,Foreground,Centre,"SB\SB-BG.jpg",320,240 F,0,256829,257267,1,0 S,0,256829,257267,0.8,0.888
Sprite,Foreground,Centre,"SB\SB-BG.jpg",320,240 F,0,257924,258362,1,0 S,0,257924,258362,0.8,0.896
Sprite,Foreground,Centre,"SB\SB-BG.jpg",320,240 F,0,258581,259019,1,0 S,0,258581,259019,0.8000001,0.8879998
Sprite,Foreground,Centre,"SB\SB-BG.jpg",320,240 F,0,259676,260114,1,0 S,0,259676,260114,0.8000001,0.8880001
Sprite,Foreground,Centre,"SB\OP effect.png",320,240 M,0,14262,,224,235 F,0,14262,14562,0,1 S,0,14262,14862,0.1599997,1.136 F,0,14562,14862,1,0
Sprite,Foreground,Centre,"SB\OP effect.png",320,240 M,0,45515,,196,184 F,0,45515,45734,0,0.5 S,0,45515,45953,0.2239998,1 F,0,45734,45953,0.5,0
Sprite,Foreground,Centre,"SB\OP effect.png",320,240 F,0,59749,59968,0.6118721,1 S,0,59749,60187,0.224,0.816 M,0,59968,,180,165 F,0,59968,60187,1,0
Sprite,Foreground,Centre,"SB\OP effect.png",320,240 M,0,81428,,228,242 F,0,81428,81647,0,1 S,0,81428,81866,0.2960001,1 F,0,81647,81866,1,0
Sprite,Foreground,Centre,"SB\OP effect.png",320,240 M,0,102012,,201,257 F,0,102012,102231,0,1 S,0,102012,102450,0.2480002,1 F,0,102231,102450,1,0
Sprite,Foreground,Centre,"SB\OP effect.png",320,240 M,0,116026,,152,213 F,0,116026,116245,0,1 S,0,116026,116464,0.2639999,1 F,0,116245,116464,1,0
Sprite,Foreground,Centre,"SB\OP effect.png",320,240 M,0,138362,,205,208 F,0,138362,138581,0,1 S,0,138362,138800,0.2640001,0.9359999 F,0,138581,138800,1,0
Sprite,Foreground,Centre,"SB\OP effect.png",320,240 M,0,145807,,173,329 F,0,145807,146026,0,1 S,0,145807,146245,0.2879999,1.04 F,0,146026,146245,1,0
Sprite,Foreground,Centre,"SB\OP effect.png",320,240 M,0,186099,,199,209 F,0,186099,186318,0,1 S,0,186099,186537,0.248,1 F,0,186318,186537,1,0
Sprite,Foreground,Centre,"SB\OP effect.png",320,240 M,0,200114,,192,213 F,0,200114,200333,0,1 S,0,200114,200552,0.2479999,1 F,0,200333,200552,1,0
Sprite,Foreground,Centre,"SB\SB-BG.jpg",320,240 M,0,212377,,320,240 F,0,212377,212815,1,0 S,0,212377,212815,0.7999998,0.8959999
Sprite,Foreground,Centre,"SB\SB-BG.jpg",320,240 M,0,215880,,320,240 F,0,215880,216318,1,0 S,0,215880,216318,0.8,0.896
Sprite,Foreground,Centre,"SB\SB-BG.jpg",320,240 F,0,216756,217194,1,0 S,0,216756,217194,0.8,0.9199998
Sprite,Foreground,Centre,"SB\SB-BG2.jpg",320,240 S,0,219384,,0.904 F,0,219384,219603,0,1 M,0,219384,223107,319,348,319,381 F,0,219603,222888,1 F,0,222888,223107,1,0
Sprite,Foreground,Centre,"Lyric\Title-1.png",320,240 F,0,219384,219603,0,1 M,0,219384,223107,184,412,235,371 F,0,219603,222888,1 F,0,222888,223107,1,0
Sprite,Foreground,Centre,"SB\SB-BG3.jpg",320,240 S,0,222888,,0.904 F,0,222888,223107,0,1 M,0,222888,226610,342,224,314,244 F,0,223107,226391,1,0.9657541 F,0,226391,226610,0.9657541,0
Sprite,Foreground,Centre,"Lyric\Title-2.png",320,240 F,0,222888,223107,0,1 M,0,222888,226610,178,301,235,364 F,0,223107,226391,1,0.9785963 F,0,226391,226610,0.9785963,0
Sprite,Foreground,Centre,"SB\SB-BG4.jpg",320,240 S,0,226391,,0.84 F,0,226391,226610,0,1 M,0,226391,230114,304,248,332,236 F,0,226610,229895,1,0.9634703 F,0,229895,230114,0.9634703,0
Sprite,Foreground,Centre,"Lyric\Title-3.png",320,240 F,0,226391,226610,0,1 M,0,226391,230114,327,338,342,291 F,0,226610,229895,1 F,0,229895,230114,1,0
Sprite,Foreground,Centre,"SB\SB-BG5.jpg",320,240 S,0,229895,,0.8640001 F,0,229895,230114,0,1 M,0,229895,231866,320,240,312,243 F,0,230114,231647,1 F,0,231647,231866,1,0
Sprite,Foreground,Centre,"Lyric\Title-4.png",320,240 F,0,229895,230114,0,1 M,0,229895,231866,230,413,244,426 F,0,230114,231647,1 F,0,231647,231866,1,0 M,0,231866,,244,426
Sprite,Foreground,Centre,"SB\OP effect.png",320,240 M,0,243909,,205,252 F,0,243909,244128,0,1 S,0,243909,244347,0.288,1 F,0,244128,244347,1,0
Sprite,Foreground,Centre,"SB\OP effect.png",320,240 M,0,257924,,167,246 F,0,257924,258362,1,0 S,0,257924,258362,0.2399998,1.016
Sprite,Foreground,Centre,"SB\SB-BG.jpg",320,240 M,0,270187,,320,240 F,0,270187,270625,1,0 S,0,270187,270625,0.8,0.8959998
Sprite,Foreground,Centre,"SB\SB-BG.jpg",320,240 F,0,270844,271282,1,0 S,0,270844,271282,0.8,0.92
Sprite,Foreground,Centre,"SB\SB-BG.jpg",320,240 F,0,271939,272377,1,0 S,0,271939,272377,0.8,0.8880001
Sprite,Foreground,Centre,"SB\SB-BG.jpg",320,240 F,0,272596,273034,1,0 S,0,272596,273034,0.7999998,0.9119998
Sprite,Foreground,Centre,"SB\SB-BG.jpg",320,240 F,0,273690,274128,1,0 S,0,273690,274128,0.8,0.8960001
Sprite,Foreground,Centre,"SB\SB-BG.jpg",320,240 F,0,277194,277632,1,0 S,0,277194,277632,0.8,0.888
Sprite,Foreground,Centre,"SB\SB-BG.jpg",320,240 F,0,284201,284639,1,0 S,0,284201,284639,0.8000001,0.9119999
Sprite,Foreground,Centre,"SB\SB-BG.jpg",320,240 F,0,284858,285296,1,0 S,0,284858,285296,0.8,0.9039999
Sprite,Foreground,Centre,"SB\SB-BG.jpg",320,240 F,0,285953,286391,1,0 S,0,285953,286391,0.8,0.912
Sprite,Foreground,Centre,"SB\SB-BG.jpg",320,240 F,0,286610,287048,1,0 S,0,286610,287048,0.8000001,0.9040002
Sprite,Foreground,Centre,"SB\SB-BG.jpg",320,240 F,0,287705,288143,1,0 S,0,287705,288143,0.8,0.904
Sprite,Foreground,Centre,"SB\SB-BG.jpg",320,240 F,0,289457,289895,1,0 S,0,289457,289895,0.7999998,0.9119998
//Storyboard Sound Samples
//Background Colour Transformations
3,100,163,162,255

[TimingPoints]
1010,600,4,2,2,10,1,0
2262,600,4,2,2,40,1,0
21462,-100,4,2,2,57,0,0
22062,-100,4,2,2,65,0,0
23180,437.956204379562,4,2,1,65,1,0
91501,-100,4,2,1,50,0,0
93252,-100,4,2,1,70,0,1
107158,-100,4,2,1,70,0,0
107267,-100,4,2,1,70,0,1
121282,-100,4,2,1,70,0,0
133544,-100,4,2,1,65,0,0
175588,-100,4,2,1,50,0,0
177340,-100,4,2,1,70,0,1
191245,-100,4,2,1,70,0,0
191355,-100,4,2,1,70,0,1
205369,-100,4,2,1,70,0,0
205807,-100,4,2,1,65,0,0
231647,-100,4,2,1,40,0,0
233398,-100,4,2,1,5,0,0
242158,-100,4,2,1,60,0,0
245661,-100,4,2,2,60,0,0
247413,-100,4,2,1,50,0,0
249165,-100,4,2,1,70,0,1
261428,-100,4,2,1,50,0,1
263180,-100,4,2,1,65,0,0
292085,-100,4,2,1,45,0,0

[Colours]
Combo1 : 151,151,255
Combo2 : 171,252,203

[HitObjects]
224,88,1010,6,0,B|176:68|128:96,1,93.3333333333333
240,240,1910,1,0
240,240,2262,6,0,B|312:248|376:212,2,140,2|0|2
152,180,3762,2,0,B|136:184|124:200,2,35
228,104,4362,1,0
324,64,4662,6,0,B|392:40|464:52,2,140,2|0|2
400,136,6162,2,0,B|432:156,2,35
340,224,6762,1,0
240,188,7062,6,0,B|240:260|288:316,2,140,2|0|2
276,88,8562,2,0,B|304:60,2,35
172,112,9162,1,0
172,112,9462,6,0,B|100:100|36:132,1,140,2|0
340,272,10662,2,0,B|412:284|476:252,2,140,2|0|2
256,336,12162,6,0,B|256:376,2,35
170,272,12762,2,0,B|98:260|34:292,2,140,2|2|0
260,220,14262,6,0,B|280:152|264:80,1,140,2|0
160,96,15162,2,0,B|92:108|24:76,1,140,2|0
336,64,16362,1,0
336,64,16662,6,0,B|400:92|436:160,1,140,2|0
456,260,17562,2,0,B|468:276|488:280,2,35,0|0|2
356,228,18162,2,0,B|339:231|327:247,2,35,0|0|2
392,328,18762,1,0
256,192,19062,12,4,23180
232,88,35442,6,0,B|164:108,1,70,6|2
116,260,35880,2,0,B|184:240,1,70,8|2
320,160,36318,2,0,B|252:180,1,70,2|2
204,332,36756,2,0,B|272:312,1,70,10|0
324,324,37085,5,10
324,324,37194,2,0,B|380:280|408:212,1,140,4|8
420,132,37851,1,0
348,88,38070,2,0,B|280:60|208:72,1,140,2|8
156,136,38727,5,0
156,136,38836,1,0
156,136,38946,2,0,B|140:168|112:188,1,70,2|0
36,224,39384,2,0,B|60:256|92:268,1,70,8|0
172,276,39822,2,0,B|160:312|136:336,1,70,2|0
216,200,40260,2,0,B|248:180|284:176,1,70,8|0
348,228,40698,6,0,B|328:296|268:340,2,140,0|8|0
388,152,41793,1,0
388,152,41902,1,0
388,152,42012,2,0,B|408:116|440:100,1,70,8|0
372,48,42450,6,0,B|312:80|236:60,1,140,2|8
152,44,43107,1,0
144,128,43325,2,0,B|120:192|64:240,1,140,2|8
32,164,43982,1,0
228,132,44201,6,0,B|296:104|368:112,1,140,2|8
280,264,44858,2,0,B|212:292|140:284,1,140,0|0
142,284,45515,1,8
370,284,45953,5,2
142,100,46391,1,8
370,100,46829,1,2
142,284,47267,1,8
142,284,47705,6,0,B|72:272,1,70,2|0
108,196,48143,2,0,B|178:208,1,70,8|0
212,132,48581,2,0,B|142:120,1,70,2|0
178,44,49019,2,0,B|248:56,1,70,8|0
324,128,49457,5,0
428,148,49676,1,2
444,44,49895,1,8
340,24,50114,1,2
312,160,50333,5,0
436,96,50552,1,10
296,76,50771,1,8
400,172,50990,1,2
400,172,51099,1,0
400,172,51209,6,0,B|420:204|448:220,1,70,4|0
408,296,51647,1,8
332,328,51866,1,0
252,308,52085,2,0,B|184:284|112:300,1,140,2|8
114,84,52961,6,0,B|184:100|252:76,1,140,2|8
332,52,53617,1,0
408,88,53836,1,0
428,168,54055,2,0,B|404:192|368:200,1,70,0|8
216,192,54493,6,0,B|180:176|144:180,1,70,0|2
216,328,54931,2,0,B|252:344|288:340,1,70,0|8
124,264,55369,1,0
124,264,55807,2,0,B|60:292,1,70,0|8
228,220,56245,1,0
216,328,56464,5,2
460,192,56902,1,8
220,48,57340,1,2
220,48,57778,5,8
92,108,57997,1,0
228,136,58216,1,2
136,32,58435,1,0
152,172,58654,2,0,B|152:208|136:240,1,70,8|0
208,324,59092,2,0,B|276:304|348:320,1,140,2|8
432,248,59749,6,0,B|456:180|452:108,1,140
348,52,60406,2,0,B|312:40|276:48,1,70,8|0
184,120,60844,2,0,B|220:132|256:124,1,70,2|0
332,216,61282,2,0,B|324:252|300:280,1,70,8|0
184,252,61720,2,0,B|196:324|256:368,2,140,2|8|2
80,192,62815,5,2
80,192,63034,1,8
148,72,63252,1,0
148,72,63362,1,0
148,72,63471,1,0
256,160,63690,1,2
256,160,63909,5,8
364,72,64128,1,0
364,72,64238,1,0
364,72,64347,1,0
432,192,64566,1,10
432,192,64785,1,8
432,192,65004,1,2
432,192,65223,6,0,B|432:264|404:332,1,140,4|8
324,308,65880,2,0,B|256:284|184:292,1,140
100,288,66537,2,0,B|104:324|128:352,1,70,8|0
148,216,66975,6,0,B|88:180|12:184,1,140,0|8
52,108,67632,2,0,B|104:64|176:44,1,140,0|8
248,88,68289,2,0,B|284:100|320:88,1,70,8|0
400,72,68727,6,0,B|464:100|512:168,1,140,0|8
432,200,69384,2,0,B|368:224|324:292,1,140
400,332,70041,2,0,B|440:320|456:288,1,70,8|0
276,224,70479,6,0,B|212:200|136:216,1,140,0|8
64,260,71136,1,0
136,300,71355,1,0
220,284,71574,1,8
276,224,71793,1,8
296,144,72012,5,0
296,144,72121,1,0
296,144,72231,2,0,B|348:96|416:72,1,140,0|8
480,128,72888,2,0,B|428:176|360:200,1,140
348,284,73544,2,0,B|416:312,1,70,8|0
264,256,73982,6,0,B|200:224|124:228,1,140,0|8
112,312,74639,2,0,B|176:344|252:340,1,140
328,312,75296,1,8
248,116,75734,6,0,B|188:76|116:68,1,140,0|8
88,148,76391,2,0,B|148:188|220:196,1,140
300,184,77048,2,0,B|328:156|364:152,1,70,8|0
268,260,77486,6,0,B|220:312|152:340,1,140,0|8
72,328,78143,1,0
352,328,78581,1,0
428,288,78800,1,8
428,288,78909,1,0
428,288,79019,1,2
472,216,79238,6,0,B|488:144|468:76,1,140,4|8
384,92,79895,2,0,B|320:116|244:104,1,140
172,68,80552,1,8
108,124,80771,1,0
120,208,80990,5,0
196,244,81209,2,0,B|172:276|144:288,2,70,0|8|0
256,184,81866,1,0
316,128,82085,1,0
392,96,82304,1,8
476,104,82523,1,0
432,176,82742,6,0,B|412:244|428:316,1,140,0|8
348,340,83398,2,0,B|276:320|208:332,1,140
124,344,84055,1,8
72,276,84274,1,0
80,192,84493,6,0,B|40:192|12:216,1,70
72,276,84931,2,0,B|144:268|200:224,1,140,8|0
268,172,85588,1,0
280,88,85807,1,8
212,40,86026,1,0
128,52,86245,6,0,B|60:80|20:140,1,140,4|8
160,160,86902,1,0
280,88,87121,2,0,B|344:64|420:72,1,140,4|8
440,212,87778,5,0
440,212,87888,1,0
440,212,87997,2,0,B|424:248|396:268,1,70,2|0
256,264,88435,2,0,B|256:188,1,70,8|0
72,212,88873,2,0,B|88:248|116:268,1,70,2|0
180,128,89311,1,8
332,128,89530,1,0
332,128,89639,1,0
332,128,89749,6,0,B|400:128,2,70,4|0|8
180,128,90406,2,0,B|108:128,2,70,0|4|0
256,220,91063,1,8
256,220,91282,1,0
256,192,91501,12,4,93252
192,80,93690,5,8
192,80,94128,2,0,B|120:68,1,70,8|0
84,80,94457,1,0
84,120,94566,2,0,B|116:184,1,70,8|0
204,272,95004,6,0,B|160:328|92:352,2,140,8|8|8
260,192,96099,1,0
260,192,96209,1,0
260,192,96318,2,0,B|288:216|324:228,1,70,8|0
436,200,96756,6,0,B|464:132|468:64,1,140,8|8
168,64,97632,2,0,B|152:100|156:136,1,70,8|0
172,228,98070,2,0,B|164:264|144:292,1,70,8|0
76,220,98508,5,8
380,108,98946,2,0,B|344:84|312:80,1,70,8|0
316,303,99384,2,0,B|344:300|380:276,1,70,8|0
284,192,99822,1,8
284,192,100260,6,0,B|140:192,1,140,4|8
180,88,100917,2,0,B|324:88,1,140,4|0
420,92,101574,2,0,B|412:52|388:24,1,70,8|0
284,192,102012,6,0,B|292:232|316:260,1,70,4|0
380,184,102450,1,8
212,124,102669,2,4,B|140:120|76:152,1,140,4|0
60,284,103325,2,0,B|76:320|100:344,1,70,8|0
196,340,103763,6,0,B|268:344|332:312,1,140,4|8
196,72,104639,2,0,B|124:68|60:100,1,140,2|8
316,152,105515,6,0,B|388:156|452:124,1,140,2|8
196,192,106391,1,8
152,280,106610,1,0
152,280,106720,1,0
152,280,106829,1,8
240,320,107048,1,0
284,232,107267,6,0,B|232:184|160:164,2,140,4|8|8
352,300,108362,2,0,B|388:316|420:320,1,70,0|8
476,240,108800,1,0
436,152,109019,6,0,B|400:136|368:136,1,70,8|0
216,160,109457,2,0,B|252:176|284:176,1,70,8|0
208,52,109895,2,0,B|144:80|104:144,1,140,8|8
304,332,110771,6,0,B|368:304|408:240,1,140,8|8
400,144,111428,1,0
400,144,111537,1,0
400,144,111647,2,0,B|368:120|336:120,1,70,8|0
236,112,112085,2,0,B|200:120|168:112,1,70,8|0
76,192,112523,5,8
256,348,112961,1,8
436,192,113398,1,8
256,36,113836,1,8
76,192,114274,6,0,B|116:248|192:268,1,140,4|8
172,148,114931,2,0,B|132:92|56:72,1,140,4|0
57,72,115588,1,8
340,148,116026,6,0,B|380:92|456:72,1,140,4|8
436,192,116683,2,0,B|396:248|320:268,1,140,4|0
224,272,117340,2,0,B|188:276|160:296,1,70,8|0
80,236,117778,6,0,B|68:164|84:96,1,140,4|8
428,96,118654,2,0,B|444:164|432:236,1,140,2|8
256,192,119530,12,4,121282
300,72,133544,5,4
212,72,133763,1,2
368,224,133982,2,0,B|396:156,1,70,0|2
212,312,134420,1,0
300,312,134639,1,2
117,159,134858,2,0,B|144:224,1,70,0|2
256,192,135296,6,0,B|256:48,2,140,4|8|2
308,260,136391,1,0
380,300,136610,2,0,B|416:292|452:272,1,70,8|0
468,196,137048,6,0,B|440:128|376:92,1,140,2|8
296,68,137705,1,0
216,88,137924,2,0,B|184:100|148:100,1,70,2|0
64,96,138362,2,0,B|32:72|24:40,1,70,8|0
104,164,138800,6,0,B|132:232|112:304,1,140,2|8
320,336,139676,2,0,B|360:328|384:312,1,70,2|0
444,252,140114,1,8
448,168,140333,1,0
384,116,140552,6,0,B|320:88|248:92,1,140,2|8
164,96,141209,1,0
164,96,141318,1,0
164,96,141428,2,0,B|132:116|116:144,1,70,2|0
88,224,141866,2,0,B|64:256|36:272,1,70,8|0
168,208,142304,6,0,B|240:184|308:188,1,140,2|8
394,303,142961,2,0,B|322:327|254:323,1,140
256,323,143617,1,8
200,120,144055,6,0,B|172:48,1,70,2|0
312,120,144493,2,0,B|340:48,1,70,8|0
176,208,144931,2,0,B|144:192|120:164,1,70,2|0
336,208,145369,2,0,B|368:192|392:164,1,70,8|0
256,192,145807,6,0,B|256:336,2,140,2|8|2
216,116,146902,2,0,B|188:96|152:92,1,70,0|8
296,116,147340,5,0
296,116,147450,1,0
296,116,147559,2,0,B|324:96|360:92,1,70,2|0
420,212,147997,2,0,B|412:248|392:276,1,70,8|0
256,312,148435,2,0,B|256:236,1,70,2|0
92,212,148873,2,0,B|100:248|120:276,1,70,8|0
160,276,149201,1,2
188,252,149311,6,0,B|176:180|132:124,1,140,4|8
100,48,149968,2,0,B|172:64|240:48,1,140
324,40,150625,2,0,B|364:32|400:40,1,70,8|0
376,164,151063,6,0,B|320:208|248:220,1,140,0|8
164,216,151720,2,0,B|128:228|108:256|108:300|136:328,1,140,0|8
220,344,152377,1,8
304,328,152596,1,0
376,284,152815,6,0,B|440:248|512:244,1,140,0|8
492,164,153471,2,0,B|440:116|368:104,1,140
300,156,154128,2,0,B|324:180|360:188,1,70,8|0
248,92,154566,6,0,B|180:64|108:80,1,140,0|8
56,144,155223,2,0,B|51:216|79:280,1,140,0|8
148,332,155880,1,8
212,280,156099,5,0
212,280,156209,1,0
212,280,156318,2,0,B|240:216|236:144,1,140,0|8
268,64,156975,2,0,B|336:40|408:48,1,140
468,104,157632,1,8
268,320,158070,6,0,B|336:344|408:336,1,140,0|8
412,252,158727,2,0,B|344:228|272:236,1,140
196,264,159384,1,8
112,272,159603,5,0
112,272,159712,1,0
112,272,159822,2,0,B|124:308|148:332,1,70
196,264,160260,2,0,B|196:192,1,70,8|0
168,116,160698,1,0
120,48,160917,1,0
88,124,161136,1,8
168,116,161355,1,0
244,80,161574,6,0,B|308:48|384:48,1,140,0|8
404,128,162231,2,0,B|340:160|264:160,1,140
240,240,162888,2,0,B|208:264,2,35,8|0|0
308,292,163325,6,0,B|376:320|448:308,2,140,4|8|0
200,112,164639,1,8
200,112,164858,6,0,B|132:84|60:100,1,140
104,172,165515,1,8
408,172,165953,1,0
449,99,166172,2,0,B|380:84|312:112,1,140
256,176,166829,6,0,B|256:320,1,140,0|8
336,344,167486,2,0,B|360:276|356:204,1,140
155,206,168143,1,8
155,206,168362,2,0,B|152:276|176:344,1,140
256,312,169019,5,8
256,72,169457,1,0
172,88,169676,2,0,B|184:120|216:144,1,70,0|8
297,142,170114,1,0
297,142,170223,1,0
297,142,170333,2,0,B|328:120|340:88,2,70,4|0|8
256,244,170990,1,0
187,334,171209,2,0,B|255:358|323:332,1,140,4|8
256,244,171866,5,0
256,244,171975,1,0
256,244,172085,1,2
168,168,172304,2,0,B|144:196|136:228,1,70,0|8
376,229,172742,2,0,B|368:196|344:168,1,70,2|0
256,44,173179,2,0,B|256:120,1,70,2|8
336,88,173617,5,0
336,88,173727,1,0
336,88,173836,2,0,B|376:24,1,70,4|0
176,88,174274,2,0,B|136:24,1,70,8|0
152,192,174712,2,0,B|168:224|192:248,1,70,4|0
360,192,175150,2,0,B|344:224|320:248,1,70,8|0
256,192,175588,12,4,177340
396,104,177778,6,0,B|328:76|256:84,1,140,8|8
120,280,178654,1,8
120,280,178873,1,0
176,184,179092,6,0,B|144:168|104:168,1,70,8|0
216,328,179530,2,0,B|248:344|288:344,1,70,8|0
120,280,179968,2,0,B|52:256|-20:276,1,140,8|8
336,248,180844,6,0,B|408:224|448:168,1,140,8|8
216,112,181720,1,8
124,80,181939,1,0
52,148,182158,2,0,B|40:184|44:216,1,70,8|0
192,272,182596,6,0,B|204:236|200:204,1,70,8|0
108,280,183034,2,0,B|96:316|100:348,1,70,8|0
272,320,183471,2,0,B|284:284|280:252,1,70,8|0
216,112,183909,1,8
136,56,184128,5,2
136,56,184238,1,0
136,56,184347,2,0,B|120:124|160:192,1,140,4|8
276,212,185004,2,0,B|348:220|416:200,1,140,4|0
460,112,185661,2,0,B|452:76|428:48,1,70,8|0
332,40,186099,5,4
332,40,186537,1,8
332,40,186756,2,0,B|280:88|212:108,1,140,4|0
116,128,187413,1,8
108,224,187632,1,0
168,304,187851,6,0,B|232:336|304:332,1,140,4|8
368,104,188727,2,0,B|400:168|396:240,1,140,2|8
240,40,189603,6,0,B|168:36|104:68,1,140,2|8
172,296,190479,1,8
248,356,190698,1,0
248,356,190807,1,0
248,356,190917,1,8
308,280,191136,1,0
232,216,191355,6,0,B|160:200|96:232,2,140,4|8|8
324,184,192450,1,0
415,156,192669,2,0,B|408:128|376:100,1,70,8|0
208,68,193107,5,8
208,68,193544,2,0,B|276:52,1,70,8|0
124,112,193982,2,0,B|56:128,1,70,8|0
48,228,194420,1,8
108,308,194639,5,0
108,308,194749,1,0
108,308,194858,2,0,B|180:320|248:308,1,140,8|8
452,188,195734,2,0,B|416:180|380:184,1,70,8|0
316,256,196172,1,8
384,328,196391,2,0,B|417:331|453:323,1,70,0|8
256,192,197048,5,8
256,192,197486,2,0,B|192:224,1,70,8|0
56,228,197924,2,0,B|120:196,1,70,8|2
184,76,198362,6,0,B|56:140,1,140,4|0
72,40,199019,1,4
440,40,199457,1,0
328,76,199676,2,0,B|453:138,1,140,8|4
255,347,200552,5,8
192,272,200771,2,0,B|224:250|257:240|292:250|322:277,1,140,4|0
408,232,201428,1,8
408,232,201647,1,0
408,232,201866,6,0,B|440:168|436:96,1,140,4|8
76,96,202742,2,0,B|72:168|104:232,1,140,2|8
256,192,203617,12,4,205369
256,192,205807,5,8
464,76,206245,2,0,B|488:48|496:16,2,70,0|0|8
412,144,206902,2,0,B|424:178|447:201,2,70
376,68,207559,2,0,B|339:61|308:70,2,70,8|0|0
376,68,208216,1,2
376,68,208435,1,8
256,192,208873,5,4
256,192,209311,1,8
48,308,209749,2,0,B|24:336|16:368,2,70,0|0|8
100,240,210406,2,0,B|88:206|65:183,2,70
136,316,211063,2,0,B|173:323|204:314,2,70,8|0|0
136,316,211720,1,2
136,316,211939,1,8
184,232,212158,5,0
184,232,212267,1,0
184,232,212377,2,0,B|200:196|200:160,1,70,4|0
164,72,212815,2,0,B|128:60|92:68,2,70,8|0|0
256,100,213471,2,0,B|296:108|324:104,1,70,0|8
420,76,213909,1,0
452,168,214128,5,0
380,236,214347,1,0
340,324,214566,1,8
428,364,214785,1,0
472,276,215004,1,0
380,236,215223,1,2
288,208,215442,2,0,B|248:208|216:224,1,70,8|0
108,240,215880,6,0,B|120:276|144:300,1,70,4|0
124,148,216318,2,0,B|84:148|56:164,1,70,8|0
232,128,216756,1,4
332,76,216975,1,0
436,124,217194,2,0,B|448:80|440:48,1,70,8|0
332,76,217632,5,0
348,188,217851,1,0
368,300,218070,1,8
452,228,218289,1,0
348,188,218508,2,0,B|312:180|280:188,1,70,0|2
188,252,218946,1,8
80,280,219165,5,0
80,280,219274,1,0
80,280,219384,2,0,B|92:316|120:340,1,70,4|0
188,252,219822,1,8
136,152,220041,2,0,B|100:92|28:48,1,140,4|0
37,54,220698,1,8
37,54,220917,1,4
312,100,221355,5,0
312,100,221464,1,0
312,100,221574,2,0,B|352:100|380:88,1,70,8|0
492,108,222012,1,0
496,220,222231,1,4
412,296,222450,2,0,B|348:332|272:328,1,140,8|4
164,316,223107,5,0
164,316,223325,1,8
164,316,223544,2,0,B|108:272|88:200,1,140,4|0
136,100,224201,2,0,B|100:84|64:92,1,70,8|4
332,184,224858,5,0
436,140,225077,1,8
348,72,225296,1,0
244,116,225515,2,0,B|224:148|220:180,1,70
156,272,225953,2,0,B|104:320|32:340,1,140,8|4
356,272,226829,5,8
356,272,227048,2,0,B|408:320|480:340,1,140
477,339,227705,1,8
477,339,227924,1,0
252,172,228362,6,0,B|216:156,2,35,0|0|8
256,284,228800,2,0,B|220:304|184:304,1,70
92,248,229238,1,4
116,140,229457,2,0,B|168:88|232:60,1,140,8|4
344,76,230114,6,0,B|372:72,3,23.3333333333333,2|0|0|2
280,168,230552,2,0,B|252:164,3,23.3333333333333,2|0|0|2
392,192,230990,1,0
316,272,231209,1,8
204,292,231428,2,0,B|232:320,1,35,0|4
256,192,231647,12,0,233398
156,88,242158,5,4
356,88,243909,5,4
256,280,245661,5,4
192,224,245880,2,0,B|168:256|172:288,1,70,2|0
339,289,246318,2,0,B|344:256|320:224,1,70,2|0
220,132,246756,2,0,B|256:144|290:132,1,70,2|2
256,48,247194,1,0
256,192,247413,12,4,249165
256,68,249603,5,8
256,68,250041,2,0,B|188:72,1,70,8|0
132,152,250479,2,0,B|200:148,1,70,8|0
156,236,250917,6,0,B|68:344,1,140,8|8
356,236,251793,2,0,B|444:344,1,140,8|8
324,100,252669,6,0,B|256:76|184:100,1,140,8|8
256,328,253544,1,8
307,244,253763,1,0
205,244,253982,1,8
256,328,254201,1,0
368,312,254420,6,0,B|392:280|396:244,1,70,8|0
116,248,254858,2,0,B|120:280|144:312,1,70,8|0
308,244,255296,2,0,B|332:212|336:176,1,70,8|0
176,180,255734,2,0,B|180:212|204:244,1,70,8|2
256,124,256172,6,0,B|200:84|124:80,1,140,4|8
256,124,256829,2,0,B|312:84|388:80,1,140,4|0
444,160,257486,2,0,B|432:200|412:220,1,70,8|0
316,292,257924,5,4
316,292,258362,1,8
196,292,258581,1,4
196,292,259019,1,0
144,212,259238,1,8
200,132,259457,1,0
104,124,259676,6,0,B|52:172|44:248,1,140,4|8
408,124,260552,2,0,B|460:172|468:248,1,140,8|8
256,192,261428,12,4,263179
440,240,263617,6,0,B|388:284|312:296,1,140,8|2
228,292,264274,1,0
156,252,264493,2,0,B|136:288|148:320,1,70,8|0
228,292,264931,5,2
228,208,265150,1,0
156,168,265369,1,8
156,168,265807,1,2
344,72,266245,1,8
344,72,266683,6,0,B|276:52|204:60,2,140,2|8|2
392,140,267778,1,0
308,152,267997,2,0,B|296:188|304:220,1,70,8|0
384,244,268435,6,0,B|352:308|280:332,1,140,2|8
160,128,269311,2,0,B|96:92,1,70,2|0
128,208,269749,2,0,B|55:196,1,70,8|2
124,296,270187,6,0,B|51:309,2,70,4|0|8
240,272,270844,2,0,B|304:244|352:188,1,140,4|0
396,80,271501,1,8
396,80,271939,6,0,B|328:52|256:56,1,140,4|8
168,136,272596,2,0,B|236:164|308:160,1,140,4|0
376,204,273252,1,8
384,288,273471,1,0
308,328,273690,6,0,B|240:344|168:344,3,140,4|8|2|8
196,64,275442,6,0,B|124:64|56:80,3,140,2|8|2|8
64,164,276975,5,0
64,164,277085,1,2
64,164,277194,2,0,B|136:164|204:148,1,140,4|8
276,108,277851,1,0
360,96,278070,1,2
444,108,278289,2,0,B|440:68|424:40,1,70,0|8
360,96,278727,6,0,B|360:168,1,70,0|2
380,248,279165,1,0
416,324,279384,2,0,B|448:300|468:268,1,70,8|0
380,248,279822,1,2
300,272,280041,1,0
220,248,280260,1,8
140,272,280479,1,0
56,272,280698,6,0,B|60:312|84:336,1,70,2|0
140,272,281136,1,8
152,188,281355,1,0
88,132,281574,2,0,B|48:128|16:144,2,70,2|0|8
168,104,282231,2,0,B|200:84|232:76,1,70,0|2
312,100,282669,5,0
312,100,282778,1,0
312,100,282888,2,0,B|344:116|380:120,1,70,8|0
440,176,283325,2,0,B|428:212|404:240,1,70,2|0
364,312,283763,2,0,B|392:340|420:352,1,70,8|2
292,264,284201,6,0,B|224:244|152:252,1,140,4|8
52,152,284858,2,0,B|120:172|192:164,1,140,4|0
240,96,285515,2,0,B|204:80|168:88,1,70,8|0
280,176,285953,6,0,B|348:196|420:188,1,140,4|8
460,76,286610,2,0,B|392:56|320:64,1,140,4|0
240,96,287267,1,8
176,152,287486,1,0
148,232,287705,6,0,B|144:304|184:368,1,140,4|8
404,280,288581,2,0,B|436:260,3,35
468,236,289019,2,0,B|488:196,4,35,0|0|0|0|4
256,192,289566,12,0,292961
