osu file format v8

[General]
AudioFilename: Orange Diz.mp3
AudioLeadIn: 0
PreviewTime: 7608
Countdown: 0
SampleSet: Soft
StackLeniency: 0.7
Mode: 0
LetterboxInBreaks: 1

[Editor]
Bookmarks: 7608
DistanceSpacing: 1
BeatDivisor: 4
GridSize: 8

[Metadata]
Title:Orange Diz
Artist:Yellow Zebra
Creator:Frill
Version:Insane
Source:Touhou
Tags:Yuki Fujimiya Toono Gensou Monogatari Chen S i R i R u gowww

[Difficulty]
HPDrainRate:7
CircleSize:5
OverallDifficulty:8
ApproachRate:8
SliderMultiplier:1.8
SliderTickRate:1

[Events]
//Background and Video events
0,0,"bg.jpg"
//Break Periods
2,87603,92572
2,148012,159511
//Storyboard Layer 0 (Background)
//Storyboard Layer 1 (Fail)
//Storyboard Layer 2 (Pass)
//Storyboard Layer 3 (Foreground)
//Storyboard Sound Samples
//Background Colour Transformations
3,100,64,0,64

[TimingPoints]
7608,408.163265306122,4,2,0,70,1,0
7608,-100,4,2,0,70,0,1
7906,-100,4,2,1,70,0,1
14138,-100,4,2,1,70,0,0
20363,-100,4,2,0,70,0,0
20669,-100,4,2,1,70,0,0
58110,-100,4,2,0,70,0,0
58518,-100,4,2,1,70,0,0
59130,-100,4,2,1,0,0,0
60355,-100,4,2,1,70,0,0
61477,-100,4,2,0,70,0,1
61613,-100,4,2,1,70,0,1
68220,-100,4,2,1,70,0,0
74538,-100,4,2,0,70,0,1
74878,-100,4,2,1,70,0,1
81077,-100,4,2,1,70,0,0
118518,-200,4,2,1,70,0,0
119640,-100,4,2,1,0,0,0
120967,-100,4,2,1,54,0,0
121885,-100,4,2,0,69,0,1
122021,-100,4,2,1,69,0,1
128220,-100,4,2,1,69,0,0
133212,-100,4,2,1,84,0,0
133518,-100,4,2,0,69,0,0
134946,-100,4,2,0,69,0,1
135151,-100,4,2,1,69,0,1
141485,-100,4,2,1,69,0,0
159946,-100,4,2,1,0,0,0
161069,-100,4,2,0,70,0,1
161205,-100,4,2,1,70,0,1
167607,-100,4,2,1,70,0,0
174130,-100,4,2,0,70,0,1
174334,-100,4,2,1,70,0,1
180669,-100,4,2,1,70,0,0
200253,-100,4,2,0,70,0,1
200661,-100,4,2,0,70,0,0

[Colours]
Combo1 : 255,255,255
Combo2 : 0,149,221
Combo3 : 255,135,15
Combo4 : 174,174,215

[HitObjects]
104,184,7608,6,0,B|208:232|224:327,1,180,4|8
304,312,8220,1,0
368,248,8424,2,0,B|408:184|368:120,1,90
336,88,8832,2,0,B|256:152|272:264,1,180,8|0
96,280,9444,1,0
96,280,9648,2,0,B|176:215|160:103,1,180,8|0
80,80,10261,1,0
346,80,10465,2,0,B|256:80,1,90,8|0
168,80,10873,5,0
168,80,10975,1,0
168,80,11077,1,0
168,232,11281,1,8
344,232,11485,1,0
256,232,11689,1,0
432,232,11893,1,0
256,56,12097,5,8
256,56,12301,1,0
256,56,12505,2,0,B|216:120|160:136,1,90,2|0
256,192,12914,2,0,B|216:296|112:336,2,180,8|2|8
88,64,14138,5,2
128,144,14342,1,0
200,88,14546,1,8
232,176,14750,1,0
304,120,14954,2,0,B|384:176|352:296,1,180,2|8
424,336,15567,2,0,B|456:240|424:168|392:128,1,180,0|0
352,56,16179,2,0,B|344:110|304:127,1,90,8|0
240,190,16587,1,2
152,190,16791,1,0
64,190,16995,1,8
64,192,17199,6,0,B|64:80,1,90,0|2
152,158,17608,2,0,B|152:286,1,90,0|8
248,190,18016,2,0,B|248:78,1,90,0|2
328,56,18424,1,0
400,104,18628,2,0,B|440:192|336:296,1,180,8|2
280,312,19240,1,0
200,272,19444,2,0,B|160:184|264:80,2,180,8|2|8
256,344,20465,5,6
256,344,20669,1,0
312,272,20873,1,0
256,200,21077,1,2
200,128,21281,1,0
256,56,21485,1,2
256,56,21689,1,0
256,56,21893,1,8
384,72,22097,6,0,B|496:72,2,90
344,152,22710,1,8
344,152,22914,1,0
256,160,23118,2,0,B|144:192|176:320,1,180,0|8
80,296,23730,5,0
80,208,23934,2,0,B|80:80,1,90
152,56,24342,2,0,B|232:120|352:104,1,180,8|0
392,160,24954,1,0
392,248,25159,1,8
320,192,25363,6,0,B|208:128|224:72|296:72|312:128|192:192,1,270,0|8
128,248,26179,1,0
56,192,26383,2,0,B|136:144|176:48,1,180,0|8
336,136,26995,2,0,B|280:216|320:328,1,180
400,328,27608,5,8
440,248,27812,1,0
400,168,28016,2,0,B|488:88,2,90,0|0|8
328,120,28628,2,0,B|256:64|112:112,1,180
184,264,29240,2,0,B|256:320|400:272,1,180,8|0
416,216,29852,1,0
256,40,30056,5,8
256,40,30465,5,2
387,268,30771,1,0
124,269,31077,1,2
432,176,31281,5,2
181,352,31587,1,2
154,47,31893,1,2
256,192,32097,12,0,33322
256,192,33730,5,4
80,192,34138,1,8
144,128,34342,1,0
232,128,34546,2,0,B|416:128,2,180,0|8|0
312,288,35567,5,0
256,224,35771,1,8
256,136,35975,1,0
256,224,36179,1,0
192,288,36383,1,0
256,224,36587,1,8
256,48,36995,6,0,B|344:32|344:32|408:80|384:152,1,180,0|8
344,280,37608,2,0,B|256:296|256:296|192:248|216:176,1,180,0|0
176,136,38220,1,8
256,88,38424,1,0
344,88,38628,2,0,B|448:128|464:248,1,180,0|8
168,296,39240,2,0,B|64:256|48:136,1,180,0|8
53,166,39852,1,8
256,40,40261,5,0
256,344,40669,1,8
256,120,41077,1,0
256,264,41485,1,8
256,192,41893,5,0
256,192,42097,1,0
256,192,42301,1,8
256,192,42403,1,0
256,192,42505,1,0
344,192,42710,2,0,B|448:192,2,90,0|0|8
288,120,43322,1,0
200,120,43526,6,0,B|176:208|80:280,1,180,0|8
272,328,44138,2,0,B|296:239|392:168,1,180,0|0
344,96,44750,1,8
256,128,44954,1,0
168,96,45159,2,0,B|112:168|120:280,1,180,0|8
256,344,45771,1,0
400,272,45975,1,0
440,192,46179,1,0
400,112,46383,1,8
320,72,46587,6,0,B|280:144|168:200,1,180,4|0
280,344,47199,2,0,B|320:272|432:216,1,180,8|0
440,144,47812,1,0
360,104,48016,2,0,B|304:80|256:136,1,90,8|0
256,200,48424,2,0,B|232:264|120:328,2,180,0|8|0
256,112,49444,1,0
256,200,49648,1,8
336,152,49852,6,0,B|448:152,2,90
248,152,50465,2,0,B|128:152,1,90,8|0
104,224,50873,2,0,B|304:224,1,180,0|8
376,224,51485,1,0
408,144,51689,2,0,B|208:144,1,180,0|8
144,144,52301,1,0
88,216,52505,2,0,B|288:216,1,180,0|8
256,40,53322,5,4
432,192,53730,1,8
344,272,53934,1,0
256,192,54138,1,0
80,191,54342,1,0
168,112,54546,1,8
256,192,54750,1,0
344,272,54954,6,8,B|435:212|411:116,1,180,0|8
440,32,55567,2,0,B|360:64,1,45,2|0
360,64,55771,2,0,B|184:128,1,180,0|8
104,160,56383,1,0
216,312,56587,6,0,B|272:256|392:208,1,180,0|8
304,72,57199,2,0,B|248:128|129:179,1,180,0|0
200,344,57812,6,0,B|159:357|79:293|103:221,1,180,8|4
312,40,58628,2,0,B|352:26|432:90|408:162,1,180,8|0
256,192,59240,12,0,60261
256,56,60669,5,0
256,88,61077,1,0
256,120,61485,5,4
256,208,61689,1,0
208,288,61893,2,0,B|80:288,2,90,8|0|2
256,288,62403,1,0
304,288,62505,1,0
392,288,62710,1,8
392,112,62914,1,0
392,200,63118,5,2
480,200,63322,1,0
304,200,63526,1,8
392,200,63730,1,0
304,200,63934,2,0,B|176:200,1,90,2|0
128,200,64342,1,8
128,200,64444,1,0
128,200,64546,1,0
200,144,64750,5,2
288,144,64954,2,0,B|400:144,2,90,0|8|0
160,192,65567,1,2
256,96,65771,1,0
352,192,65975,1,8
256,96,66179,1,0
256,192,66383,5,2
256,192,66485,1,0
256,192,66587,1,0
184,136,66791,2,0,B|112:208|176:312,1,180,8|2
256,328,67403,1,0
336,288,67608,2,0,B|400:224|360:104,1,180,8|2
440,72,68220,6,0,B|376:104,1,45,2|0
360,112,68424,2,0,B|176:192,1,180,8|2
112,216,69036,1,0
112,216,69240,5,8
152,104,69444,1,0
264,128,69648,1,2
232,240,69852,1,0
344,264,70056,1,8
376,152,70261,1,0
256,192,70465,5,2
256,192,70669,1,0
256,192,70873,1,8
432,200,71077,5,0
352,152,71281,1,0
352,240,71485,1,0
280,296,71689,2,0,B|192:312|88:256,1,180,8|0
176,96,72301,1,0
352,48,72505,2,0,B|425:98|452:192,1,180,8|4
256,352,73322,5,2
256,40,73730,1,4
152,96,73934,1,0
200,192,74138,1,2
288,264,74342,1,0
384,200,74546,5,4
384,112,74750,2,0,B|328:112|288:176,1,90,0|8
384,280,75159,2,0,B|336:280|304:240,1,90
272,216,75465,1,0
240,192,75567,1,0
152,192,75771,1,8
152,192,75975,1,0
64,312,76179,6,0,B|119:312|159:248,1,90,0|0
64,64,76587,2,0,B|112:64|144:104,1,90,8|0
256,72,76995,1,0
368,96,77199,1,2
432,192,77403,1,8
408,304,77607,1,2
328,192,77812,5,0
328,192,77914,1,0
328,192,78016,1,0
256,248,78220,1,8
256,336,78424,1,0
256,248,78628,1,2
184,192,78832,1,0
256,136,79036,1,8
176,88,79240,5,0
96,128,79444,2,0,B|56:248|160:296,1,180,2|8
408,207,80056,2,8,B|448:87|344:39,1,180,0|0
312,128,80669,2,0,B|312:248|208:312,1,180,8|2
176,224,81281,5,0
112,160,81485,2,0,B|0:160,2,90,8|0|2
200,160,82097,1,0
256,88,82301,1,8
344,88,82505,5,0
400,160,82710,2,0,B|400:352,1,180,2|8
320,296,83322,2,0,B|200:296,1,90,0|2
144,296,83730,1,0
192,216,83934,2,0,B|192:88,1,90,8|0
360,56,84342,6,0,B|384:176|288:256,1,180,2|8
152,328,84954,2,0,B|128:207|224:128,1,180,0|0
256,96,85567,1,8
344,96,85771,1,0
256,96,85975,5,2
256,96,86383,1,8
256,96,86791,1,0
256,192,87199,5,0
256,192,87403,1,4
256,96,93322,5,0
208,176,93526,1,0
304,176,93730,1,2
256,96,93934,1,2
256,192,94138,5,4
80,192,94546,1,8
256,192,94954,1,0
144,336,95363,1,8
208,272,95567,1,0
296,272,95771,2,0,B|408:272,2,90,0|0|8
256,192,96383,1,0
256,104,96587,2,0,B|168:104|168:192|80:192,1,180,0|8
56,112,97199,5,0
104,192,97403,1,0
104,280,97607,1,0
184,240,97812,2,0,B|368:240,1,180,8|0
432,184,98424,1,0
432,96,98628,2,0,B|448:48|512:32,2,90,8|0|0
344,96,99240,1,0
256,96,99444,2,0,B|152:96,2,90,8|0|0
256,192,100056,1,8
256,192,100261,1,8
72,192,100669,5,0
72,192,101077,1,8
394,80,101281,6,0,B|304:80,1,90
216,104,101689,2,0,B|344:104,1,90,0|8
392,144,102097,2,0,B|302:144,1,90
214,168,102505,2,0,B|342:168,1,90,0|8
256,344,102914,1,0
200,272,103118,2,0,B|136:216|136:96,1,180,0|8
208,56,103730,2,0,B|208:176,1,90
256,224,104138,6,0,B|256:96,2,90,0|8|0
256,312,104750,1,0
336,272,104954,1,0
336,184,105159,1,8
336,168,105261,1,0
336,152,105363,1,0
336,152,105567,5,0
256,80,105771,1,0
168,144,105975,1,8
72,192,106179,1,0
168,240,106383,5,0
168,344,106587,1,8
168,240,106791,1,8
320,88,106995,6,0,B|424:136|416:248,1,180,4|0
384,328,107607,2,0,B|272:328,1,90,8|0
216,248,108016,2,0,B|328:248,1,90
400,56,108424,2,0,B|376:128|304:136,1,90,8|0
280,64,108832,2,0,B|176:104|136:216,1,180,0|8
232,320,109444,2,0,B|336:280|376:168,1,180,0|8
361,201,110056,1,8
360,112,110261,5,0
360,112,110465,2,0,B|272:88|160:128,1,180,0|8
96,144,111077,2,0,B|104:216|160:232,1,90
415,240,111485,2,0,B|408:168|352:152,1,90,0|8
256,176,111893,6,0,B|256:48,2,90
256,264,112505,1,8
256,264,112710,1,0
184,320,112914,2,0,B|88:296|48:176,1,180,0|8
256,48,113730,5,4
440,192,114138,1,8
256,336,114546,1,0
72,192,114954,1,8
256,336,115363,2,8,B|256:144,2,180,0|8|0
256,336,116383,1,8
256,336,116587,1,8
72,192,116995,6,0,B|128:192|128:192|144:128|232:128,1,180,2|8
256,48,117607,1,0
448,192,117812,2,0,B|392:192|392:192|368:128|272:128,1,180,0|8
256,208,118424,1,0
256,208,118628,2,0,B|256:336,2,90,12|0|2
256,192,119648,12,0,120669
256,64,121077,5,2
256,192,121485,1,2
256,62,121893,5,4
192,128,122097,1,0
128,192,122301,1,8
128,280,122505,1,0
128,192,122710,1,0
256,144,122914,1,0
384,192,123118,1,8
256,288,123322,5,0
256,200,123526,2,0,B|256:72,2,90,2|0|8
256,200,124138,1,0
160,96,124342,2,0,B|96:144|96:144|104:240|160:192|160:256,1,180,0|8
256,280,124954,1,0
344,96,125159,2,0,B|408:144|408:144|400:216|344:200|344:256,1,180,0|8
256,280,125771,5,0
256,192,125975,2,0,B|256:128,2,45
176,232,126383,2,0,B|144:280|80:288,1,90,8|0
88,104,126791,2,0,B|120:56|184:48,1,90
320,128,127199,2,0,B|384:152|376:232,1,90,8|0
256,328,127607,2,0,B|187:327|167:249,2,90,0|0|8
344,328,128220,5,0
344,240,128424,2,0,B|344:144,1,90
344,64,128832,2,0,B|456:64,2,90,8|0|0
280,128,129444,1,0
216,64,129648,1,8
64,160,129852,6,0,B|88:235|190:280,1,180,2|0
190,280,130465,1,8
240,200,130669,1,0
304,136,130873,1,0
376,80,131077,1,0
464,48,131281,6,0,B|504:128|480:248,1,180,8|0
360,192,131893,1,0
304,304,132097,1,8
208,216,132301,1,0
168,336,132505,1,0
56,192,132710,5,0
56,192,132914,2,0,B|128:136|128:136|152:184|240:184,1,180,8|4
256,192,133424,12,4,134954
256,192,135159,5,0
168,192,135363,2,0,B|88:264|176:352,2,180,8|0|8
216,120,136383,1,0
304,120,136587,1,0
216,120,136791,1,0
128,120,136995,6,0,B|72:176|88:304,1,180,8|0
232,240,137607,1,0
376,288,137812,2,0,B|432:231|416:104,1,180,8|0
360,56,138424,6,0,B|320:88|248:72,1,90,0|8
160,216,138832,2,0,B|200:184|272:200,1,90,0|0
256,320,139240,1,0
256,320,139444,1,8
160,192,139648,5,0
96,128,139852,2,0,B|16:56,2,90,0|0|8
160,192,140465,1,0
160,280,140669,2,0,B|256:328|344:272,1,180,0|8
424,280,141281,1,0
424,192,141485,5,0
392,160,141587,1,0
360,128,141689,1,0
288,72,141893,1,8
112,72,142097,1,0
200,72,142301,1,0
200,72,142505,1,0
200,72,142710,1,8
64,192,142914,5,0
64,192,143016,1,0
64,192,143118,1,0
144,152,143322,1,0
224,192,143526,1,8
304,152,143730,1,0
400,72,143934,6,0,B|432:112|408:160,1,90
112,311,144342,2,0,B|80:272|104:223,1,90,8|0
256,192,144750,5,0
256,192,144954,1,0
256,192,145159,1,8
256,192,145567,1,0
256,32,145975,5,8
40,192,146383,1,0
256,351,146791,1,8
472,191,147199,1,0
256,192,147607,5,2
256,192,147812,1,6
256,192,160261,12,4,161077
256,192,161281,5,0
256,104,161485,2,0,B|360:104,1,90,8|0
256,104,161893,2,0,B|160:104,1,90,0|0
80,104,162301,2,0,B|80:176|192:168|192:264,1,180,8|0
256,176,162914,1,0
344,176,163118,2,0,B|368:232|336:296,2,90,8|0|0
336,88,163730,1,0
256,128,163934,1,8
192,192,164138,5,0
192,192,164342,1,0
240,272,164546,1,0
328,288,164750,1,8
360,256,164852,1,0
400,232,164954,1,0
480,192,165159,1,0
432,120,165363,1,0
352,160,165567,1,8
256,64,165771,6,0,B|176:64|176:136|80:136,1,180
96,232,166383,1,8
192,200,166587,1,0
288,200,166791,2,0,B|416:200,2,90,0|0|8
136,64,167607,5,0
136,64,167710,1,0
136,64,167812,1,0
136,64,168016,1,8
72,128,168220,1,0
136,192,168424,1,0
200,128,168628,1,0
288,128,168832,2,0,B|480:128,2,180,8|0|8
200,128,169852,5,0
120,88,170056,2,0,B|80:56,2,45
120,176,170465,2,0,B|72:216,2,45,8|0|0
176,248,170873,6,0,B|256:296|384:240,1,180,0|8
350,253,171485,1,0
416,192,171689,1,0
352,136,171893,1,0
264,136,172097,2,0,B|64:136,2,180,8|4|8
264,136,173118,5,0
264,136,173322,1,2
400,56,173526,1,2
400,56,173730,1,2
400,216,173934,1,2
256,336,174138,6,0,B|144:312|80:208,1,180,4|8
160,168,174750,2,0,B|248:96|352:96,1,180
408,136,175363,2,0,B|424:192|480:232,2,90,8|0|0
320,136,175975,2,0,B|296:192|216:208,1,90,0|8
168,192,176383,1,0
80,192,176587,5,0
256,192,176791,1,0
432,192,176995,1,8
384,120,177199,6,0,B|320:152|296:192,1,90
256,104,177607,2,0,B|208:144|208:192,1,90,0|8
256,256,178016,1,0
256,256,178220,1,0
320,192,178424,1,0
256,128,178628,2,0,B|264:72|344:64,2,90,8|0|0
200,192,179240,2,0,B|96:192,1,90,0|8
312,192,179648,2,0,B|416:191,1,90
256,256,180056,1,0
256,344,180261,1,8
256,344,180363,1,0
256,344,180465,1,0
256,344,180669,5,0
192,280,180873,1,0
144,208,181077,2,0,B|128:112|256:56,2,180,8|0|8
192,280,182097,1,0
312,280,182301,6,0,B|424:280,2,90,0|0|8
256,216,182914,1,0
216,136,183118,2,0,B|136:160|128:224,1,90
56,216,183526,2,0,B|64:128|112:112,1,90,8|0
88,40,183934,6,0,B|208:72|224:160,1,180,0|8
256,232,184546,1,0
221,148,184750,1,0
256,64,184954,1,0
344,64,185159,2,0,B|440:64,2,90,8|0|0
256,64,185771,1,0
80,104,185975,6,0,B|96:192|208:256,1,180,8|0
256,296,186587,1,0
256,296,186791,1,8
424,80,186995,6,0,B|360:112|352:160,1,90,2|0
296,304,187403,2,0,B|294:232|253:204,1,90,0|8
128,104,187812,2,0,B|186:142|210:130,1,90,0|0
384,280,188220,2,0,B|325:241|301:253,1,90,0|8
256,192,188628,5,0
168,192,188832,2,0,B|48:192,1,90
144,64,189240,2,0,B|272:64,1,90,8|0
360,136,189648,2,0,B|232:136,1,90
304,272,190056,2,0,B|176:272,1,90,8|0
96,192,190465,5,0
96,192,190669,1,0
160,128,190873,1,8
224,192,191077,1,0
224,192,191281,1,0
288,128,191485,1,0
352,192,191689,1,8
448,96,191893,6,0,B|336:0|176:112,1,270,0|8
104,104,192710,1,0
56,176,192914,2,0,B|56:288,2,90,0|0|8
144,192,193526,5,0
168,280,193730,2,0,B|256:336|352:272,1,180,0|8
368,192,194342,1,0
336,104,194546,2,0,B|248:48|152:112,1,180,0|8
144,192,195159,6,0,B|280:192,1,90
320,192,195567,2,0,B|432:192,2,90,0|8|0
256,128,196179,1,0
256,128,196383,1,0
128,128,196587,6,0,B|56:168|56:304,2,180,8|2|8
384,255,197812,2,0,B|456:216|456:80,2,180,2|8|2
296,256,198832,1,0
256,176,199036,2,0,B|256:48,2,90,8|0|0
256,264,199648,1,2
256,352,199852,1,8
256,264,200056,1,0
256,264,200261,1,4
