osu file format v9

[General]
AudioFilename: Melody.mp3
AudioLeadIn: 0
PreviewTime: 57170
Countdown: 0
SampleSet: Soft
StackLeniency: 0.7
Mode: 0
LetterboxInBreaks: 1

[Editor]
Bookmarks: 1541,9770,12512,23484,34455,45427,57770,68741,78341,79712,90684,101655,112627,118112,124970,135941,145541,146912,157884,168855,179827,190798,201770,212741,222341
DistanceSpacing: 1
BeatDivisor: 4
GridSize: 8

[Metadata]
Title:Melody!
Artist:Yellow Zebra
Creator:wcx19911123
Version:Normal
Source:Touhou
Tags:TOHO KENSAIKA Touch of Air Perfect Cherry Blossom Prismriver Sisters Lunasa Merlin Lyrica Nymph spboxer3

[Difficulty]
HPDrainRate:4
CircleSize:4
OverallDifficulty:3
ApproachRate:5
SliderMultiplier:0.96
SliderTickRate:1

[Events]
//Background and Video events
0,0,"BG.jpg"
//Break Periods
2,79908,89480
2,147108,156680
2,169051,178623
//Storyboard Layer 0 (Background)
//Storyboard Layer 1 (Fail)
//Storyboard Layer 2 (Pass)
//Storyboard Layer 3 (Foreground)
//Storyboard Sound Samples
//Background Colour Transformations
3,100,163,162,255

[TimingPoints]
166,342.857142857143,4,2,1,65,1,0
11823,-100,4,2,2,50,0,0
12166,-100,4,2,1,50,0,0
12508,-100,4,2,1,65,0,0
22794,-100,4,2,1,55,0,0
33423,-100,4,2,1,50,0,0
34451,-100,4,2,1,60,0,0
44737,-100,4,2,1,50,0,0
45423,-100,4,2,1,60,0,0
50566,-100,4,2,1,45,0,0
50908,-100,4,2,1,60,0,0
57423,-100,4,2,1,45,0,0
57766,-100,4,2,1,65,0,1
65651,-100,4,2,2,65,0,1
65823,-100,4,2,1,65,0,1
68651,-100,4,2,1,65,0,0
68737,-100,4,2,1,65,0,1
75251,-100,4,2,2,65,0,1
75423,-100,4,2,1,65,0,1
78337,-100,4,2,1,65,0,0
90680,-100,4,2,1,55,0,0
100623,-100,4,2,1,45,0,0
100966,-100,4,2,1,50,0,0
101651,-100,4,2,1,60,0,0
111937,-100,4,2,1,50,0,0
112623,-100,4,2,1,60,0,0
117766,-100,4,2,1,45,0,0
118108,-100,4,2,1,60,0,0
124623,-100,4,2,1,50,0,0
124966,-100,4,2,1,65,0,1
135851,-100,4,2,1,65,0,0
135937,-100,4,2,1,65,0,1
145537,-100,4,2,1,65,0,0
157880,-100,4,2,1,60,0,0
179823,-133.333333333333,4,2,1,60,0,0
185994,-133.333333333333,4,2,1,45,0,0
186680,-133.333333333333,4,2,1,60,0,0
187194,-133.333333333333,4,2,1,50,0,0
187366,-133.333333333333,4,2,1,60,0,0
187708,-133.333333333333,4,2,1,50,0,0
188051,-133.333333333333,4,2,1,65,0,0
189423,-100,4,2,1,65,0,0
190794,-100,4,2,1,65,0,1
201680,-100,4,2,1,65,0,0
201766,-100,4,2,1,65,0,1
212651,-100,4,2,1,65,0,0
212737,-100,4,2,1,65,0,1
222337,-100,4,2,1,65,0,0

[Colours]
Combo1 : 244,216,115
Combo2 : 255,6,26
Combo3 : 235,164,255

[HitObjects]
256,192,9766,2,0,B|348:240|440:192,1,192,4|0
256,120,11137,2,0,B|196:124|172:180|192:224,2,144,0|0|8
352,128,12508,5,4
424,192,12851,1,8
424,288,13194,2,0,B|424:336|376:368,1,96,0|8
348,328,13708,2,0,B|304:264|216:272,1,144,0|8
128,296,14566,1,0
40,256,14908,5,8
40,256,15080,2,0,B|40:112,1,144,0|8
104,40,15937,1,0
136,128,16280,1,8
136,128,16451,2,0,B|152:176|208:192,1,96
252,192,16966,1,8
288,104,17308,1,0
376,64,17651,5,8
376,64,17823,2,0,B|448:56|496:128,1,144,4|8
456,216,18680,1,0
360,200,19023,1,8
360,200,19194,2,0,B|280:192|232:256,1,144,0|8
184,336,20051,1,0
88,320,20394,5,8
88,320,20566,2,0,B|24:280|32:192,1,144,0|8
56,104,21423,1,0
136,56,21766,1,8
136,56,21937,2,0,B|232:56,1,96,4|0
280,56,22451,1,8
352,120,22794,1,8
260,144,23137,1,8
168,168,23480,6,0,B|128:144,2,48,4|0|8
204,200,23994,2,0,B|248:264|224:344,1,144,0|8
304,280,24851,2,0,B|336:240|392:248,1,96,0|8
434,265,25366,1,0
423,218,25537,2,0,B|416:168|448:128,1,96,0|8
512,56,26223,6,0,B|472:16,2,48,0|0|8
416,60,26908,1,0
328,24,27251,1,8
264,96,27594,2,0,B|232:136,2,48,0|0|8
352,136,28280,1,0
416,208,28623,1,8
408,304,28966,6,0,B|392:360|336:368,1,96,0|8
296,368,29480,1,0
252,348,29651,1,0
240,256,29994,2,0,B|240:208,1,48,8|0
232,160,30337,2,0,B|224:104|176:80,1,96,0|8
134,72,30851,1,0
90,92,31023,2,0,B|46:120|46:184,1,96,0|8
80,264,31708,5,0
160,320,32051,2,0,B|136:360,2,48,8|0|0
256,312,32737,2,0,B|280:272,1,48,8|0
304,228,33080,1,4
400,240,33423,1,8
488,200,33766,1,8
504,104,34108,1,8
448,24,34451,6,0,B|400:0|352:16,1,96,4|8
328,56,34966,2,0,B|304:96|240:96,1,96
200,80,35480,1,8
128,16,35823,1,0
40,56,36166,2,0,B|40:104,1,48,8|0
40,152,36508,2,0,B|40:200|88:232,1,96,0|8
184,240,37194,5,0
248,168,37537,1,8
312,96,37880,2,0,B|312:48,2,48,0|0|8
408,112,38566,2,0,B|456:120|480:168,1,96,0|8
488,264,39251,1,0
432,344,39594,1,8
336,360,39937,6,0,B|288:360|256:312,1,96,0|8
256,216,40623,2,0,B|256:160|216:128,1,96,0|8
176,108,41137,1,0
128,112,41308,2,0,B|80:120|56:176,1,96,0|8
56,268,41994,1,0
124,336,42337,1,8
216,360,42680,6,0,B|264:360,2,48,0|0|8
256,272,43366,2,0,B|304:272,2,48,0|0|8
168,232,44051,1,0
152,136,44394,1,8
192,48,44737,1,8
288,32,45080,1,8
376,72,45423,6,0,B|440:120|432:200,2,144,4|2|0
336,160,46794,2,0,B|296:232|216:232,2,144,0|2|0
296,72,48166,5,0
168,136,48680,1,2
48,56,49194,1,0
72,148,49537,2,0,B|88:224|48:288,1,144,0|2
168,208,50566,2,0,B|216:192,1,48,8|8
260,180,50908,6,0,B|312:168|352:200,1,96,4|8
384,288,51594,1,0
444,212,51937,1,8
480,120,52280,2,0,B|488:64|448:32,1,96,0|8
384,104,52966,1,0
288,120,53308,1,8
200,80,53651,6,0,B|152:56|104:80,1,96,4|2
64,164,54337,2,0,B|112:188|160:164,1,96,2|2
204,176,54851,2,0,B|248:200|256:256,1,96,8|8
208,336,55537,2,0,B|160:336,2,48,0|8|8
304,336,56223,5,8
400,336,56566,2,0,B|400:288,1,48,8|8
428,248,56908,2,0,B|428:200,1,48,8|8
428,104,57423,1,8
364,32,57766,6,0,B|320:8|272:32,1,96,4|8
232,120,58451,1,0
272,208,58794,1,8
256,304,59137,2,0,B|240:356|192:368,1,96,0|8
144,360,59651,1,0
112,324,59823,2,0,B|80:288|24:296,1,96,0|8
80,216,60508,6,0,B|128:240,2,48,0|0|8
40,188,61023,2,0,B|8:148|24:92,1,96
48,56,61537,1,8
120,120,61880,1,0
208,80,62223,1,8
280,144,62566,1,0
368,104,62908,2,0,B|408:80,1,48,8|0
456,88,63251,6,0,B|504:120|504:168,1,96,0|8
480,208,63766,1,0
472,256,63937,2,0,B|472:312|512:344,1,96,0|8
412,328,64623,2,0,B|412:376,2,48,0|0|8
360,248,65308,2,0,B|300:200|220:224,1,144
184,248,65994,6,0,B|140:280,2,48,0|0|8
112,184,66680,2,0,B|64:184,2,48,0|0|8
156,164,67194,1,0
184,128,67366,2,0,B|208:80|192:32,1,96,0|8
232,64,67880,2,0,B|272:104|328:88,1,96,0|8
364,72,68394,1,8
452,112,68737,6,0,B|492:144|492:200,1,96,4|8
464,288,69423,1,0
376,328,69766,1,8
384,232,70108,2,0,B|384:176|336:152,1,96,0|8
292,140,70623,1,0
248,160,70794,2,0,B|212:200|224:252,1,96,0|8
160,320,71480,6,0,B|184:368,2,48,0|0|8
116,300,71994,1,0
84,264,72166,2,0,B|56:224|72:168,1,96,0|8
96,80,72851,1,0
184,40,73194,1,8
280,56,73537,1,0
344,128,73880,1,8
376,36,74223,6,0,B|416:0|472:16,1,96,0|8
440,108,74908,2,0,B|416:184|464:248,1,144
496,280,75594,1,0
432,352,75937,1,8
376,272,76280,2,0,B|344:232|288:232,1,96,0|8
204,272,76966,6,0,B|160:336,2,48,0|0|8
160,188,77651,2,0,B|112:184,2,48,0|0|8
256,192,78337,1,4
256,192,78508,12,4,79708
336,280,90680,6,0,B|384:280,2,48,4|0|8
288,280,91194,2,0,B|208:280|168:352,1,144,0|8
128,264,92051,2,0,B|108:216|56:200,1,96,0|8
12,196,92566,1,0
40,156,92737,2,0,B|72:112|128:112,1,96,0|8
216,112,93423,6,0,B|264:112,2,48,0|0|8
152,184,94108,1,0
244,208,94451,1,8
336,232,94794,2,0,B|384:232,2,48,0|0|8
376,320,95480,1,0
464,280,95823,1,8
472,184,96166,6,0,B|472:128|424:104,1,96,0|8
376,188,96851,2,0,B|336:224|288:208,1,96,0|8
248,180,97366,1,0
200,176,97537,2,0,B|148:176|120:224,1,96,0|8
48,288,98223,2,0,B|84:328|136:324,1,96,0|8
216,276,98908,5,0
312,288,99251,1,8
400,328,99594,2,0,B|424:368,2,48,0|0|8
388,232,100280,1,4
472,184,100623,1,8
480,88,100966,1,8
408,24,101308,1,8
320,64,101651,6,0,B|280:88|224:72,1,96,4|8
144,24,102337,1,0
56,64,102680,1,8
16,152,103023,2,0,B|0:200|24:248,1,96,0|8
56,280,103537,1,0
104,280,103708,2,0,B|152:288|176:336,1,96,0|8
216,248,104394,6,0,B|224:192|272:168,1,96,0|8
360,152,105080,2,0,B|408:152,2,48,0|0|8
296,80,105766,1,0
200,72,106108,1,8
128,136,106451,2,0,B|104:184|120:232,1,96,0|8
72,312,107137,6,0,B|120:336|168:312,1,96,0|8
208,292,107651,2,0,B|256:264,1,48
280,176,108166,2,0,B|328:148,1,48,8|0
368,144,108508,2,0,B|424:136|456:184,1,96,0|8
480,272,109194,1,0
416,344,109537,1,8
320,360,109880,6,0,B|272:360,2,48,0|0|8
280,272,110566,2,0,B|232:272,2,48,0|0|8
376,256,111251,1,0
440,184,111594,1,8
440,88,111937,1,8
368,24,112280,1,8
272,16,112623,6,0,B|192:24|160:96,2,144,4|2|0
288,112,113994,2,0,B|304:192|376:224,2,144,0|2|0
248,200,115366,5,0
128,280,115880,1,2
16,192,116394,1,0
112,184,116737,2,0,B|184:208|208:288,1,144,0|2
192,144,117766,1,8
232,56,118108,6,0,B|264:16|320:24,1,96,4|8
408,56,118794,1,0
448,144,119137,1,8
352,136,119480,2,0,B|304:128|264:168,1,96,0|8
232,256,120166,1,0
272,344,120508,1,8
368,360,120851,6,0,B|424:376|464:336,1,96,4|2
396,268,121537,2,0,B|376:216|400:176,1,96,2|2
432,140,122051,2,0,B|464:96|448:40,1,96,8|8
357,76,122737,2,0,B|309:76,2,48,0|8|8
344,172,123423,5,8
296,256,123766,2,0,B|248:256,1,48,8|8
212,288,124108,2,0,B|164:288,1,48,8|8
80,336,124623,1,8
80,240,124966,6,0,B|80:184|32:152,1,96,4|8
16,64,125651,2,0,B|56:96|112:72,1,96,0|8
200,48,126337,2,0,B|248:24|296:40,1,96,0|8
328,72,126851,1,0
336,120,127023,2,0,B|328:168|280:192,1,96,0|8
184,176,127708,6,0,B|184:128,2,48,0|0|8
184,224,128223,2,0,B|184:304|256:344,1,144,0|8
300,352,128908,1,0
348,344,129080,2,0,B|400:336|416:280,1,96,0|8
324,252,129766,2,0,B|280:224|280:168,1,96,0|8
284,124,130280,1,0
316,88,130451,6,0,B|352:56|408:72,1,96,0|8
468,144,131137,2,0,B|432:176|376:160,1,96,0|8
316,88,131823,2,0,B|316:32,2,48,0|0|8
304,136,132337,1,0
264,164,132508,2,0,B|216:184|168:152,1,96,0|8
112,80,133194,6,0,B|88:40,2,48,0|0|8
48,152,133880,2,0,B|24:112,2,48,0|0|8
76,192,134394,1,0
80,240,134566,2,0,B|80:288|40:328,1,96,0|8
88,344,135080,2,0,B|144:352|184:320,1,96,0|8
208,284,135594,1,8
232,192,135937,6,0,B|248:136|296:120,1,96,4|8
328,32,136623,1,0
384,112,136966,1,8
464,168,137308,2,0,B|496:200|488:256,1,96,0|8
460,296,137823,1,0
416,276,137994,2,0,B|384:244|392:188,1,96,0|8
328,256,138680,6,0,B|296:296|240:296,1,96,0|8
196,292,139194,1,0
160,260,139366,1,0
136,168,139708,2,0,B|88:168,1,48,8|0
40,176,140051,1,2
24,272,140394,1,8
96,336,140737,1,2
192,352,141080,2,0,B|240:352,1,48,8|0
288,344,141423,6,0,B|336:336|360:288,1,96,0|8
448,248,142108,2,0,B|424:200|376:192,1,96,0|8
288,232,142794,2,0,B|240:248|192:216,1,96,0|8
168,180,143308,1,0
164,132,143480,2,0,B|184:80|240:72,1,96,0|8
320,120,144166,6,0,B|360:80,2,48,0|0|8
348,212,144851,2,0,B|400:224,2,48,0|0|8
256,192,145537,1,4
256,192,145708,12,4,146908
256,248,157880,6,0,B|256:296|304:328,1,96,4|8
400,336,158566,1,0
472,272,158908,1,8
472,272,159080,2,0,B|504:200|472:128,1,144,0|8
408,64,159937,2,0,B|376:104|320:96,1,96,0|8
280,72,160451,6,0,B|232:56|184:88,1,96
156,120,160966,1,8
72,72,161308,2,0,B|32:40,2,48,0|0|8
72,168,161994,2,0,B|72:224|24:256,1,96,0|8
88,328,162680,2,0,B|128:360|184:352,1,96,0|8
264,312,163366,6,0,B|304:344,2,48,0|0|8
200,240,164051,1,0
192,144,164394,1,8
248,64,164737,2,0,B|248:16,2,48,0|0|8
288,152,165423,2,0,B|304:200|360:216,1,96,0|8
376,120,166108,6,0,B|428:132|444:180,1,96,0|8
448,228,166623,2,0,B|440:284|388:304,1,96
345,301,167137,1,8
256,336,167480,1,4
160,324,167823,1,8
140,228,168166,1,8
224,180,168508,1,8
292,248,168851,1,4
312,288,179823,6,0,B|264:352|184:344,1,143.999995708466,4|0
56,288,181194,1,0
80,144,181880,1,0
224,128,182566,6,0,B|280:120|304:64,2,107.999996781349
160,160,183937,2,0,B|160:240|224:288,1,143.999995708466
272,236,184966,1,0
336,204,185308,6,0,B|408:184|480:224,1,143.999995708466,0|8
376,328,186680,2,0,B|320:344|272:312,2,107.999996781349,0|8|8
436,288,188051,6,0,B|480:232|464:152,1,143.999995708466,4|8
428,88,189080,1,8
360,64,189423,2,0,B|368:16,2,48,4|0|8
352,112,189937,2,0,B|344:160|288:184,1,96,0|0
244,180,190451,1,8
200,96,190794,6,0,B|168:48|112:56,1,96,4|8
40,112,191480,2,0,B|72:160|128:152,1,96,0|8
200,96,192166,2,0,B|240:64|296:72,1,96,0|8
336,88,192680,1,0
356,132,192851,2,0,B|360:180|328:220,1,96,0|8
232,232,193537,6,0,B|200:192,2,48,0|0|8
292,308,194223,2,0,B|336:344|392:328,1,96,0|8
416,296,194737,2,0,B|448:256,1,48
496,176,195251,1,8
488,80,195594,1,0
408,24,195937,2,0,B|360:24,1,48,8|0
312,24,196280,6,0,B|264:24|232:72,1,96,0|8
288,152,196966,1,0
288,248,197308,1,8
232,328,197651,2,0,B|264:368,2,48,0|0|8
200,292,198166,1,0
152,280,198337,2,0,B|104:272|64:312,1,96,0|8
56,216,199023,6,0,B|32:176,2,48,0|0|8
112,136,199708,2,0,B|112:80,2,48,0|0|8
152,224,200394,2,0,B|184:264|240:256,1,96,4|8
264,216,200908,2,0,B|304:184|360:200,1,96
392,228,201423,1,8
428,316,201766,6,0,B|476:292|484:244,1,96,4|8
484,148,202451,1,0
440,64,202794,1,8
344,56,203137,2,0,B|312:16,2,48,4|0|8
372,96,203651,1,0
376,144,203823,2,0,B|376:192|328:224,1,96,0|8
232,224,204508,6,0,B|248:176,2,48,4|0|8
212,268,205023,2,0,B|192:312|136:320,1,96
88,312,205537,1,8
24,240,205880,1,0
32,144,206223,1,8
104,80,206566,1,0
192,120,206908,2,0,B|240:144,1,48,8|0
280,160,207251,6,0,B|328:184|376:160,1,96,4|8
328,76,207937,1,0
408,24,208280,1,8
496,64,208623,2,0,B|496:16,2,48,4|0|8
496,112,209137,1,0
488,160,209308,2,0,B|472:208|416:224,1,96,0|8
336,176,209994,6,0,B|312:128,2,48,4|0|8
344,272,210680,2,0,B|368:320,2,48,0|0|8
308,240,211194,1,0
260,232,211366,2,0,B|208:224|168:264,1,96,0|8
152,304,211880,2,0,B|128:352|80:360,1,96
32,352,212394,1,8
60,260,212737,6,0,B|24:224|32:168,1,96,4|8
64,80,213423,1,0
152,40,213766,1,8
216,112,214108,2,0,B|256:144|312:128,1,96,4|8
348,104,214623,1,0
376,64,214794,2,0,B|400:24,2,48,0|0|8
456,120,215480,6,0,B|496:152|488:208,1,96,4|8
476,252,215994,1,0
436,280,216166,2,0,B|392:296|344:272,1,96,0|8
304,244,216680,1,0
284,200,216851,1,2
272,104,217194,1,8
184,64,217537,1,2
96,104,217880,2,0,B|48:128,1,48,8|0
20,160,218223,6,0,B|0:208|24:256,1,96,4|8
104,304,218908,1,0
192,264,219251,1,8
288,280,219594,2,0,B|256:320,2,48,4|0|8
320,244,220108,1,0
340,200,220280,2,0,B|360:152|336:104,1,96,0|8
240,96,220966,6,0,B|232:48,2,48,4|0|8
168,156,221651,2,0,B|120:136,2,48,0|0|8
256,192,222337,1,4
256,192,222508,12,0,223708
