osu file format v9

[General]
AudioFilename: Melody.mp3
AudioLeadIn: 0
PreviewTime: 57170
Countdown: 0
SampleSet: Soft
StackLeniency: 0.7
Mode: 0
LetterboxInBreaks: 1

[Editor]
Bookmarks: 1541,9770,12512,23484,34455,45427,57770,68741,78341,79712,90684,101655,112627,118112,124970,135941,145541,146912,157884,168855,179827,190798,201770,212741,222341
DistanceSpacing: 1.2
BeatDivisor: 4
GridSize: 8

[Metadata]
Title:Melody!
Artist:Yellow Zebra
Creator:wcx19911123
Version:Lunatic
Source:Touhou
Tags:TOHO KENSAIKA Touch of Air Perfect Cherry Blossom Prismriver Sisters Lunasa Merlin Lyrica Nymph spboxer3

[Difficulty]
HPDrainRate:7
CircleSize:4
OverallDifficulty:7
ApproachRate:8
SliderMultiplier:1.6
SliderTickRate:1

[Events]
//Background and Video events
0,0,"BG.jpg"
//Break Periods
2,79908,89930
2,147108,157130
//Storyboard Layer 0 (Background)
//Storyboard Layer 1 (Fail)
//Storyboard Layer 2 (Pass)
//Storyboard Layer 3 (Foreground)
//Storyboard Sound Samples
//Background Colour Transformations
3,100,163,162,255

[TimingPoints]
166,342.857142857143,4,2,1,65,1,0
9766,-200,4,2,1,65,0,0
11823,-100,4,2,1,50,0,0
12508,-100,4,2,1,65,0,0
22966,-100,4,2,1,50,0,0
23480,-100,4,2,1,55,0,0
33080,-100,4,2,1,50,0,0
34451,-100,4,2,1,60,0,0
44223,-100,4,2,1,55,0,0
45423,-133.333333333333,4,2,1,60,0,0
50394,-133.333333333333,4,2,1,45,0,0
50908,-100,4,2,1,60,0,0
57251,-100,4,2,1,50,0,0
57766,-100,4,2,1,65,0,1
68223,-100,4,2,1,45,0,1
68651,-100,4,2,1,45,0,0
68737,-100,4,2,1,65,0,1
78337,-100,4,2,1,65,0,0
90680,-100,4,2,1,55,0,0
100451,-100,4,2,1,50,0,0
101651,-100,4,2,1,60,0,0
111423,-100,4,2,1,55,0,0
112623,-133.333333333333,4,2,1,60,0,0
117594,-133.333333333333,4,2,1,45,0,0
118108,-100,4,2,1,60,0,0
124451,-100,4,2,1,50,0,0
124966,-100,4,2,1,65,0,1
135423,-100,4,2,1,45,0,1
135851,-100,4,2,1,45,0,0
135937,-100,4,2,1,65,0,1
145537,-100,4,2,1,65,0,0
157880,-100,4,2,1,60,0,0
167651,-100,4,2,1,45,0,0
168166,-100,4,2,1,50,0,0
168851,-100,4,2,1,60,0,0
182223,-100,4,2,1,50,0,0
182566,-100,4,2,1,60,0,0
185994,-100,4,2,1,45,0,0
186166,-100,4,2,1,60,0,0
187194,-100,4,2,1,50,0,0
187366,-100,4,2,1,60,0,0
187708,-100,4,2,1,50,0,0
188051,-100,4,2,1,65,0,0
188908,-100,4,2,1,50,0,0
189423,-100,4,2,1,65,0,0
190280,-100,4,2,1,45,0,0
190794,-100,4,2,1,65,0,1
201251,-100,4,2,1,45,0,1
201680,-100,4,2,1,45,0,0
201766,-100,4,2,1,65,0,1
203994,-100,4,2,1,45,0,1
204508,-100,4,2,1,65,0,1
209480,-100,4,2,1,45,0,1
209994,-100,4,2,1,65,0,1
212651,-100,4,2,1,65,0,0
212737,-100,4,2,1,65,0,1
214966,-100,4,2,1,45,0,1
215480,-100,4,2,1,65,0,1
220451,-100,4,2,1,45,0,1
220966,-100,4,2,1,65,0,1
222337,-100,4,2,1,65,0,0
224908,-100,4,2,1,35,0,0

[Colours]
Combo1 : 244,216,115
Combo2 : 255,6,26
Combo3 : 235,164,255

[HitObjects]
256,192,9766,2,0,B|320:216|352:160|412:192,2,160,4|0|0
192,144,11308,5,0
88,24,11651,1,0
40,88,11823,1,8
40,112,11908,1,8
40,136,11994,1,8
40,160,12080,1,8
40,184,12166,1,8
40,280,12337,1,8
112,344,12508,6,0,B|200:368|264:304,1,160,4|8
368,80,13194,1,0
440,144,13366,1,0
440,144,13451,1,0
440,144,13537,1,8
348,172,13708,6,0,B|256:152|232:64,1,160
248,216,14223,2,0,B|256:304|184:360,1,160,8|0
120,288,14737,1,0
120,288,14823,1,0
120,288,14908,1,8
168,160,15080,6,0,B|104:216|16:200,1,160
144,32,15594,2,0,B|232:8|296:64,1,160,8|0
344,144,16108,1,0
328,240,16280,1,8
344,144,16451,6,0,B|384:64|472:56,1,160
504,128,16966,1,8
432,168,17137,1,0
472,240,17308,1,0
424,304,17480,1,0
424,304,17566,1,0
424,304,17651,1,8
352,184,17823,6,0,B|288:128|200:144,1,160,4|0
104,312,18337,2,0,B|168:368|256:352,1,160,8|0
336,304,18851,1,0
336,304,18937,1,0
336,304,19023,1,8
352,184,19194,6,0,B|376:96|456:72,1,160
288,232,19708,2,0,B|208:264|136:216,1,160,8|0
80,136,20223,1,0
80,136,20308,1,0
80,136,20394,1,8
136,216,20566,6,0,B|160:304|112:368,1,160
40,208,21080,2,0,B|64:124|144:96,1,160,8|0
216,160,21594,1,0
312,176,21766,1,8
432,64,21937,6,0,B|344:40|280:96,1,160,4|0
216,160,22451,1,8
480,288,22794,1,8
400,344,22966,1,8
376,344,23051,1,8
352,344,23137,1,8
328,344,23223,1,8
304,344,23308,1,8
280,344,23394,1,8
256,344,23480,6,0,B|176:344,2,80,4|0|8
232,216,23994,2,0,B|200:128|112:120,1,160
32,120,24508,1,8
32,120,24680,1,0
72,248,24851,6,0,B|104:344,2,80,0|0|8
144,184,25366,1,0
232,216,25537,2,0,B|296:232|352:200,1,120
374,275,25880,2,0,B|342:243|350:195,1,80,8|0
392,112,26223,5,0
392,112,26394,1,0
392,112,26566,1,8
176,32,26908,2,0,B|96:32,1,80
176,144,27251,2,0,B|256:144,1,80,8|0
392,112,27594,5,0
392,112,27766,1,0
392,112,27937,1,8
456,344,28280,2,0,B|376:344,1,80
224,264,28623,2,0,B|304:264,1,80,8|0
416,184,28966,5,0
416,184,29137,1,0
416,184,29308,1,8
320,32,29480,1,0
296,128,29651,2,0,B|264:208|176:224,1,160,0|8
80,216,30166,1,0
48,64,30337,5,0
48,64,30508,1,0
48,64,30680,1,8
136,104,30851,1,0
192,184,31023,2,0,B|224:264|192:344,1,160,0|8
256,88,31708,5,0
256,88,31880,1,0
344,128,32051,1,8
344,128,32223,1,0
432,168,32394,2,0,B|432:248,1,80
312,352,32737,2,0,B|312:272,1,80,8|0
256,88,33080,6,0,B|232:120|184:128,1,80,4|8
96,104,33423,1,8
96,104,33508,1,0
96,104,33594,1,8
288,192,33766,2,0,B|328:216|344:256,1,80,8|8
368,344,34108,1,8
368,344,34194,1,0
368,344,34280,1,8
368,144,34451,6,0,B|384:64|464:24,1,160,4|8
448,184,34966,1,0
304,264,35137,2,0,B|256:272|224:232,1,80
216,144,35480,2,0,B|264:136|296:176,1,80,8|0
312,352,35823,6,0,B|224:368|160:296,1,160,0|8
96,96,36337,1,0
112,184,36508,2,0,B|120:248|80:296,1,120
25,352,36851,2,0,B|41:312|81:296,1,80,8|0
200,248,37194,6,0,B|240:232|256:192,1,80
264,96,37537,1,8
264,96,37708,1,0
328,256,37880,2,0,B|344:296|384:312,1,80
480,320,38223,1,8
480,320,38394,1,0
384,184,38565,6,0,B|368:104|416:32,1,160,0|8
472,144,39080,1,0
384,184,39251,2,0,B|344:200|296:176,1,80
264,96,39594,1,8
176,56,39765,1,0
80,72,39937,6,0,B|24:128|32:224,1,160,0|8
112,352,40451,1,0
112,352,40623,2,0,B|168:296|160:200,1,160,0|8
136,128,41137,1,0
240,240,41308,6,0,B|304:288|392:272,1,160,0|8
472,176,41823,1,0
424,64,41994,2,0,B|360:16|272:32,1,160,0|8
216,112,42508,1,0
176,200,42680,6,0,B|144:232|104:240,1,80
12,240,43023,1,8
12,240,43194,1,0
120,336,43365,2,0,B|152:360|200:360,1,80
288,344,43708,1,8
288,344,43880,1,0
304,208,44051,5,0
384,216,44223,1,8
416,288,44394,1,8
368,352,44565,1,8
288,344,44737,1,8
272,336,45080,1,8
256,328,45423,6,0,B|184:296|208:232|136:200,2,179.999994635582,4|2|0
304,216,46794,2,0,B|376:184|352:120|424:88,2,179.999994635582,0|2|0
256,104,48165,6,0,B|216:48|144:56,1,119.999996423721
96,104,48680,2,0,B|67:166|110:224,1,119.999996423721,2|0
176,240,49194,2,0,B|244:233|273:167,1,119.999996423721
440,352,50051,2,0,B|376:352|344:288,1,119.999996423721,2|8
336,268,50480,1,8
328,244,50565,1,8
328,220,50651,1,8
332,196,50737,1,8
340,176,50823,1,8
356,160,50908,6,0,B|392:128|432:136,1,80,4|0
448,56,51251,2,0,B|402:40|389:2,1,80,8|0
312,28,51594,2,0,B|322:75|295:106,1,80
224,168,51937,1,8
224,168,52108,1,0
136,128,52280,6,0,B|96:116|60:144,1,80
36,236,52623,2,0,B|46:277|88:294,1,80,8|0
180,268,52965,2,0,B|210:239|204:194,1,80
168,84,53308,2,0,B|220:24|312:28,1,160,8|4
480,192,53994,5,2
256,352,54337,1,2
32,192,54680,1,2
128,136,54851,1,8
384,136,55194,1,8
256,352,55537,1,0
256,272,55708,1,8
256,192,55880,1,8
256,32,56223,5,8
336,240,56565,1,8
296,308,56737,1,8
216,308,56908,1,8
176,240,57080,1,8
216,172,57251,1,8
216,172,57337,1,8
216,172,57423,1,8
296,172,57594,1,8
296,172,57680,1,8
296,172,57766,6,0,B|336:168|368:200,1,80,4|0
408,288,58108,1,8
408,288,58280,1,0
480,176,58451,2,0,B|488:136|472:96,1,80
408,24,58794,1,8
408,24,58966,1,0
304,96,59137,5,0
232,32,59308,1,0
136,32,59480,1,8
64,96,59651,1,0
64,96,59737,1,0
64,96,59823,2,0,B|16:168|48:256,1,160,0|8
304,96,60508,5,0
400,80,60680,1,0
364,168,60851,1,8
272,184,61023,2,0,B|192:216|168:304,1,160
296,352,61537,1,8
296,352,61708,1,0
424,320,61880,6,0,B|464:304|480:264,1,80
488,168,62223,1,8
432,96,62394,1,0
344,136,62566,2,0,B|304:144|264:112,1,80
208,40,62908,1,8
208,192,63080,5,0
208,192,63166,1,0
208,192,63251,2,0,B|200:280|120:328,1,160,0|8
32,320,63766,1,0
104,248,63937,2,0,B|192:248|248:312,1,160,0|8
424,40,64623,5,0
480,116,64794,1,0
428,196,64966,1,8
336,164,65137,1,0
332,68,65308,2,0,B|264:8|176:32,1,160,0|8
96,72,65823,1,0
32,192,65994,5,0
112,176,66166,1,0
168,120,66337,1,8
152,248,66508,1,0
228,232,66680,1,0
240,152,66851,1,0
296,272,67023,1,8
352,216,67194,1,0
320,144,67366,6,0,B|304:104|328:64,2,80,0|0|8
352,328,67880,2,0,B|280:384|192:352,1,160,0|8
180,348,68308,1,8
156,340,68394,1,8
136,328,68480,1,8
116,316,68566,1,8
100,300,68651,1,8
84,284,68737,6,0,B|60:252|60:204,1,80,4|0
64,112,69080,1,8
64,112,69251,1,0
152,200,69423,2,0,B|184:224|232:216,1,80
312,168,69766,1,8
312,168,69937,1,0
416,48,70108,5,0
488,112,70280,1,0
400,144,70451,1,8
328,80,70623,1,0
328,80,70708,1,0
328,80,70794,2,0,B|256:32|176:48,1,160,0|8
32,280,71480,5,0
128,264,71651,1,0
184,184,71823,1,8
224,272,71994,1,0
304,328,72166,2,0,B|368:376|456:352,1,160,0|8
400,232,72680,1,0
368,144,72851,6,0,B|360:96|384:64,1,80
208,80,73194,2,0,B|160:88|128:64,1,80,8|0
144,240,73537,2,0,B|152:288|128:320,1,80
304,304,73880,2,0,B|352:296|384:320,1,80,8|0
424,336,74137,1,0
464,312,74223,6,0,B|480:232|432:160,1,160,0|8
48,72,74908,2,0,B|32:152|80:224,1,160,0|8
168,264,75423,1,0
264,264,75594,6,0,B|304:264|328:224,1,80
320,128,75937,2,0,B|280:128|256:168,1,80,8|0
296,352,76280,2,0,B|376:336|412:252,1,160,0|8
80,88,76966,5,0
44,160,77138,1,0
100,216,77309,1,8
232,64,77480,1,0
160,100,77651,1,0
176,180,77823,1,0
368,104,77995,1,8
288,120,78166,1,0
256,192,78337,1,4
256,192,78423,12,4,79708
176,80,90680,5,4
176,80,90851,1,0
176,80,91023,1,8
192,176,91194,2,0,B|200:264|136:320,1,160
48,352,91708,1,8
104,144,92051,5,0
104,144,92223,1,0
104,144,92394,1,8
120,240,92566,1,0
184,312,92737,2,0,B|232:352|304:336,1,120
344,328,93080,2,0,B|320:296|328:248,1,80,8|0
352,160,93423,5,0
352,160,93594,1,0
352,160,93766,1,8
96,32,94108,2,0,B|176:32,1,80
296,104,94451,2,0,B|216:104,1,80,8|0
80,144,94794,5,0
80,144,94966,1,0
80,144,95137,1,8
72,240,95308,1,0
128,320,95480,2,0,B|192:376|280:352,1,160,0|8
448,128,96166,5,0
448,128,96337,1,0
448,128,96508,1,8
408,216,96680,1,0
352,136,96851,2,0,B|296:64|208:72,1,160,0|8
120,96,97366,1,0
40,200,97537,5,0
40,200,97708,1,0
40,200,97880,1,8
56,296,98051,1,0
128,232,98223,2,0,B|192:176|280:192,1,160,0|8
488,352,98908,5,0
488,352,99080,1,0
400,312,99251,1,8
400,312,99423,1,0
312,272,99594,2,0,B|312:192,1,80
256,48,99937,2,0,B|256:128,1,80,8|0
192,272,100280,6,0,B|168:304|120:312,1,80,4|8
32,320,100623,1,8
32,320,100708,1,0
32,320,100794,1,8
48,160,100966,2,0,B|72:128|120:120,1,80,8|8
208,112,101309,1,8
208,112,101394,1,0
208,112,101480,1,8
256,256,101651,6,0,B|296:336|384:344,1,160,4|8
456,280,102166,1,0
368,240,102337,2,0,B|344:200|360:160,1,80
440,112,102680,2,0,B|464:152|448:192,1,80,8|0
280,272,103023,6,0,B|240:200|280:104,1,160,0|8
320,48,103537,1,0
184,136,103708,2,0,B|128:168|64:136,1,120
37,68,104051,2,0,B|69:92|69:140,1,80,8|0
32,256,104394,6,0,B|40:304|80:320,1,80
168,344,104737,1,8
264,328,104908,1,0
216,208,105080,2,0,B|216:160|256:128,1,80
320,72,105423,1,8
416,56,105594,1,0
480,168,105766,6,0,B|480:256|400:304,1,160,0|8
312,328,106280,1,0
225,284,106451,2,0,B|201:244|217:204,1,80
297,156,106794,2,0,B|321:196|305:236,1,80,8|0
144,332,107137,6,0,B|100:256|128:172,1,160,0|8
176,96,107651,1,0
216,224,107823,2,0,B|264:296|352:296,1,160,0|8
448,280,108337,1,0
376,168,108508,6,0,B|360:80|408:16,1,160,0|8
504,32,109023,1,0
448,112,109194,2,0,B|368:104|320:24,1,160,0|8
208,32,109708,1,0
112,88,109880,5,0
112,88,110051,1,0
112,88,110223,1,8
176,352,110566,1,0
176,352,110737,1,0
176,352,110908,1,8
256,344,111080,1,0
240,208,111251,5,0
160,216,111423,1,8
128,288,111594,1,8
176,352,111766,1,8
256,344,111937,1,8
268,340,112280,1,8
280,336,112623,6,0,B|352:304|328:240|400:208,2,179.999994635582,4|2|0
224,224,113994,2,0,B|152:192|176:128|104:96,2,179.999994635582,0|2|0
272,112,115366,6,0,B|288:48|352:32,1,119.999996423721
424,40,115880,1,2
432,112,116051,2,0,B|416:176|352:192,1,119.999996423721
192,128,116737,2,0,B|136:96|72:120,1,119.999996423721
32,176,117251,2,0,B|0:232|24:296,1,119.999996423721,2|8
32,312,117680,1,8
48,328,117766,1,8
68,340,117851,1,8
92,348,117937,1,8
116,348,118023,1,8
140,344,118108,6,0,B|184:336|208:296,1,80,4|0
232,208,118451,1,8
232,208,118623,1,0
296,280,118794,2,0,B|324:316|368:320,1,80
456,296,119137,1,8
456,296,119308,1,0
376,216,119480,6,0,B|352:176|360:136,1,80
392,48,119823,1,8
392,48,119994,1,0
288,104,120166,2,0,B|248:120|208:104,1,80
120,72,120508,1,8
120,72,120680,1,0
40,232,120851,6,0,B|68:316|148:340,1,160,4|2
256,352,121366,1,8
363,340,121537,2,0,B|444:316|472:232,1,160,2|2
392,120,122051,5,8
120,120,122394,1,8
256,352,122737,1,0
256,272,122908,1,8
256,192,123080,1,8
256,32,123423,5,8
176,240,123766,1,8
216,308,123938,1,8
296,308,124109,1,8
336,240,124281,1,8
296,172,124451,1,8
296,172,124537,1,8
296,172,124623,1,8
216,172,124794,1,8
216,172,124880,1,8
216,172,124966,6,0,B|168:176|144:208,1,80,4|0
96,288,125308,1,8
96,288,125480,1,0
32,176,125651,2,0,B|32:136|56:96,1,80
120,32,125994,1,8
120,32,126166,1,0
216,88,126337,5,0
304,48,126508,1,0
372,116,126680,1,8
328,200,126851,1,0
232,184,127023,2,0,B|144:176|88:248,1,160,0|8
288,360,127708,5,0
288,360,127794,1,0
288,360,127880,2,0,B|328:360|360:328,1,80,0|8
488,344,128223,2,0,B|416:304|400:216,1,160
384,120,128737,1,8
456,56,128908,1,0
465,177,129080,6,0,B|441:217|393:217,1,80
312,176,129423,1,8
216,160,129594,1,0
152,48,129766,2,0,B|112:64|88:104,1,80
72,192,130108,1,8
96,288,130280,5,0
96,288,130366,1,0
96,288,130451,2,0,B|144:360|232:360,1,160,0|8
304,224,130966,1,0
304,224,131137,2,0,B|256:152|168:152,1,160,0|8
392,32,131823,5,0
472,80,131994,1,0
456,176,132166,1,8
360,184,132337,1,0
320,96,132508,2,0,B|264:32|176:40,1,160,0|8
32,264,133194,5,0
112,256,133366,1,0
160,192,133537,1,8
160,320,133708,1,0
236,300,133879,1,0
236,220,134051,1,0
312,328,134223,1,8
356,264,134394,1,0
312,196,134566,6,0,B|296:160|312:112,2,80,0|0|8
232,72,135080,2,0,B|160:24|80:48,1,160,0|8
60,60,135508,1,8
40,76,135594,1,8
28,96,135680,1,8
16,116,135766,1,8
12,140,135851,1,8
8,164,135937,6,0,B|4:208|28:240,1,80,4|0
88,312,136280,1,8
176,344,136451,1,0
160,216,136623,2,0,B|160:168|192:136,1,80
256,80,136966,1,8
352,64,137137,1,0
408,184,137308,6,0,B|400:232|360:248,1,80
272,224,137651,2,0,B|280:176|320:160,1,80,8|0
496,208,137994,2,0,B|480:296|392:336,1,160,0|8
40,336,138680,6,0,B|104:288|96:184,1,160,0|8
56,120,139194,1,0
176,224,139366,2,0,B|248:264|336:240,1,160,0|8
408,184,139880,1,0
456,104,140051,5,2
168,72,140394,1,8
288,336,140737,1,2
408,184,141080,1,8
360,104,141251,1,0
280,48,141423,6,0,B|208:8|120:32,1,160,0|8
232,336,142108,2,0,B|304:376|392:352,1,160,0|8
464,296,142623,1,0
408,184,142794,5,0
416,88,142966,1,0
328,48,143137,1,8
264,120,143308,1,0
308,204,143480,2,0,B|336:288|304:360,1,160,0|8
12,336,144166,5,0
64,276,144337,1,0
140,300,144508,1,8
60,196,144680,1,0
136,168,144851,1,0
184,232,145023,1,0
168,96,145194,1,8
248,112,145366,1,0
256,192,145537,1,4
256,192,145623,12,4,146908
256,240,157880,6,0,B|272:320|352:360,1,160,4|8
448,120,158566,1,0
456,216,158737,1,0
368,176,158908,2,0,B|348:160|348:128,1,53.3333333333333,8|0
356,64,159137,6,0,B|272:-8|152:24,1,213.333333333333,0|8
72,72,159766,1,0
48,200,159937,2,0,B|32:264|64:320,1,120
88,352,160280,1,8
144,232,160451,6,0,B|184:160|280:160,1,160
376,176,160966,2,0,B|416:184,2,40,8|0|0
336,88,161308,2,0,B|320:48|344:8,2,80,0|0|8
256,344,161994,6,0,B|216:368|176:352,1,80
88,312,162337,2,0,B|40:288,2,40,8|0|0
184,224,162680,1,0
184,224,162851,1,0
288,208,163023,2,0,B|328:200,2,40,8|0|0
160,120,163366,5,0
56,96,163537,2,0,B|16:128,2,40,0|0|8
128,32,163880,1,0
224,48,164051,2,0,B|264:56,2,40
296,128,164394,1,8
392,144,164566,1,0
480,104,164737,6,0,B|488:56,2,40
456,224,165080,2,0,B|440:312|360:344,1,160,8|0
336,352,165508,1,0
312,356,165594,1,0
256,272,165766,2,0,B|184:224|104:248,1,160,8|0
16,288,166280,5,0
80,360,166451,1,8
168,320,166623,2,0,B|200:240|160:160,1,160
48,32,167137,2,0,B|16:112|56:192,1,160,8|4
120,248,167651,5,8
208,264,167823,1,8
296,240,167994,1,8
272,328,168166,1,8
360,312,168337,1,8
424,248,168508,1,8
432,160,168680,1,8
392,80,168851,6,0,B|336:16|248:32,1,160,4|8
32,192,169537,1,0
48,288,169708,1,0
48,288,169794,1,0
48,288,169880,1,8
120,224,170051,6,0,B|184:168|272:184,1,160
432,232,170566,2,0,B|352:205|322:121,1,160,8|0
304,28,171080,1,0
400,32,171251,1,8
408,128,171423,5,0
408,128,171508,1,0
408,128,171594,2,0,B|376:208|288:224,1,160,0|8
32,168,172280,1,0
56,260,172451,1,0
148,284,172623,1,8
124,192,172794,6,0,B|112:104|176:40,1,160
336,96,173308,2,0,B|348:184|284:248,1,160,8|0
200,280,173823,1,0
272,344,173994,1,8
368,360,174166,1,0
456,320,174337,6,0,B|496:300|504:260,1,80
448,160,174680,2,0,B|416:104|440:40,2,120,8|0|0
504,260,175366,1,8
408,248,175537,1,0
328,192,175708,6,0,B|296:168,3,40
276,124,176051,2,0,B|260:84,3,40,8|0|0|0
256,40,176394,1,0
152,112,176566,2,0,B|112:120,5,40,0|0|8|0|0|0
112,168,177080,6,0,B|80:240,1,80
40,336,177423,1,8
400,216,177766,2,0,B|432:144,1,80
472,48,178109,1,8
256,192,178451,5,4
256,192,178623,1,0
256,192,178708,12,4,179823
480,192,181194,5,0
256,104,182223,2,0,B|256:128,4,20
256,32,182566,1,0
32,192,183937,1,0
256,352,185308,5,0
328,192,185823,1,0
256,224,185994,1,8
184,192,186166,1,0
392,48,186680,5,0
320,80,186851,1,0
272,144,187023,1,0
256,224,187194,1,8
240,144,187366,1,0
192,80,187538,1,0
120,48,187709,1,8
32,344,188051,5,4
104,312,188223,1,0
136,240,188394,1,8
160,368,188566,1,0
228,328,188737,1,0
216,248,188908,1,8
308,336,189080,1,8
344,264,189251,1,8
288,208,189423,6,0,B|272:168|288:128,2,80,4|0|8
408,360,189937,2,0,B|472:304|464:216,1,160,0|8
464,192,190366,1,8
460,168,190451,1,8
452,144,190537,1,8
440,124,190623,1,8
424,104,190708,1,8
408,84,190794,6,0,B|376:52|336:52,1,80,4|0
240,56,191137,1,8
240,56,191308,1,0
320,160,191480,2,0,B|336:200|320:248,1,80
272,320,191823,1,8
272,320,191994,1,0
192,208,192166,5,0
200,112,192337,1,0
120,56,192508,1,8
112,152,192680,1,0
112,152,192766,1,0
112,152,192851,2,0,B|104:240|24:280,1,160,0|8
272,352,193537,5,0
328,272,193708,1,0
288,184,193880,1,8
232,264,194051,1,0
328,272,194223,2,0,B|416:280|472:216,1,160,0|8
456,120,194737,1,0
376,64,194908,6,0,B|344:40|296:40,1,80
128,72,195251,2,0,B|104:104|104:152,1,80,8|0
136,320,195594,2,0,B|168:344|216:344,1,80
384,312,195937,2,0,B|408:280|408:232,1,80,8|0
392,200,196194,1,0
368,168,196280,6,0,B|344:88|392:16,1,160,0|8
144,216,196966,2,0,B|168:296|120:368,1,160,0|8
88,136,197651,5,0
184,128,197823,1,0
240,208,197994,1,8
336,200,198166,1,0
336,200,198251,1,0
336,200,198337,2,0,B|424:192|480:256,1,160,0|8
488,32,199023,5,0
408,48,199194,1,0
392,128,199366,1,8
336,8,199537,1,0
280,64,199708,1,0
312,136,199880,1,0
200,72,200051,1,8
188,152,200223,1,0
256,192,200394,6,0,B|288:224|288:264,1,80,4|0
272,360,200737,1,8
176,352,200908,2,0,B|96:336|64:248,1,160,0|8
56,224,201337,1,8
52,200,201423,1,8
52,176,201508,1,8
56,152,201594,1,8
64,128,201680,1,8
76,108,201766,6,0,B|96:72|136:56,1,80,4|8
232,48,202108,1,8
320,88,202280,1,0
368,224,202451,2,0,B|408:208|424:160,1,80,0|8
432,72,202794,1,8
360,8,202966,1,0
256,112,203137,6,0,B|240:152|256:192,1,80,4|8
288,280,203480,1,8
224,352,203651,1,0
128,288,203823,2,0,B|112:248|120:208,1,80,0|8
120,184,204080,1,8
124,160,204166,1,8
132,136,204251,1,8
144,116,204337,1,8
160,96,204423,1,8
180,80,204508,6,0,B|212:56|256:56,1,80,4|0
344,96,204851,1,8
272,216,205023,2,0,B|264:304|328:360,1,160
432,376,205537,1,8
432,376,205708,1,0
496,296,205880,6,0,B|496:248|464:224,1,80
496,80,206223,2,0,B|454:104|449:143,1,80,8|0
312,192,206566,2,0,B|353:216|390:200,1,80
360,112,206908,1,8
360,112,207080,1,0
256,40,207251,6,0,B|216:32|176:64,1,80,4|8
112,128,207594,1,8
104,224,207766,1,0
96,352,207937,2,0,B|136:344|160:304,1,80,0|8
192,216,208280,1,8
264,152,208451,1,0
376,128,208623,6,0,B|416:128|448:96,1,80,4|8
316,204,208966,2,0,B|296:238|307:282,1,80,8|0
280,112,209308,2,0,B|260:77|216:65,1,80,0|8
196,56,209566,1,8
172,52,209651,1,8
148,55,209737,1,8
124,59,209823,1,8
101,66,209908,1,8
81,80,209994,6,0,B|49:104|41:152,1,80,4|0
48,244,210337,1,8
152,144,210508,2,0,B|136:184|152:224,1,80
200,304,210851,1,0
240,184,211023,1,8
296,264,211194,1,0
392,288,211366,6,0,B|440:296|472:264,2,80,0|0|8
360,136,211880,2,0,B|320:64|232:48,1,160
136,56,212394,1,8
64,120,212566,1,0
48,240,212737,6,0,B|48:288|80:320,1,80,4|8
160,360,213080,1,8
256,344,213251,1,0
192,248,213423,2,0,B|176:208|184:168,1,80,0|8
216,80,213766,1,8
304,40,213937,1,0
296,160,214108,6,0,B|288:200|304:240,1,80,4|8
368,312,214451,1,8
464,328,214623,1,0
504,216,214794,2,0,B|512:168|496:136,1,80,0|8
486,115,215051,1,8
472,96,215137,1,8
456,76,215223,1,8
440,60,215308,1,8
420,48,215394,1,8
396,40,215480,6,0,B|320:8|240:48,1,160,4|8
152,160,215994,1,0
232,216,216166,2,0,B|308:248|388:208,1,160,0|8
440,144,216680,1,0
400,296,216851,5,2
80,336,217194,1,8
216,32,217537,1,2
296,88,217708,2,0,B|328:120|328:160,1,80,0|8
288,248,218051,1,0
208,328,218223,5,4
208,328,218394,1,8
112,272,218566,1,8
112,272,218737,1,0
128,160,218908,1,0
128,160,219080,1,8
240,144,219251,1,8
240,144,219423,1,0
288,248,219594,6,0,B|304:288|352:296,1,80,4|8
464,248,219937,2,0,B|480:208|464:168,1,80,8|0
416,88,220280,1,0
336,32,220451,1,8
312,24,220537,1,8
288,20,220623,1,8
264,20,220708,1,8
240,24,220794,1,8
216,32,220880,1,8
196,44,220966,6,0,B|152:64|144:112,1,80,4|0
144,200,221308,1,8
64,340,221480,2,0,B|104:348|144:324,1,80
204,252,221823,1,0
360,328,221994,2,0,B|360:288|328:256,1,80,8|0
256,192,222337,1,4
256,192,222423,12,0,223708
256,192,224908,5,8
256,192,224994,1,8
256,192,225080,1,8
