osu file format v9

[General]
AudioFilename: Melody.mp3
AudioLeadIn: 0
PreviewTime: 57170
Countdown: 0
SampleSet: Soft
StackLeniency: 0.7
Mode: 0
LetterboxInBreaks: 1

[Editor]
Bookmarks: 1541,9770,12512,23484,34455,45427,57770,68741,78341,79712,90684,101655,112627,118112,124970,135941,145541,146912,157884,168855,179827,190798,201770,212741,222341
DistanceSpacing: 1
BeatDivisor: 4
GridSize: 8

[Metadata]
Title:Melody!
Artist:Yellow Zebra
Creator:wcx19911123
Version:Hard
Source:Touhou
Tags:TOHO KENSAIKA Touch of Air Perfect Cherry Blossom Prismriver Sisters Lunasa Merlin Lyrica Nymph spboxer3

[Difficulty]
HPDrainRate:6
CircleSize:4
OverallDifficulty:5
ApproachRate:7
SliderMultiplier:1.44
SliderTickRate:1

[Events]
//Background and Video events
0,0,"BG.jpg"
//Break Periods
2,79908,89780
2,147108,156980
//Storyboard Layer 0 (Background)
//Storyboard Layer 1 (Fail)
//Storyboard Layer 2 (Pass)
//Storyboard Layer 3 (Foreground)
//Storyboard Sound Samples
Sample,208108,0,"soft-hitclap.wav",65
//Background Colour Transformations
3,100,163,162,255

[TimingPoints]
166,342.857142857143,4,2,1,65,1,0
9766,-200,4,2,1,65,0,0
11823,-100,4,2,1,50,0,0
12508,-100,4,2,1,65,0,0
22966,-100,4,2,1,50,0,0
23480,-100,4,2,1,55,0,0
33080,-100,4,2,1,50,0,0
34451,-100,4,2,1,60,0,0
44223,-100,4,2,1,55,0,0
45423,-133.333333333333,4,2,1,60,0,0
50394,-133.333333333333,4,2,1,45,0,0
50908,-100,4,2,1,60,0,0
57251,-100,4,2,1,50,0,0
57766,-100,4,2,1,65,0,1
68223,-100,4,2,1,45,0,1
68651,-100,4,2,1,45,0,0
68737,-100,4,2,1,65,0,1
78337,-100,4,2,1,65,0,0
90680,-100,4,2,1,55,0,0
100451,-100,4,2,1,50,0,0
101651,-100,4,2,1,60,0,0
111423,-100,4,2,1,55,0,0
112623,-133.333333333333,4,2,1,60,0,0
117594,-133.333333333333,4,2,1,45,0,0
118108,-100,4,2,1,60,0,0
124451,-100,4,2,1,50,0,0
124966,-100,4,2,1,65,0,1
135423,-100,4,2,1,45,0,1
135851,-100,4,2,1,45,0,0
135937,-100,4,2,1,65,0,1
145537,-100,4,2,1,65,0,0
157880,-100,4,2,1,60,0,0
167651,-100,4,2,1,45,0,0
168166,-100,4,2,1,50,0,0
168851,-100,4,2,1,60,0,0
185308,-133.333333333333,4,2,1,60,0,0
185994,-133.333333333333,4,2,1,45,0,0
186337,-133.333333333333,4,2,1,60,0,0
187194,-133.333333333333,4,2,1,50,0,0
187537,-133.333333333333,4,2,1,60,0,0
187708,-133.333333333333,4,2,1,50,0,0
188051,-100,4,2,1,65,0,0
188908,-100,4,2,1,50,0,0
189423,-100,4,2,1,65,0,0
190280,-100,4,2,1,45,0,0
190794,-100,4,2,1,65,0,1
201251,-100,4,2,1,45,0,1
201680,-100,4,2,1,45,0,0
201766,-100,4,2,1,65,0,1
203994,-100,4,2,1,45,0,1
204508,-100,4,2,1,65,0,1
209480,-100,4,2,1,45,0,1
209994,-100,4,2,1,65,0,1
212651,-100,4,2,1,65,0,0
212737,-100,4,2,1,65,0,1
214966,-100,4,2,1,45,0,1
215480,-100,4,2,1,65,0,1
220451,-100,4,2,1,45,0,1
220966,-100,4,2,1,65,0,1
222337,-100,4,2,1,65,0,0
224908,-100,4,2,1,35,0,0

[Colours]
Combo1 : 244,216,115
Combo2 : 255,6,26
Combo3 : 235,164,255

[HitObjects]
256,192,9766,2,0,B|328:224|400:192,2,144,4|0|0
196,152,11308,1,0
104,40,11651,1,0
48,88,11823,2,0,B|48:128,3,36,8|8|8|8
48,160,12166,1,8
48,232,12337,1,8
80,296,12508,6,0,B|128:360|208:352,1,144,4|8
368,232,13194,1,0
416,288,13366,1,0
344,304,13537,1,8
296,248,13708,6,0,B|268:176|296:108,1,144
440,76,14223,2,0,B|468:148|440:216,1,144,8|0
376,180,14737,1,0
304,176,14908,1,8
236,204,15080,6,0,B|168:240|160:320,1,144
144,176,15594,2,0,B|128:96|56:64,1,144,8|0
0,104,16108,1,0
8,176,16280,1,8
68,136,16451,6,0,B|128:96|208:112,1,144
276,132,16966,1,8
336,172,17137,1,0
376,232,17308,2,0,B|392:264|384:312,1,72
368,372,17651,1,8
304,240,17823,6,0,B|328:160|408:144,1,144,4|0
256,168,18337,2,0,B|192:216|112:192,1,144,8|0
52,168,18851,1,0
108,120,19023,1,8
176,148,19194,6,0,B|208:224|168:296,1,144
256,168,19708,2,0,B|280:88|352:72,1,144,8|0
424,64,20223,1,0
488,96,20394,1,8
496,168,20566,6,0,B|472:248|400:264,1,144
352,128,21080,2,0,B|304:64|224:64,1,144,8|0
156,72,21594,1,0
96,112,21766,1,8
216,160,21937,6,0,B|296:172|352:128,1,144,4|0
384,64,22451,1,8
480,208,22794,1,8
472,280,22966,2,0,B|468:316,5,36,8|8|8|8|8|8
452,348,23480,6,0,B|420:368|384:356,1,72,4|0
320,320,23823,1,8
256,288,23994,2,0,B|176:272|120:320,1,144
168,264,24508,1,8
184,192,24680,1,0
184,120,24851,6,0,B|152:100|144:64,2,72,0|0|8
248,156,25366,1,0
320,160,25537,2,0,B|376:160|416:120,1,108
424,84,25880,2,0,B|444:48|484:44,1,72,8|0
496,124,26223,5,0
496,124,26394,1,0
496,124,26566,1,8
476,280,26908,2,0,B|468:352,1,72
400,296,27251,2,0,B|408:224,1,72,8|0
416,152,27594,5,0
416,152,27766,1,0
416,152,27937,1,8
280,48,28280,2,0,B|208:24|136:56,1,144,0|8
32,192,28966,5,0
32,192,29137,1,0
32,192,29308,1,8
40,264,29480,1,0
80,324,29651,2,0,B|136:372|216:348,1,144,0|8
272,304,30166,1,0
304,240,30337,5,0
304,240,30508,1,0
304,240,30680,1,8
368,208,30851,1,0
440,216,31023,2,0,B|512:256|512:336,1,144,0|8
344,300,31708,5,0
344,300,31880,1,0
304,240,32051,1,8
304,240,32223,1,0
272,176,32394,2,0,B|272:104,1,72
200,40,32737,2,0,B|200:112,1,72,8|0
168,208,33080,6,0,B|144:240|104:240,1,72,4|8
32,240,33423,1,8
32,240,33594,1,8
104,312,33766,2,0,B|132:336|176:328,1,72,8|8
240,304,34108,1,8
240,304,34280,1,8
272,208,34451,6,0,B|296:136|376:112,1,144,4|8
444,124,34966,1,0
496,172,35137,1,0
496,244,35308,1,0
460,308,35480,1,8
328,168,35823,6,0,B|272:112|192:120,1,144,0|8
128,136,36337,1,0
96,200,36508,2,0,B|80:256|104:304,1,108
128,332,36851,2,0,B|156:356|196:356,1,72,8|0
248,288,37194,6,0,B|296:232|384:248,1,144,0|8
448,272,37708,1,0
480,336,37880,2,0,B|443:354|408:332,2,72,0|0|8
408,176,38566,6,0,B|392:96|440:40,1,144,0|8
496,84,39080,1,0
473,152,39251,2,0,B|446:180|408:176,1,72
336,168,39594,1,8
272,136,39766,1,0
208,104,39937,6,0,B|136:80|64:120,1,144,0|8
8,156,40451,1,0
72,188,40623,2,0,B|144:212|216:172,1,144,0|8
272,136,41137,1,0
304,72,41308,6,0,B|360:24|440:40,1,144,0|8
500,80,41823,1,0
468,144,41994,2,0,B|412:192|332:176,1,144,0|8
272,136,42508,1,0
232,76,42680,5,0
232,76,42851,1,0
232,76,43023,1,8
200,248,43366,2,0,B|160:248|136:280,2,72,0|0|8
272,256,43880,1,0
344,264,44051,6,0,B|336:304|304:320,1,72,0|8
228,312,44394,2,0,B|200:288|200:248,1,72,8|8
200,232,44737,1,8
200,216,45080,1,8
200,200,45423,6,0,B|200:112|120:64,2,161.999995172024,4|2|0
264,112,46794,2,0,B|320:48|416:64,2,161.999995172024,0|2|0
360,160,48166,6,0,B|408:184|464:168,1,107.999996781349
488,216,48680,2,0,B|443:245|429:302,1,107.999996781349,2|0
376,300,49194,2,0,B|373:247|331:206,1,107.999996781349
224,328,50051,2,0,B|176:360|120:352,1,107.999996781349,2|8
96,344,50480,2,0,B|64:328,4,26.9999991953373,8|8|8|8|8
48,320,50908,6,0,B|16:296|16:256,1,72,4|0
16,186,51251,1,8
48,120,51423,1,0
112,88,51594,2,0,B|184:64|256:104,1,144,0|8
272,288,52280,6,0,B|280:328|312:344,1,72
384,360,52623,1,8
456,348,52794,1,0
488,280,52966,2,0,B|512:208|480:136,1,144,0|8
336,24,53651,5,4
360,208,53994,2,0,B|368:248|336:280,1,72,2|8
288,224,54337,2,0,B|224:176|152:192,1,144,2|2
312,152,54851,6,0,B|384:136|416:56,1,144,8|8
192,24,55537,1,0
256,56,55708,1,8
320,24,55880,1,8
256,192,56223,5,8
220,360,56566,1,8
292,360,56737,1,8
328,296,56909,1,8
292,232,57080,1,8
220,232,57251,2,0,B|220:196,2,36,8|8|8
184,296,57594,1,8
184,296,57766,6,0,B|160:328|120:328,1,72,4|0
52,320,58108,1,8
12,260,58280,1,0
12,188,58451,2,0,B|24:112|96:80,1,144,0|8
272,48,59137,5,0
208,80,59308,1,0
220,152,59480,1,8
290,165,59651,1,0
320,100,59823,2,0,B|376:48|456:64,1,144,0|8
512,224,60508,5,0
440,232,60680,1,0
376,200,60851,1,8
360,272,61023,2,0,B|320:336|240:344,1,144
168,348,61537,1,8
100,328,61708,1,0
56,272,61880,5,0
88,72,62223,1,8
244,200,62566,1,0
56,272,62908,1,8
34,203,63080,1,0
44,132,63251,6,0,B|72:60|152:40,1,144,0|8
196,96,63766,1,0
264,124,63937,2,0,B|340:148|404:108,1,144,0|8
488,256,64623,5,0
480,328,64794,1,0
408,340,64966,1,8
376,276,65137,1,0
424,224,65308,2,0,B|472:168|464:88,1,144,0|8
432,24,65823,1,0
360,16,65994,5,0
316,72,66166,1,0
308,144,66337,1,8
248,44,66508,1,0
200,96,66679,1,0
236,160,66851,1,0
129,110,67023,1,8
123,182,67195,1,0
188,214,67366,6,0,B|224:232|232:272,2,72,0|0|8
144,352,67880,2,0,B|224:376|280:328,1,144,0|8
304,304,68308,2,0,B|328:276,4,36,8|8|8|8|8
352,256,68737,6,0,B|376:224|424:232,1,72,4|0
476,272,69080,1,8
468,344,69251,1,0
408,304,69423,2,0,B|368:240|400:160,1,144,0|8
496,24,70108,5,0
440,72,70280,1,0
368,80,70451,1,8
296,72,70623,1,0
232,40,70794,2,0,B|160:16|96:64,1,144,0|8
32,224,71480,6,0,B|72:232|104:208,1,72
152,160,71823,1,8
172,228,71994,1,0
212,288,72166,2,0,B|264:344|344:336,1,144,0|8
412,320,72680,1,0
456,264,72851,5,0
376,80,73194,1,8
256,240,73537,1,0
456,264,73880,1,8
464,192,74051,1,0
432,128,74223,6,0,B|388:64|308:68,1,144,0|8
80,256,74908,2,0,B|124:320|204:316,1,144,0|8
276,312,75423,1,0
336,272,75594,6,0,B|376:280|408:264,2,72,0|0|8
272,240,76108,1,0
240,176,76280,2,0,B|224:104|272:40,1,144,0|8
464,40,76966,5,0
424,100,77137,1,0
352,92,77308,1,8
436,172,77480,1,0
372,208,77651,1,0
320,156,77823,1,0
340,272,77994,1,8
268,262,78166,1,0
256,192,78337,1,4
256,192,78423,12,4,79708
352,80,90680,5,4
352,80,90851,1,0
352,80,91023,1,8
400,136,91194,2,0,B|432:200|416:280,1,144
376,336,91708,1,8
280,184,92051,5,0
280,184,92223,1,0
280,184,92394,1,8
232,128,92566,1,0
208,196,92737,2,0,B|184:248|128:264,1,108
92,264,93080,2,0,B|56:264|32:224,1,72,8|0
8,160,93423,5,0
8,160,93594,1,0
8,160,93766,1,8
128,32,94108,2,0,B|200:32,1,72
312,96,94451,2,0,B|240:96,1,72,8|0
184,144,94794,5,0
184,144,94966,1,0
184,144,95137,1,8
160,312,95480,2,0,B|208:368|296:360,1,144,0|8
432,232,96166,5,0
432,232,96337,1,0
432,232,96508,1,8
384,288,96680,1,0
360,220,96851,2,0,B|320:152|240:144,1,144,0|8
208,208,97366,1,0
144,240,97537,5,0
144,240,97708,1,0
144,240,97880,1,8
72,232,98051,1,0
40,168,98223,2,0,B|16:96|56:24,1,144,0|8
216,88,98908,5,0
216,88,99080,1,0
280,120,99251,1,8
280,120,99423,1,0
344,152,99594,2,0,B|344:224,1,72
416,304,99937,2,0,B|416:232,1,72,8|0
416,128,100280,6,0,B|408:88|440:56,1,72,4|8
492,16,100623,1,8
492,16,100794,1,8
496,116,100966,2,0,B|504:156|472:188,1,72,8|8
416,220,101308,1,8
416,220,101480,1,8
336,160,101651,6,0,B|272:112|192:136,1,144,4|8
176,264,102166,2,0,B|240:312|320:288,1,144
376,256,102680,1,8
448,256,102851,1,0
412,192,103023,6,0,B|376:120|408:48,1,144,0|8
476,40,103537,1,0
480,112,103708,2,0,B|460:164|412:192,1,108
376,184,104051,2,0,B|336:176|304:200,1,72,8|0
264,272,104394,6,0,B|216:336|136:336,1,144,0|8
72,312,104908,1,0
40,248,105080,2,0,B|75:232|108:250,2,72,0|0|8
56,72,105766,6,0,B|104:16|192:24,1,144,0|8
240,72,106280,1,0
304,104,106451,2,0,B|344:120|376:104,1,72
432,60,106794,2,0,B|456:96|440:136,1,72,8|0
408,208,107137,6,0,B|376:280|408:352,1,144,0|8
472,376,107651,1,0
464,304,107823,2,0,B|400:256|328:280,1,144,0|8
264,312,108337,1,0
204,352,108508,6,0,B|132:384|60:352,1,144,0|8
8,308,109023,1,0
68,268,109194,2,0,B|140:236|212:268,1,144,0|8
264,312,109708,1,0
336,352,109880,5,0
336,352,110051,1,0
336,352,110223,1,8
296,192,110566,2,0,B|284:152|312:120,2,72,0|0|8
364,168,111080,1,0
378,97,111251,6,0,B|418:107|432:147,1,72,0|8
417,216,111594,2,0,B|388:246|346:238,1,72,8|8
336,232,111937,1,8
320,224,112280,1,8
304,216,112623,6,0,B|224:184|144:232,2,161.999995172024,4|2|0
368,128,113994,2,0,B|456:136|512:56,2,161.999995172024,0|2|0
288,56,115366,6,0,B|248:16|184:24,1,107.999996781349
136,32,115880,1,2
112,80,116051,2,0,B|96:132|128:188,2,107.999996781349
232,208,117251,2,0,B|240:264|208:312,1,107.999996781349,2|8
188,328,117680,2,0,B|160:348,4,26.9999991953373,8|8|8|8|8
208,312,118108,6,0,B|280:280|352:320,1,144,4|8
412,348,118623,1,0
408,276,118794,2,0,B|400:192|456:144,1,144,0|8
424,80,119308,1,0
360,48,119480,6,0,B|324:28|288:48,1,72
255,109,119823,2,0,B|291:129|327:109,1,72,8|0
291,46,120166,2,0,B|216:16|152:48,1,144,0|8
88,84,120680,1,0
48,144,120851,5,4
80,312,121194,2,0,B|96:344|136:352,1,72,2|8
144,280,121537,2,0,B|156:204|232:176,1,144,2|2
264,40,122051,6,0,B|280:120|232:176,1,144,8|8
192,328,122737,1,0
256,360,122908,1,8
320,328,123080,1,8
256,192,123423,5,8
220,24,123766,1,8
292,24,123937,1,8
328,88,124109,1,8
292,152,124280,1,8
220,152,124451,2,0,B|220:188,2,36,8|8|8
184,88,124794,1,8
184,88,124966,6,0,B|152:56|112:64,1,72,4|0
48,72,125308,1,8
8,132,125480,1,0
8,204,125651,2,0,B|8:280|72:328,1,144,0|8
216,232,126337,5,0
184,168,126508,1,0
233,115,126680,1,8
297,147,126851,1,0
286,218,127023,2,0,B|272:296|328:352,1,144,0|8
408,200,127708,6,0,B|416:160|448:136,1,72
512,116,128051,1,8
460,68,128223,2,0,B|400:24|320:40,1,144
252,52,128737,1,8
192,92,128908,1,0
160,156,129080,5,0
288,312,129423,1,8
360,124,129766,1,0
160,156,130108,1,8
156,228,130280,1,0
184,296,130451,6,0,B|224:360|304:368,1,144,0|8
292,296,130966,1,0
296,224,131137,2,0,B|304:144|368:104,1,144,0|8
484,240,131823,6,0,B|468:280|428:288,1,72
364,304,132166,1,8
292,296,132337,1,0
232,256,132508,2,0,B|152:224|88:272,1,144,0|8
39,42,133194,5,0
100,82,133366,1,0
171,81,133537,1,8
77,150,133708,1,0
138,191,133880,1,0
197,149,134051,1,0
160,258,134223,1,8
232,261,134394,1,0
256,192,134566,6,0,B|272:160|312:152,2,72,0|0|8
264,328,135080,2,0,B|320:376|400:352,1,144,0|8
432,336,135508,2,0,B|468:312,4,36,8|8|8|8|8
488,296,135937,6,0,B|512:264|504:224,1,72,4|0
480,160,136280,1,8
416,128,136451,1,0
344,128,136623,2,0,B|264:136|232:208,1,144,0|8
104,344,137308,5,0
40,312,137480,1,0
48,240,137651,1,8
118,225,137823,1,0
152,288,137994,2,0,B|192:352|280:352,1,144,0|8
456,264,138680,6,0,B|504:208|488:128,1,144,0|8
456,64,139194,1,0
416,124,139366,2,0,B|360:168|280:152,1,144,0|8
212,128,139880,1,0
160,80,140051,5,2
16,224,140394,1,8
212,276,140737,1,2
160,80,141080,1,8
88,80,141251,1,0
32,124,141423,6,0,B|-8:192|16:264,1,144,0|8
256,360,142108,2,0,B|296:292|272:220,1,144,0|8
232,160,142623,1,0
224,88,142794,6,0,B|224:48|255:28,2,72,0|0|8
296,88,143308,1,0
364,112,143480,2,0,B|432:144|456:224,1,144,0|8
428,376,144166,5,0
361,351,144337,1,0
361,279,144508,1,8
292,371,144680,1,0
253,312,144851,1,0
295,253,145023,1,0
186,288,145194,1,8
188,216,145366,1,0
256,192,145537,1,4
256,192,145623,12,4,146908
256,248,157880,6,0,B|280:320|360:344,1,144,4|8
416,176,158566,2,0,B|432:144|472:128,2,72,0|0|8
396,220,159023,2,0,B|380:268,1,48
200,352,159594,5,8
128,344,159766,1,0
68,304,159937,2,0,B|24:272|24:208,1,108
24,173,160280,1,8
40,104,160451,6,0,B|80:32|160:24,1,144
200,80,160966,2,0,B|256:128|336:112,1,144,8|0
404,88,161480,1,0
456,40,161651,1,8
496,208,161994,6,0,B|496:248|472:280,1,72
424,328,162337,1,8
344,208,162680,2,0,B|320:176|280:176,1,72
212,192,163023,1,8
96,320,163366,5,0
40,272,163537,2,0,B|24:240|32:200,1,72,0|8
64,136,163880,1,0
128,104,164051,2,0,B|208:104|256:48,1,144,0|8
360,16,164566,6,0,B|312:72|320:152,1,144
340,220,165080,1,8
480,320,165423,2,0,B|464:360|424:368,1,72
368,328,165766,2,0,B|336:304|296:312,1,72,8|0
232,336,166108,5,0
168,368,166280,2,0,B|128:368|104:336,1,72,0|8
8,320,166623,2,0,B|72:288|88:200,1,144
208,184,167137,2,0,B|128:176|96:96,1,144,8|4
32,72,167651,5,8
92,32,167823,2,0,B|132:28|156:60,1,72,8|8
204,112,168166,1,8
208,184,168337,1,8
240,248,168508,2,0,B|264:280|304:280,1,72,8|8
352,368,168851,6,0,B|360:288|424:248,1,144,4|8
488,88,169537,2,0,B|488:48|460:24,2,72,0|0|8
416,80,170051,6,0,B|336:64|280:128,1,144
256,188,170566,1,8
224,360,170908,2,0,B|208:328|168:312,1,72
100,300,171251,1,8
32,324,171423,2,0,B|0:344,2,36
148,244,171937,6,0,B|200:184|192:112,1,144,8|0
176,40,172451,1,0
112,72,172623,1,8
124,144,172794,6,0,B|176:200|256:192,1,144
320,160,173308,2,0,B|400:144|456:192,1,144,8|0
488,256,173823,1,0
456,320,173994,2,0,B|432:352|392:352,1,72,8|0
348,296,174337,6,0,B|324:264|284:264,1,72
220,292,174680,2,0,B|200:352|136:368,2,108,8|0|0
228,220,175366,1,8
208,152,175537,1,0
148,112,175708,6,0,B|112:96,4,36,0|0|0|0|8
256,16,176394,1,0
312,60,176566,2,0,B|344:84,4,36,0|0|8|0|0
368,104,177080,6,0,B|400:128|400:168,1,72
372,232,177423,1,8
144,280,177766,2,0,B|112:256|112:216,1,72
140,152,178109,1,8
256,192,178451,1,4
256,192,178623,12,4,179823
472,192,181194,5,0
256,48,182566,1,0
40,192,183937,1,0
256,336,185308,6,0,B|304:232|208:232|256:128,2,215.999993562699,0|8|0
328,184,187194,2,0,B|356:128|328:80,1,107.999996781349,8|0
288,44,187708,1,8
136,24,188051,6,0,B|96:24|72:56,1,72,4|0
44,120,188394,1,8
136,112,188566,2,0,B|116:147|132:184,1,72
173,240,188909,1,8
212,152,189080,2,0,B|232:186|271:191,1,72,8|8
341,183,189423,6,0,B|380:176|400:136,2,72,4|0|8
376,72,189937,2,0,B|424:56|476:96|469:154,1,144,0|8
463,186,190366,2,0,B|456:232,4,36,8|8|8|8|8
448,260,190794,6,0,B|440:296|408:320,1,72,4|0
344,352,191137,1,8
272,360,191308,1,0
200,360,191480,2,0,B|120:352|80:288,1,144,0|8
72,88,192166,5,0
16,132,192337,1,0
40,200,192508,1,8
112,200,192680,1,0
130,130,192851,2,0,B|168:64|248:56,1,144,0|8
444,116,193537,6,0,B|404:108|388:76,1,72
352,12,193880,1,8
316,74,194051,1,0
344,140,194223,2,0,B|396:196|476:188,1,144,0|8
468,260,194737,1,0
428,320,194908,5,0
228,304,195251,1,8
344,140,195594,1,0
428,320,195937,1,8
364,352,196108,1,0
292,348,196280,6,0,B|216:328|184:256,1,144,0|8
220,36,196966,2,0,B|296:56|328:128,1,144,0|8
480,48,197651,6,0,B|440:56|424:88,1,72
391,153,197994,1,8
376,224,198166,1,0
344,288,198337,2,0,B|296:352|216:352,1,144,0|8
52,288,199023,5,0
103,236,199194,1,0
175,239,199366,1,8
84,167,199537,1,0
144,128,199708,1,0
200,172,199880,1,0
164,60,200051,1,8
236,60,200223,1,0
256,128,200394,6,0,B|272:200|352:224,1,144,4|8
452,120,200908,2,0,B|436:48|356:24,1,144,0|8
320,16,201337,2,0,B|280:8,4,36,8|8|8|8|8
256,4,201766,6,0,B|216:0|184:24,1,72,4|8
112,64,202108,2,0,B|128:100|168:104,1,72,8|0
252,84,202451,2,0,B|264:120|240:156,1,72,0|8
192,204,202794,1,8
120,216,202966,1,0
56,248,203137,6,0,B|24:272|24:312,2,72,4|8|8
108,316,203651,2,0,B|128:352|168:352,1,72
238,351,203994,2,0,B|278:351,5,36,8|8|8|8|8|8
310,351,204508,6,0,B|352:352|376:320,1,72,4|0
468,328,204851,1,8
424,272,205023,2,0,B|380:208|404:128,1,144
448,80,205537,1,8
504,124,205708,1,0
465,185,205880,6,0,B|400:224|328:192,1,144,0|8
40,144,206566,2,0,B|105:105|177:137,1,144,0|8
240,176,207080,1,0
272,240,207251,6,0,B|284:276|264:312,1,72,4|8
160,344,207594,2,0,B|148:308|168:272,1,72,8|0
240,176,207937,2,0,B|296:128|376:144,1,144,0|8
440,176,208451,1,0
408,272,208623,6,0,B|372:284|336:268,1,72,4|8
272,240,208966,1,8
240,176,209137,1,0
196,120,209308,1,0
128,96,209480,2,0,B|88:88,5,36,8|8|8|8|8|8
56,96,209994,6,0,B|16:104|0:144,1,72,4|0
0,212,210337,1,8
88,192,210508,2,0,B|74:230|101:264,1,72
160,298,210851,1,0
184,216,211023,2,0,B|211:247|254:241,1,72,8|0
316,212,211366,6,0,B|347:189|347:149,2,72,0|0|8
304,88,211880,2,0,B|344:60|408:80|420:132,1,144
416,204,212394,1,8
392,272,212566,1,0
344,324,212737,6,0,B|320:352|280:352,1,72,4|8
280,264,213080,2,0,B|272:224|240:208,1,72,8|0
196,284,213423,2,0,B|168:312|128:304,1,72,0|8
60,288,213766,1,8
16,232,213937,1,0
8,160,214108,6,0,B|8:120|40:96,2,72,4|8|8
96,168,214623,2,0,B|136:168|160:128,1,72
192,72,214966,2,0,B|224:48,5,36,8|8|8|8|8|8
252,32,215480,6,0,B|324:8|396:48,1,144,4|8
432,120,215994,1,0
376,184,216166,2,0,B|304:208|232:168,1,144,0|8
176,132,216680,1,0
136,72,216851,5,2
216,288,217194,1,8
364,112,217537,1,2
136,72,217880,1,8
64,80,218051,1,0
24,140,218223,6,0,B|8:176|16:216,1,72,4|8
40,280,218566,1,8
40,280,218737,1,0
104,360,218908,2,0,B|120:324|112:284,1,72,0|8
88,220,219251,1,8
88,220,219422,1,0
112,152,219594,6,0,B|128:120|168:112,2,72,4|8|8
184,200,220108,2,0,B|200:232|240:240,1,72
312,232,220451,2,0,B|352:224,5,36,8|8|8|8|8|8
384,216,220966,6,0,B|424:208|440:176,1,72,4|0
448,104,221308,1,8
360,36,221480,2,0,B|324:52|312:92,1,72
320,160,221823,1,0
220,56,221994,2,0,B|212:96|228:128,1,72,8|0
256,192,222337,1,4
256,192,222423,12,0,223708
256,192,224908,6,0,B|256:232,2,36,8|8|8
