osu file format v7

[General]
AudioFilename: Yellow Zebra - Maizakura.mp3
AudioLeadIn: 0
PreviewTime: 88346
Countdown: 0
SampleSet: Soft
StackLeniency: 0.7
Mode: 0
LetterboxInBreaks: 0

[Editor]
Bookmarks: 17866,25150,45287,59426,73136,88561,102271
DistanceSpacing: 1
BeatDivisor: 4
GridSize: 8

[Metadata]
Title:Maizakura (Short Ver.)
Artist:Yellow Zebra
Creator:S i R i R u
Version:Hard
Source:Touhou
Tags:Fujimiya Yuki Saigyouji Yuyuko game

[Difficulty]
HPDrainRate:4
CircleSize:5
OverallDifficulty:7
SliderMultiplier:1.6
SliderTickRate:0.5

[Events]
//Background and Video events
0,0,"BG.jpg"
//Break Periods
2,32213,43542
//Storyboard Layer 0 (Background)
//Storyboard Layer 1 (Fail)
//Storyboard Layer 2 (Pass)
//Storyboard Layer 3 (Foreground)
//Storyboard Sound Samples
//Background Colour Transformations
3,100,255,255,255

[TimingPoints]
4585,428.571428571429,4,2,2,71,1,0
11013,-200,4,2,1,71,0,0
11442,-100,4,2,2,71,0,1
14760,-100,4,2,2,50,0,1
14974,-100,4,2,2,71,0,1
15617,-100,4,2,2,51,0,1
15831,-100,4,2,2,71,0,0
16585,-100,4,2,2,50,0,0
17442,-100,4,2,2,71,0,0
18295,-100,4,2,2,71,0,1
21615,-100,4,2,2,51,0,1
21830,-100,4,2,2,71,0,1
22472,-100,4,2,2,51,0,1
22686,-100,4,2,2,71,0,1
23329,-100,4,2,2,51,0,1
23543,-100,4,2,2,71,0,1
28471,-100,4,2,2,51,0,0
28685,-100,4,2,2,71,0,0
29327,-100,4,2,2,51,0,0
29542,-100,4,2,2,71,0,0
30299,-100,4,2,2,50,0,0
32013,-100,4,2,2,71,0,0
44870,-100,4,2,1,71,0,0
88561,-100,4,2,2,71,0,1
91906,-100,4,2,2,49,0,1
92120,-100,4,2,2,71,0,1
92763,-100,4,2,2,50,0,1
92977,-100,4,2,2,71,0,1
93620,-100,4,2,2,51,0,1
93835,-100,4,2,2,71,0,1
95442,-100,4,2,2,71,0,1
98763,-100,4,2,2,51,0,0
98977,-100,4,2,2,71,0,0
99620,-100,4,2,2,50,0,0
99835,-100,4,2,2,71,0,0
100477,-100,4,2,2,51,0,0
100692,-100,4,2,2,71,0,0
102271,-100,4,2,2,71,0,1
105620,-100,4,2,2,51,0,1
105835,-100,4,2,2,71,0,1
106477,-100,4,2,2,49,0,1
106692,-100,4,2,2,71,0,1
107442,-100,4,2,2,51,0,1
108727,-100,4,2,2,71,0,1
112477,-100,4,2,2,50,0,0
112692,-100,4,2,2,71,0,0
113335,-100,4,2,2,51,0,0
113549,-100,4,2,2,71,0,0
114299,-100,4,2,2,50,0,0
116013,-100,4,2,2,71,0,0

[Colours]
Combo1 : 237,41,41
Combo2 : 21,180,255
Combo3 : 255,36,255
Combo4 : 0,234,0

[HitObjects]
256,192,4585,1,4
256,192,6299,1,4
56,192,8013,5,4
256,56,8442,1,0
456,192,8870,1,4
256,328,9299,1,0
56,192,9727,1,4
256,192,10156,5,2
192,152,10370,2,0,B|212:96|309:98|327:168,1,160,2|0
256,192,11013,2,0,B|256:288,1,80,2|4
328,232,11656,6,0,B|384:232|416:264,1,80,0|8
352,312,12084,2,0,B|392:336|432:336,2,80
328,232,12727,2,0,B|328:64,1,160,8|0
192,160,13584,1,8
128,112,13799,1,0
280,160,14227,1,0
280,160,14334,1,0
280,160,14442,1,8
280,240,14656,1,0
176,320,14870,6,0,B|112:328|56:288|56:216,1,160,4|0
336,64,15727,2,0,B|400:56|456:96|456:168,1,160,4|0
256,192,16584,12,0,17442
128,96,17870,5,8
128,176,18085,1,0
128,256,18299,2,0,B|176:256|224:224|208:184|208:128,1,160,4|8
208,64,18942,2,0,B|264:64|304:112|280:152|288:216,1,160
288,256,19585,1,8
432,192,20013,6,0,B|432:128|360:128|360:40,1,160,0|8
440,56,20656,2,0,B|488:56,2,40
360,53,21085,1,0
280,56,21299,6,0,B|96:56,2,160,8|4|8
232,328,22585,2,0,B|416:328,2,160,4|8|4
152,328,23656,5,0
152,248,23870,1,8
80,288,24085,1,0
80,288,24192,1,0
80,288,24299,1,0
80,208,24513,1,0
80,208,24620,1,0
80,208,24727,1,8
152,168,24942,1,0
232,168,25156,6,0,B|312:160|304:248|392:232,1,160,4|8
448,232,25799,2,0,B|448:328,2,80
448,152,26442,1,8
304,80,26870,6,0,B|240:80|192:128|208:192,1,160,0|8
288,176,27513,2,0,B|288:272,1,80
208,328,27942,2,0,B|208:240,2,80,0|8|0
320,256,28585,5,4
192,128,29013,1,0
376,304,29442,1,4
136,80,29870,1,0
256,192,30299,12,4,32013
176,112,44442,5,2
176,112,44549,1,0
176,112,44656,1,0
336,112,44870,1,2
336,112,44977,1,0
336,112,45084,1,0
256,48,45299,5,2
256,88,45406,1,0
256,128,45513,1,2
256,168,45620,1,0
256,208,45727,1,4
216,280,45942,1,0
296,280,46156,1,0
296,280,46584,1,2
376,192,46906,5,0
376,152,47013,1,0
440,112,47227,1,0
376,64,47442,2,0,B|200:64,1,160,0|0
120,192,48299,1,2
120,272,48513,1,0
184,320,48727,6,0,B|272:320,3,80,0|0|4|0
232,248,49584,2,0,B|320:248,1,80,0|0
368,176,50013,2,0,B|280:176,1,80,2|0
344,104,50442,2,0,B|440:104,1,80
256,40,51084,5,0
176,40,51299,1,2
96,184,51727,1,0
176,184,51942,1,0
176,264,52156,6,0,B|232:264|248:216,1,80,2|0
176,184,52584,2,0,B|176:128,2,40,4|0|0
176,264,53013,2,0,B|176:360,2,80,0|0|2
256,264,53656,2,0,B|304:272|320:312,1,80
392,280,54084,2,0,B|376:232|320:184|248:184,1,160
192,184,54727,1,0
32,184,55156,1,2
112,184,55370,6,0,B|112:96,1,80
152,256,55799,2,0,B|152:344,1,80,0|4
192,184,56227,2,0,B|192:88,2,80
232,256,56870,2,0,B|232:352,1,80,2|0
272,184,57299,2,0,B|272:88,2,80,0|0|2
312,256,57942,1,0
312,256,58156,1,0
456,192,58584,5,4
456,192,58692,1,0
456,192,58799,1,0
456,192,58906,1,0
456,192,59013,1,8
416,120,59227,1,0
336,120,59442,6,0,B|248:120,1,80,4|0
176,120,59870,2,0,B|176:184|240:208|272:192|328:192,1,160,8|0
336,256,60513,1,0
336,256,60620,1,0
336,256,60727,1,8
296,320,60942,2,0,B|200:320,1,80
136,320,61370,1,0
56,320,61584,1,8
104,168,62013,1,0
104,88,62227,6,0,B|192:88,1,80,0|8
256,48,62656,2,0,B|288:88|248:136,1,80
184,88,63084,2,0,B|152:128|192:176,1,80,0|8
256,192,63513,2,0,B|288:232|248:280,1,80
184,232,63942,2,0,B|152:272|192:320,2,80,0|8|0
336,192,64799,6,0,B|440:192,1,80,0|8
384,120,65227,2,0,B|440:120|448:64,2,80
304,120,65870,1,8
256,56,66084,1,0
176,56,66299,1,4
144,240,66620,5,0
144,280,66727,1,8
224,264,66942,2,0,B|272:264|288:304,2,80
224,184,67584,1,8
304,184,67799,2,0,B|296:136|264:112|216:112,1,120
221,112,68227,1,0
144,112,68442,2,0,B|80:112|32:152|40:232,1,160,8|0
120,208,69084,1,0
176,264,69299,6,0,B|272:264,1,80,8|0
368,192,69727,2,0,B|280:192,1,80
400,120,70156,2,0,B|488:120,2,80,8|0|0
320,120,70799,1,0
240,120,71013,1,8
320,120,71227,6,0,B|312:72|272:40|232:40|192:56,1,160
160,120,71870,2,0,B|160:232,1,80,8|0
232,224,72299,1,0
232,264,72406,1,0
192,264,72513,1,0
192,304,72620,1,0
152,304,72727,1,8
72,304,72942,1,0
72,224,73156,5,4
72,224,73370,1,0
72,144,73584,2,0,B|72:104|112:64|160:64,1,120,8|0
192,64,74013,2,0,B|368:64,1,160,0|8
400,128,74656,1,0
456,72,74870,1,0
400,128,75084,2,0,B|400:232,1,80,0|8
344,264,75513,1,0
264,264,75727,2,0,B|264:360,2,80,0|0|8
256,48,76584,5,0
184,192,77013,1,8
104,192,77227,1,0
64,192,77334,1,0
104,192,77442,1,0
184,192,77656,2,0,B|184:288,2,80,0|8|0
184,112,78299,6,0,B|248:112|272:168|264:199|264:240,2,160,4|8|4
104,112,79370,2,0,B|104:64|152:40,2,80,0|8|0
104,192,80013,1,4
104,312,80334,1,0
104,312,80442,1,8
184,312,80656,1,0
264,312,80870,6,0,B|320:312|320:240|408:240,1,160,0|8
400,320,81513,1,0
401,240,81727,2,0,B|400:64,1,160,0|8
328,120,82370,1,0
248,120,82584,2,0,B|248:208,2,80,0|0|8
328,120,83227,1,0
288,56,83442,6,0,B|224:24|160:72|176:136,1,160,4|8
176,200,84084,1,0
176,280,84299,2,0,B|232:280|280:216|240:152,1,160,4|8
176,200,84942,1,0
96,200,85156,6,0,B|96:296,2,80,4|0|8
136,128,85799,2,0,B|136:80,2,40,2|0|0
176,200,86227,1,2
200,232,86334,1,0
240,232,86442,1,8
320,232,86656,1,0
256,312,86870,5,4
256,312,87192,1,2
216,48,87513,1,2
296,48,87727,1,2
256,120,87942,6,0,B|256:176,6,40,0|0|8|0|0|0|4
112,192,89013,5,8
112,272,89227,2,0,B|208:272,1,80
192,272,89656,2,0,B|296:272,1,80,0|8
352,272,90084,1,0
408,208,90299,2,0,B|464:232|464:328|392:344,1,160,0|8
352,272,90942,1,0
272,272,91156,2,0,B|272:104,2,160,0|8|4
192,272,92227,1,0
112,192,92442,5,8
400,192,92870,1,4
96,120,93299,1,8
416,120,93727,1,4
336,120,93942,5,0
256,120,94156,2,0,B|256:64|304:48,1,80,8|0
336,120,94584,1,0
336,160,94692,1,0
336,200,94799,1,0
384,264,95013,1,8
112,192,95442,6,0,B|112:280,1,80,4|0
184,232,95870,2,0,B|232:224|256:272,1,80,8|0
184,312,96299,1,0
184,312,96513,2,0,B|184:360,2,40,0|0|8
184,152,97156,6,0,B|192:88|136:48|80:48,1,160,0|8
87,48,97799,1,0
88,128,98013,2,0,B|80:192|144:240|192:224,1,160,0|8
256,40,98870,5,4
256,200,99299,1,8
256,120,99513,2,0,B|312:120|328:176,1,80,0|4
256,200,99942,1,0
256,200,100156,2,0,B|256:368,2,160,8|4|8
184,232,101227,2,0,B|184:304,2,40
112,200,101656,5,0
80,184,101763,1,0
48,200,101870,1,8
80,272,102084,1,0
80,352,102299,1,4
256,152,102727,5,8
336,152,102942,2,0,B|424:152,1,80
296,80,103370,2,0,B|248:56|208:88,1,80,0|8
256,152,103799,2,0,B|256:240,1,80
256,312,104227,2,0,B|256:360,2,40,0|0|8
176,312,104656,2,0,B|120:312|64:272|72:192,1,160
72,136,105299,2,0,B|136:136|144:208,1,80,8|0
71,213,105727,5,4
256,336,106156,1,8
440,216,106584,1,4
256,336,107013,1,8
256,192,107442,12,8,108727
256,192,109156,6,0,B|256:104,1,80,4|0
336,192,109584,2,0,B|336:248|272:272,1,80,8|0
256,192,110013,2,0,B|88:192,1,160,0|8
192,64,110870,5,0
256,112,111084,1,0
320,64,111299,1,8
256,112,111513,1,0
256,192,111727,2,0,B|224:240|296:288|256:352,2,160,0|8|4
56,192,113013,5,8
256,48,113442,1,4
456,192,113870,1,8
256,192,114299,12,4,116013
