osu file format v7

[General]
AudioFilename: www.dotup.org854607.mp3
AudioLeadIn: 3000
PreviewTime: 59951
Countdown: 0
SampleSet: Soft
StackLeniency: 0.7
Mode: 0
LetterboxInBreaks: 1

[Editor]
Bookmarks: 25027,193754
DistanceSpacing: 1
BeatDivisor: 4
GridSize: 8

[Metadata]
Title:I know
Artist:Yellow Zebra
Creator:termerys
Version:Hard
Source:Touhou
Tags:Fujimaya Yuki game Patchouli Knowledge

[Difficulty]
HPDrainRate:4
CircleSize:4
OverallDifficulty:7
SliderMultiplier:1.5
SliderTickRate:1

[Events]
//Background and Video events
0,0,"Konachan.com - 45455 korie_riko patchouli_knowledge touhou.jpg"
//Break Periods
2,84853,89389
2,132671,143389
2,156125,160480
//Storyboard Layer 0 (Background)
//Storyboard Layer 1 (Fail)
//Storyboard Layer 2 (Pass)
//Storyboard Layer 3 (Foreground)
//Storyboard Sound Samples
//Background Colour Transformations
3,100,163,162,255

[TimingPoints]
290,363.636363636364,4,1,0,30,1,0
48290,-100,4,2,0,50,0,0
50926,-100,4,1,0,30,0,0
51290,-100,4,2,0,50,0,0
53835,-100,4,1,0,30,0,0
54199,-100,4,2,0,50,0,0
57017,-100,4,1,0,35,0,0
58471,-100,4,1,0,40,0,0
59926,-100,4,1,0,50,0,1
84653,-100,4,1,0,30,0,0
96290,-100,4,2,0,50,0,0
105017,-100,4,1,0,35,0,0
106471,-100,4,1,0,40,0,0
107926,-100,4,1,0,50,0,1
132653,-100,4,1,0,30,0,0
147199,-200,4,1,0,30,0,0
148653,-100,4,1,0,30,0,0
150108,-100,4,1,0,40,0,0
155926,-100,4,2,0,50,0,0
161744,-100,4,1,0,40,0,0
164653,-100,4,1,0,44,0,0
166108,-100,4,1,0,50,0,0
167562,-100,4,1,0,60,0,1
178835,-100,4,1,0,45,0,0
179017,-100,4,1,0,60,0,1
190835,-100,4,2,0,0,0,0

[HitObjects]
256,32,25017,2,0,B|320:96|248:168,1,150,0|8
216,96,25562,1,0
216,96,25744,2,0,B|152:160|232:224,1,150,0|8
296,224,26290,1,0
368,224,26471,2,0,B|256:392|128:216,2,300
368,72,28290,1,8
496,144,28653,2,0,B|416:144,2,75,0|0|8
496,296,29380,1,0
424,288,29562,5,0
352,312,29744,1,8
288,272,29926,1,0
240,328,30108,1,0
216,256,30290,2,0,B|168:256,2,37.5,0|0|8
200,184,30653,1,8
128,184,30835,6,0,B|48:128|128:56,1,150,4|8
168,120,31380,1,0
168,120,31562,2,0,B|328:120,1,150,0|8
360,56,32108,1,0
360,56,32290,2,0,B|200:56,1,150,0|8
136,56,32835,2,0,B|40:176,1,150
48,248,33380,1,8
160,352,33744,5,0
312,352,34108,1,8
240,352,34290,2,0,B|240:264,2,75
240,352,34835,1,8
352,352,35108,5,0
392,352,35199,1,0
472,224,35562,1,8
432,288,35744,2,0,B|488:360,2,75
432,288,36290,1,8
376,240,36471,1,0
416,176,36653,6,0,B|496:120|416:48,1,150,0|8
376,112,37199,1,0
376,112,37380,2,0,B|224:112,1,150,0|8
152,112,37926,1,0
80,112,38108,1,0
80,112,38471,1,8
80,184,38653,1,0
80,256,38835,1,0
80,256,39199,1,8
152,256,39380,1,0
256,192,39562,12,0,41017
256,192,41199,5,0
184,192,41380,1,0
224,256,41562,1,0
296,256,41744,1,0
336,192,41926,1,0
296,128,42108,1,0
224,128,42289,2,0,B|224:48,1,75
96,128,42835,5,8
96,128,43017,2,0,B|96:32,1,75
96,200,43562,1,8
96,200,43744,2,0,B|96:296,1,75
224,352,44289,1,8
224,352,44471,1,0
376,352,44835,1,0
376,352,45017,1,8
304,224,45380,6,0,B|240:288|304:360,2,150,0|8|0
304,152,46289,1,0
304,152,46471,1,8
192,152,46744,1,0
192,152,46835,1,0
344,152,47199,2,0,B|344:64,2,75,8|0|0
416,152,47744,1,0
416,224,47926,1,8
416,224,48017,1,0
416,224,48108,1,8
416,296,48289,5,0
264,296,48653,1,2
192,296,48835,2,0,B|96:296,1,75
192,168,49380,1,2
192,168,49562,2,0,B|32:168,1,150
40,240,50108,1,2
40,240,50289,2,0,B|208:240,1,150
264,240,50835,1,2
264,168,51017,1,0
264,168,51108,1,0
264,168,51199,6,0,B|224:96|272:16,1,150,0|2
344,24,51744,1,0
344,24,51926,2,0,B|392:112|336:176,1,150,0|2
304,104,52471,1,0
304,104,52653,2,0,B|304:256,1,150,0|2
360,296,53199,1,0
360,296,53380,2,0,B|336:336|296:360|256:328|240:288,1,150,0|2
200,240,53926,6,0,B|144:240,2,37.5,0|0|0
200,168,54289,2,0,B|200:88,1,75,0|2
128,96,54653,1,0
128,96,54835,2,0,B|80:168|128:248,2,150,0|2|0
56,96,55744,1,0
56,96,55926,2,0,B|16:168|56:256,1,150,2|0
48,312,56471,1,0
48,312,56653,2,0,B|136:312,1,75,2|0
200,312,57017,5,0
368,192,57380,1,0
224,56,57744,1,0
448,56,58108,1,0
448,56,58289,1,0
448,152,58471,5,0
272,144,58835,1,0
120,144,59199,2,0,B|208:144,1,75,0|0
195,144,59471,1,0
195,144,59562,1,8
160,208,59744,1,8
296,264,59926,5,0
408,264,60199,1,0
408,264,60289,1,8
352,208,60471,2,0,B|352:120,1,75
304,32,60926,1,0
272,48,61017,1,8
200,72,61199,1,0
128,72,61380,6,0,B|40:72,2,75,0|0|8
128,72,61926,2,0,B|128:152,1,75
128,256,62380,1,0
128,256,62471,1,8
200,256,62653,1,0
200,328,62835,2,0,B|112:328,2,75,0|0|8
200,328,63380,2,0,B|288:328,1,75
352,328,63744,1,0
352,328,63926,1,8
424,328,64108,5,0
424,256,64289,2,0,B|336:256,1,75
384,192,64653,2,0,B|304:192,1,75,8|0
352,128,65017,2,0,B|232:128,1,112.5
239,128,65380,1,8
168,128,65562,1,0
96,128,65744,1,0
128,192,65926,5,0
128,192,66017,1,0
128,192,66108,1,8
56,192,66289,2,0,B|8:192,2,37.5
56,264,66653,2,0,B|136:264,1,75,0|8
208,264,67017,1,0
360,264,67380,6,0,B|360:344,2,75,0|8|0
360,264,67926,2,0,B|360:136,1,112.5
360,112,68289,1,8
360,112,68471,1,0
208,112,68835,5,0
136,136,69017,1,8
112,208,69199,1,0
120,280,69380,1,0
216,344,69653,1,0
216,304,69744,1,8
208,232,69926,1,0
208,232,70017,1,0
208,232,70108,1,0
280,232,70289,2,0,B|280:144,1,75,0|8
352,160,70653,2,0,B|352:240,1,75
424,232,71017,1,0
424,160,71199,1,8
384,96,71380,1,0
232,104,71562,6,0,B|80:104,1,150,0|8
120,40,72108,1,0
192,40,72289,1,0
304,40,72562,1,0
304,40,72653,1,8
376,40,72835,2,0,B|456:40,1,75
480,112,73199,6,0,B|480:208,2,75,0|8|0
408,104,73744,2,0,B|320:192,1,112.5
328,183,74108,1,8
280,240,74289,1,0
256,168,74471,1,0
184,168,74653,2,0,B|184:80,2,75,0|8|0
184,240,75199,1,0
184,240,75289,1,0
184,240,75380,1,0
184,312,75562,1,8
248,280,75744,6,0,B|408:280,1,150
400,208,76289,1,8
400,208,76471,2,0,B|240:208,1,150
248,136,77017,2,0,B|376:136,1,112.5,8|0
400,136,77380,1,0
400,64,77562,5,0
328,64,77744,1,8
256,64,77926,1,0
184,64,78108,1,0
112,64,78289,2,8,B|32:64|32:112,1,75,0|8
40,160,78653,1,0
112,128,78835,1,0
112,128,79017,6,0,B|112:208,1,75,0|8
184,200,79380,1,0
184,200,79562,2,0,B|184:112,2,75,0|0|8
184,272,80108,1,0
248,232,80289,1,0
312,200,80471,6,0,B|312:152,2,37.5,0|0|8
312,272,80835,1,0
376,232,81017,2,0,B|496:232,2,112.5
376,232,81744,1,0
376,160,81926,1,0
376,160,82017,1,0
376,160,82108,1,8
376,88,82289,2,0,B|288:88,1,75
224,88,82653,1,0
224,88,82835,1,8
256,192,83017,12,4,84653
256,104,90289,6,0,B|256:192,1,75
128,104,90835,1,8
64,144,91017,1,0
128,176,91199,1,0
128,328,91562,1,8
200,328,91744,1,0
272,328,91926,1,0
424,328,92289,2,8,B|424:240,1,75,8|0
424,104,92835,2,8,B|424:192,1,75,0|8
256,192,93380,12,4,94471
256,328,94744,5,0
256,328,94835,1,0
192,192,95199,6,0,B|192:104,1,75,8|0
320,192,95744,1,0
256,152,95926,1,8
256,192,96017,1,0
256,232,96108,1,0
256,272,96199,1,0
256,312,96289,1,4
400,288,96653,5,2
400,216,96835,2,0,B|400:136,1,75
256,88,97380,1,2
184,88,97562,2,0,B|80:88,1,75
40,128,97926,1,0
104,168,98108,2,0,B|192:168,2,75,2|0|0
40,208,98653,1,0
40,208,98835,1,0
40,280,99017,6,0,B|144:280,1,75
264,280,99562,2,0,B|168:280,2,75,2|0|0
416,280,100289,2,0,B|328:280,1,75,2|0
344,208,100653,2,0,B|440:208,1,75
416,136,101017,2,0,B|336:136,1,75,2|0
264,136,101380,1,0
264,64,101562,1,0
200,104,101744,1,2
200,176,101926,5,0
200,176,102017,1,0
200,176,102108,1,0
136,136,102289,2,0,B|136:48,2,75,0|2|0
136,136,102835,2,0,B|136:216,2,75,0|0|2
64,136,103380,1,0
104,72,103562,1,0
176,72,103744,2,0,B|264:72,1,75,0|2
208,136,104108,1,0
208,136,104289,2,0,B|296:136,2,75,0|0|2
208,208,104835,5,0
208,208,104926,1,0
208,208,105017,1,0
472,352,105380,1,0
432,56,105744,1,0
384,200,106108,5,0
312,168,106289,2,0,B|384:120,1,75
440,160,106653,2,0,B|456:240,1,75
392,280,107017,2,0,B|304:224,2,75
320,312,107562,1,8
320,312,107653,1,0
320,312,107744,1,8
248,312,107926,5,0
248,200,108199,1,0
248,200,108289,1,8
200,256,108471,2,0,B|112:256,1,75
48,256,108835,2,0,B|48:168,1,75,0|8
120,184,109199,1,0
120,112,109380,1,0
184,152,109562,5,0
184,152,109653,1,0
184,152,109744,1,8
248,112,109926,2,0,B|336:112,1,75
320,40,110289,2,0,B|240:40,1,75,0|8
184,80,110653,2,0,B|184:240,1,150
112,240,111199,1,8
152,304,111380,1,0
224,304,111562,1,0
264,240,111744,1,0
264,168,111926,5,8
264,96,112108,2,0,B|376:96,1,75
392,152,112471,2,0,B|304:152,1,75,0|8
320,224,112835,2,0,B|320:304,1,75
384,264,113199,1,0
384,264,113289,1,0
384,264,113380,1,8
456,264,113562,6,0,B|488:192|448:112,1,150
448,40,114108,2,0,B|368:40,1,75,8|0
296,40,114471,1,0
232,72,114653,1,0
200,56,114744,1,0
168,40,114835,1,8
104,72,115017,1,0
104,144,115199,1,0
104,216,115380,6,0,B|104:304,1,75,0|8
176,288,115744,2,0,B|176:200,2,75
248,288,116289,1,8
288,288,116380,1,0
328,288,116471,1,0
400,288,116653,1,0
400,216,116835,6,0,B|400:136,1,75,0|8
328,144,117199,2,0,B|328:224,2,75
328,72,117744,1,8
288,72,117835,1,0
248,72,117926,1,0
176,72,118108,1,0
176,144,118289,6,0,B|96:144,2,75,0|8|0
176,144,118835,2,0,B|264:144,2,75,0|0|8
176,216,119380,1,0
288,320,119562,5,0
288,208,119835,1,0
288,208,119926,1,8
352,248,120108,2,0,B|352:160,1,75
352,96,120471,2,0,B|264:96,2,75,0|8|0
424,96,121017,6,0,B|424:272,1,150,0|8
424,320,121562,1,0
352,320,121744,2,0,B|264:320,1,75
200,320,122108,2,0,B|112:320,1,75,8|0
48,320,122471,1,0
48,248,122653,5,0
48,248,122744,1,0
48,248,122835,1,8
48,176,123017,2,0,B|48:96,1,75
120,128,123380,2,0,B|120:48,1,75,0|8
192,72,123744,2,0,B|256:144|336:56,1,150
400,72,124289,2,0,B|464:136|400:216,1,150,8|0
368,144,124835,2,0,B|288:144,1,75,0|8
216,144,125199,5,0
216,216,125380,2,0,B|128:216,2,75,0|0|8
216,216,125926,2,0,B|216:304,2,75
280,256,126471,1,8
352,256,126653,1,0
424,256,126835,5,0
424,104,127199,2,0,B|328:104,2,75,8|0|0
424,176,127744,2,0,B|336:176,1,75,0|8
272,176,128108,1,0
200,176,128289,5,0
200,104,128471,2,0,B|112:104,1,75,0|8
48,104,128835,2,0,B|48:192,1,75
48,256,129199,2,0,B|136:256,1,75,0|8
200,256,129562,1,0
272,256,129744,1,0
344,256,129926,1,0
344,328,130108,2,0,B|192:328,2,150,8|0|8
256,192,131017,12,4,132471
256,64,144289,6,0,B|200:144|256:224,1,150
296,152,144835,2,0,B|336:224|280:296,1,150
208,296,145380,1,0
56,296,145744,1,0
128,168,146108,1,0
128,168,146289,2,0,B|128:88,2,75
128,240,146835,1,0
192,200,147199,6,0,B|344:200,2,150
264,64,149017,1,0
264,64,149199,1,0
416,64,149562,2,0,B|496:64,2,75
456,128,150108,5,0
400,176,150289,2,0,B|472:232,1,75
384,240,150653,2,0,B|456:296,1,75
392,344,151017,2,0,B|320:288,1,75
280,344,151380,2,0,B|208:296,1,75
152,336,151744,1,0
152,336,151926,1,0
80,336,152108,1,0
80,336,152289,1,0
120,192,152653,6,0,B|120:104,2,75
184,160,153199,2,0,B|296:160,1,75
224,96,153562,2,0,B|312:96,1,75
264,32,153926,2,0,B|360:32,1,75
488,32,154471,2,0,B|488:192|272:192,2,300,0|0|4
264,160,161380,6,0,B|264:80,2,75
264,312,162108,2,0,B|264:216,2,75
112,312,162835,2,0,B|112:224,1,75
48,272,163199,2,0,B|48:192,1,75
112,160,163562,2,0,B|112:80,1,75
176,120,163926,1,0
176,272,164289,2,0,B|176:208,4,37.5
264,152,165017,5,0
264,224,165199,1,0
328,192,165380,1,0
392,224,165562,2,0,B|392:136,2,75
328,264,166108,1,0
200,344,166471,2,0,B|48:344,1,150
88,280,167017,1,0
160,280,167199,1,8
160,280,167289,1,0
160,280,167380,1,8
128,216,167562,5,0
128,64,167926,1,8
128,136,168108,2,0,B|216:136,1,75
280,136,168471,1,0
352,136,168653,2,0,B|448:136,1,75,8|0
352,272,169199,6,0,B|352:192,2,75,0|8|0
288,232,169744,2,0,B|200:232,1,75
136,232,170108,1,8
136,232,170289,1,0
216,360,170653,5,0
216,360,170835,1,8
368,360,171199,2,0,B|480:360,2,75,0|0|8
408,296,171744,2,0,B|408:144,1,150
344,184,172289,1,8
344,32,172653,1,0
344,104,172835,2,0,B|256:104,1,75,0|8
192,104,173199,1,0
192,104,173380,5,0
120,104,173562,2,0,B|32:104,2,75,0|8|0
120,176,174108,2,0,B|120:264,1,75
184,216,174471,1,8
184,216,174653,1,0
336,216,175017,5,0
264,216,175199,2,0,B|264:128,2,75,8|0|0
264,288,175744,2,0,B|352:288,1,75,0|8
416,288,176108,1,0
416,136,176471,6,0,B|416:48,2,75,0|8|0
352,104,177017,2,0,B|264:104,1,75
200,104,177380,1,8
128,104,177562,2,0,B|128:200,1,75
64,144,177926,2,0,B|64:224,1,75,0|8
64,296,178289,1,0
64,296,178471,1,0
128,336,178653,2,0,B|128:256,1,75,0|8
192,296,179017,1,0
344,296,179199,5,0
272,296,179380,2,0,B|272:192,1,75,0|8
272,144,179744,2,0,B|360:144,2,75
272,144,180289,2,0,B|112:144,1,150,8|0
120,216,180835,1,0
192,216,181017,2,0,B|192:64,1,150,8|0
264,72,181562,1,0
264,72,181653,1,0
264,72,181744,1,8
336,72,181926,2,0,B|416:72,1,75
416,144,182289,6,0,B|416:224,1,75,0|8
480,184,182653,2,0,B|480:272,1,75
480,336,183017,2,0,B|320:336,1,150
256,336,183562,1,0
184,336,183744,2,0,B|184:288,2,37.5,0|0|8
112,336,184108,2,0,B|48:272,1,75
56,168,184562,1,0
56,128,184653,1,8
56,56,184835,2,0,B|152:56,1,75
208,56,185199,5,0
264,112,185380,1,8
208,160,185562,1,0
264,208,185744,2,0,B|352:208,2,75,0|0|8
208,264,186289,1,0
360,264,186653,6,0,B|448:264,2,75,0|8|0
400,200,187199,1,0
448,144,187380,2,0,B|448:64,1,75,0|8
400,128,187744,1,0
248,128,188108,6,0,B|160:128,1,75,0|8
208,192,188471,2,0,B|96:192,1,75
56,192,188835,1,0
96,256,189017,2,0,B|176:256,1,75,8|0
136,320,189380,2,0,B|224:320,1,75
288,320,189744,1,8
288,248,189926,1,0
288,176,190108,1,0
288,104,190289,1,0
256,192,190471,12,0,193744
