osu file format v12

[General]
AudioFilename: Happy Sunday1.mp3
AudioLeadIn: 0
PreviewTime: 49059
Countdown: 0
SampleSet: Normal
StackLeniency: 0.7
Mode: 0
LetterboxInBreaks: 1
WidescreenStoryboard: 0

[Editor]
Bookmarks: 17558,35146,87028
DistanceSpacing: 0.7
BeatDivisor: 4
GridSize: 4

[Metadata]
Title:Happy Sunday
TitleUnicode:Happy Sunday
Artist:Yellow Zebra
ArtistUnicode:Yellow Zebra
Creator:yametekure4
Version:Lunatic
Source:Touhou
Tags:yuki fujimiya sound of chord Locked Girl
BeatmapID:211032
BeatmapSetID:74055

[Difficulty]
HPDrainRate:7
CircleSize:4
OverallDifficulty:7
ApproachRate:8
SliderMultiplier:1.7
SliderTickRate:2

[Events]
//Background and Video events
0,0,"bg1.jpg",0,0
//Break Periods
2,76082,85014
//Storyboard Layer 0 (Background)
//Storyboard Layer 1 (Fail)
//Storyboard Layer 2 (Pass)
//Storyboard Layer 3 (Foreground)
//Storyboard Sound Samples
//Background Colour Transformations
3,100,163,162,255

[TimingPoints]
1059,352.941176470588,4,2,1,60,1,0
49058,-100,4,1,0,70,0,1
74823,-100,4,1,0,55,0,1
75176,-100,4,1,0,40,0,1
75529,-100,4,1,0,30,0,1
75882,-100,4,1,0,15,0,0
87176,-100,4,2,1,60,0,0
123882,-100,4,1,0,70,0,1
149647,-100,4,1,0,50,0,1
150000,-100,4,1,0,30,0,1
150353,-100,4,1,0,10,0,1
150706,-100,4,1,0,25,0,0

[Colours]
Combo1 : 239,63,63
Combo2 : 179,49,193
Combo3 : 236,239,99
Combo4 : 240,240,240

[HitObjects]
64,200,10941,2,0,B|147:234|211:94|303:118,1,255,4|0,0:0|0:0,0:0:0:0:
284,212,11647,1,0,0:0:0:0:
379,267,11823,1,0,0:0:0:0:
472,212,12000,1,0,0:0:0:0:
487,161,12088,1,0,0:0:0:0:
477,110,12176,1,0,0:0:0:0:
444,69,12264,1,0,0:0:0:0:
395,49,12352,1,4,0:0:0:0:
168,192,12706,6,0,P|169:238|191:272,1,85,8|0,0:0|0:0,0:0:0:0:
240,128,13058,2,0,P|180:95|150:100,1,85
76,124,13411,1,8,0:0:0:0:
44,220,13588,1,0,0:0:0:0:
80,312,13764,6,0,P|108:344|160:360,2,85,0|0|8,0:0|0:0|0:0,0:0:0:0:
132,228,14294,2,0,P|220:244|276:324,1,170,0|8,0:0|0:0,0:0:0:0:
352,356,14823,2,0,P|364:316|352:260,1,85,8|0,0:0|0:0,0:0:0:0:
300,80,15176,5,0,0:0:0:0:
400,116,15353,1,0,0:0:0:0:
344,200,15529,2,0,P|300:224|236:220,1,85,8|0,0:0|0:0,0:0:0:0:
192,160,15882,2,0,P|148:145|96:156,1,85,0|0,0:0|0:0,0:0:0:0:
48,232,16235,1,8,0:0:0:0:
51,278,16323,1,0,0:0:0:0:
82,312,16411,1,0,0:0:0:0:
127,325,16500,1,0,0:0:0:0:
172,320,16588,5,8,0:0:0:0:
232,216,16764,1,8,0:0:0:0:
305,312,16941,1,8,0:0:0:0:
172,320,17117,1,4,0:0:0:0:
204,100,17470,5,0,0:0:0:0:
300,56,17647,1,0,0:0:0:0:
204,100,17823,1,0,0:0:0:0:
112,56,18000,6,0,P|44:100|28:184,1,170,4|8,0:0|0:0,0:0:0:0:
104,232,18529,1,0,0:0:0:0:
192,204,18706,2,0,P|212:256|252:288,1,85
268,152,19058,2,0,P|240:116|192:100,1,85,8|0,0:0|0:0,0:0:0:0:
312,296,19411,5,0,0:0:0:0:
312,296,19500,1,0,0:0:0:0:
312,296,19588,1,0,0:0:0:0:
240,340,19764,1,8,0:0:0:0:
192,272,19941,2,0,P|128:316|68:316,1,127.5
40,308,20294,1,8,0:0:0:0:
8,208,20470,1,8,0:0:0:0:
80,104,20647,1,0,0:0:0:0:
120,232,20823,6,0,P|156:300|244:320,1,170,0|8,0:0|0:0,0:0:0:0:
316,272,21353,1,0,0:0:0:0:
364,360,21529,2,0,P|404:300|388:196,1,170,0|8,0:0|0:0,0:0:0:0:
412,116,22058,1,0,0:0:0:0:
480,200,22235,5,8,0:0:0:0:
328,172,22411,1,8,0:0:0:0:
220,252,22588,1,8,0:0:0:0:
276,360,22764,2,0,P|304:320|304:272,1,85
368,216,23117,5,8,0:0:0:0:
296,152,23294,1,8,0:0:0:0:
200,184,23470,1,0,0:0:0:0:
108,132,23647,6,0,P|116:52|208:-4,2,170,4|8|0,0:0|0:0|0:0,0:0:0:0:
128,224,24529,1,0,0:0:0:0:
108,132,24706,1,8,0:0:0:0:
12,104,24882,1,0,0:0:0:0:
60,272,25058,6,0,P|97:297|148:302,1,85
228,312,25411,1,8,0:0:0:0:
276,232,25588,1,0,0:0:0:0:
371,265,25764,2,0,P|389:280|410:336,2,85,0|8|8,0:0|0:0|0:0,0:0:0:0:
371,265,26294,1,0,0:0:0:0:
384,152,26470,6,0,P|336:136|292:140,1,85
304,52,26823,2,0,P|257:72|227:104,1,85,8|0,0:0|0:0,0:0:0:0:
164,36,27176,2,0,P|153:85|161:128,1,85
172,208,27529,1,8,0:0:0:0:
213,299,27706,1,0,0:0:0:0:
135,371,27882,5,8,0:0:0:0:
45,321,28058,1,8,0:0:0:0:
65,217,28235,1,8,0:0:0:0:
172,208,28411,2,0,P|280:256|356:232,1,170,4|0,0:0|0:0,0:0:0:0:
326,247,28941,1,8,0:0:0:0:
340,23,29294,5,4,0:0:0:0:
248,56,29470,2,0,P|199:89|179:135,1,85,0|8,0:0|0:0,0:0:0:0:
216,196,29823,1,0,0:0:0:0:
288,128,30000,2,0,P|311:126|370:141,2,85,0|0|8,0:0|0:0|0:0,0:0:0:0:
416,236,30529,1,0,0:0:0:0:
415,236,30706,6,0,P|356:284|251:296,1,170,0|8,0:0|0:0,0:0:0:0:
184,244,31235,1,0,0:0:0:0:
196,132,31411,2,0,P|232:180|260:188,1,85,0|8,0:0|0:0,0:0:0:0:
376,228,31764,2,0,P|332:264|316:300,1,85,8|0,0:0|0:0,0:0:0:0:
483,198,32117,6,0,P|443:130|360:108,1,127.5,0|0,0:0|0:0,0:0:0:0:
360,92,32470,1,8,0:0:0:0:
256,100,32647,1,0,0:0:0:0:
312,196,32823,2,0,P|286:226|246:246,1,85,0|8,0:0|0:0,0:0:0:0:
64,216,33176,2,0,P|88:184|128:164,1,85,8|0,0:0|0:0,0:0:0:0:
216,312,33529,2,0,P|268:352|388:348,1,170,4|8,0:0|0:0,0:0:0:0:
256,192,34058,12,4,34941,0:0:0:0:
340,244,35294,6,0,P|420:204|508:208,2,170,0|0|2,0:0|0:0|0:0,0:0:0:0:
280,304,36176,1,0,0:0:0:0:
115,322,36353,2,0,P|116:280|144:232,1,85
196,300,36706,1,0,0:0:0:0:
36,352,36882,6,0,P|32:280|72:192,1,170
140,140,37411,1,2,0:0:0:0:
224,116,37588,1,0,0:0:0:0:
140,140,37764,2,0,P|204:196|294:217,1,170,4|2,0:0|0:0,0:0:0:0:
472,348,38470,5,0,0:0:0:0:
428,276,38647,1,0,0:0:0:0:
504,244,38823,1,2,0:0:0:0:
452,176,39000,1,0,0:0:0:0:
368,192,39176,6,0,P|284:216|188:192,2,170,0|2|0,0:0|0:0|0:0,0:0:0:0:
384,108,40059,1,0,0:0:0:0:
288,104,40235,1,2,0:0:0:0:
224,180,40411,1,0,0:0:0:0:
196,276,40588,6,0,P|232:324|340:352,2,170,4|2|0,0:0|0:0|0:0,0:0:0:0:
208,56,41647,1,2,0:0:0:0:
28,192,42000,6,0,P|0:276|28:364,2,170,0|2|0,0:0|0:0|0:0,0:0:0:0:
120,220,42882,1,0,0:0:0:0:
212,260,43059,1,2,0:0:0:0:
320,264,43235,1,0,0:0:0:0:
424,216,43411,6,0,P|463:188|492:143,2,85,4|8|0,0:0|0:0|0:0,0:0:0:0:
352,156,43941,1,8,0:0:0:0:
352,60,44117,2,0,P|312:49|268:53,2,85,0|0|8,0:0|0:0|0:0,0:0:0:0:
88,184,44823,5,4,0:0:0:0:
144,108,45000,2,0,P|208:96|256:112,2,85,0|8|0,0:0|0:0|0:0,0:0:0:0:
88,184,45529,1,0,0:0:0:0:
176,216,45706,2,0,P|170:262|158:298,1,85,0|8,0:0|0:0,0:0:0:0:
388,280,46235,6,0,P|373:320|377:364,1,85,4|0,0:0|0:0,0:0:0:0:
480,280,46588,2,0,P|488:236|472:184,1,85,8|0,0:0|0:0,0:0:0:0:
472,68,46941,1,8,0:0:0:0:
472,68,47029,1,0,0:0:0:0:
472,68,47117,2,0,P|430:52|375:56,1,85,0|8,0:0|0:0,0:0:0:0:
320,176,47470,2,0,P|364:168|408:136,1,85,0|0,0:0|0:0,0:0:0:0:
208,112,47823,6,0,P|172:156|172:208,1,85,8|8,0:0|0:0,0:0:0:0:
316,356,48176,2,0,P|320:308|300:264,1,85,0|12,0:0|0:0,0:0:0:0:
256,48,48706,5,10,0:0:0:0:
100,220,49058,6,0,P|108:264|140:296,1,85
192,216,49411,2,0,P|184:172|152:140,1,85,8|0,0:0|0:0,0:0:0:0:
248,288,49764,2,0,P|292:280|324:248,1,85
328,160,50117,2,0,P|284:168|252:200,1,85,8|0,0:0|0:0,0:0:0:0:
400,280,50470,5,0,0:0:0:0:
448,176,50647,1,0,0:0:0:0:
348,88,50823,1,8,0:0:0:0:
248,152,51000,1,0,0:0:0:0:
272,264,51176,6,0,P|288:212|272:172,1,85
212,72,51529,2,0,P|180:100|168:140,1,85,8|0,0:0|0:0,0:0:0:0:
64,264,51882,6,0,P|120:328|197:356,1,170,0|8,0:0|0:0,0:0:0:0:
296,336,52411,1,0,0:0:0:0:
336,228,52588,2,0,L|280:140,2,85,0|0|8,0:0|0:0|0:0,0:0:0:0:
360,48,53117,2,0,P|412:80|440:200,1,170
420,284,53647,1,8,0:0:0:0:
268,292,53823,6,0,P|216:304|172:296,1,85
116,228,54176,1,0,0:0:0:0:
176,144,54353,1,8,0:0:0:0:
104,72,54529,1,0,0:0:0:0:
24,132,54706,6,0,P|4:200|44:286,1,170,0|8,0:0|0:0,0:0:0:0:
128,328,55235,1,0,0:0:0:0:
256,336,55411,1,0,0:0:0:0:
224,240,55588,1,0,0:0:0:0:
308,176,55764,1,8,0:0:0:0:
420,204,55941,1,0,0:0:0:0:
420,204,56117,6,0,P|460:236|484:284,1,85
432,372,56470,2,0,P|408:340|396:296,1,85,8|0,0:0|0:0,0:0:0:0:
308,176,56823,2,0,P|328:212|330:260,1,85
252,356,57176,2,0,P|220:332|204:276,1,85,8|0,0:0|0:0,0:0:0:0:
204,84,57529,6,0,P|124:84|32:140,1,170,0|8,0:0|0:0,0:0:0:0:
46,126,58059,1,0,0:0:0:0:
0,212,58235,1,0,0:0:0:0:
28,312,58411,1,8,0:0:0:0:
112,196,58588,1,8,0:0:0:0:
168,328,58764,1,0,0:0:0:0:
280,332,58941,5,8,0:0:0:0:
312,308,59029,1,0,0:0:0:0:
264,224,59206,1,0,0:0:0:0:
276,196,59294,1,8,0:0:0:0:
216,108,59470,1,0,0:0:0:0:
108,100,59647,1,0,0:0:0:0:
28,312,60000,5,10,0:0:0:0:
232,232,60353,6,0,P|265:261|310:267,1,85
304,172,60706,2,0,P|270:142|225:136,1,85,8|0,0:0|0:0,0:0:0:0:
160,232,61059,1,0,0:0:0:0:
308,314,61235,1,0,0:0:0:0:
419,186,61411,1,8,0:0:0:0:
300,63,61588,1,0,0:0:0:0:
208,180,61764,6,0,P|216:224|248:256,1,85,0|0,0:0|0:0,0:0:0:0:
304,172,62117,2,0,P|296:128|264:96,1,85,8|0,0:0|0:0,0:0:0:0:
176,80,62470,1,0,0:0:0:0:
40,188,62647,1,0,0:0:0:0:
136,332,62823,1,8,0:0:0:0:
288,256,63000,1,0,0:0:0:0:
144,200,63176,6,0,P|168:280|268:328,1,170,0|8,0:0|0:0,0:0:0:0:
237,325,63706,1,0,0:0:0:0:
344,328,63882,2,0,P|413:282|437:202,1,170,0|8,0:0|0:0,0:0:0:0:
392,100,64411,1,0,0:0:0:0:
298,28,64588,1,2,0:0:0:0:
200,94,64764,1,2,0:0:0:0:
232,207,64941,1,10,0:0:0:0:
352,212,65117,1,0,0:0:0:0:
424,316,65294,1,0,0:0:0:0:
308,368,65470,6,0,P|268:366|221:343,1,85,0|8,0:0|0:0,0:0:0:0:
104,152,65823,1,0,0:0:0:0:
104,152,66000,2,0,P|136:176|164:224,1,85
240,128,66353,1,8,0:0:0:0:
240,128,66529,2,0,P|260:152|276:208,1,85
332,280,66882,2,0,P|280:288|252:307,1,85,0|8,0:0|0:0,0:0:0:0:
163,374,67235,6,0,P|119:334|112:312,1,85
44,216,67588,1,0,0:0:0:0:
168,208,67764,1,8,0:0:0:0:
112,312,67941,1,0,0:0:0:0:
40,192,68117,1,0,0:0:0:0:
40,168,68206,1,0,0:0:0:0:
52,148,68294,1,0,0:0:0:0:
164,40,68470,6,0,P|164:84|148:124,1,85,8|0,0:0|0:0,0:0:0:0:
124,240,68823,2,0,P|228:224|272:177,1,170,0|8,0:0|0:0,0:0:0:0:
244,84,69353,1,2,0:0:0:0:
324,244,69529,1,2,0:0:0:0:
364,68,69706,1,2,0:0:0:0:
476,208,69882,1,10,0:0:0:0:
472,28,70059,1,0,0:0:0:0:
352,176,70235,6,0,P|324:285|347:332,1,170,0|8,0:0|0:0,0:0:0:0:
420,264,70764,1,2,0:0:0:0:
440,232,70853,1,0,0:0:0:0:
452,196,70941,1,2,0:0:0:0:
448,156,71029,1,0,0:0:0:0:
440,120,71117,1,2,0:0:0:0:
356,56,71294,1,10,0:0:0:0:
276,124,71470,1,0,0:0:0:0:
352,236,71647,6,0,P|348:288|260:372,1,170,0|8,0:0|0:0,0:0:0:0:
208,288,72176,1,2,0:0:0:0:
124,348,72353,1,2,0:0:0:0:
116,244,72529,1,2,0:0:0:0:
20,284,72706,1,10,0:0:0:0:
40,180,72882,1,0,0:0:0:0:
40,180,72970,1,0,0:0:0:0:
40,180,73059,1,0,0:0:0:0:
236,88,73235,6,0,P|236:132|252:176,1,85,0|8,0:0|0:0,0:0:0:0:
328,208,73588,1,0,0:0:0:0:
304,296,73764,2,0,P|248:276|168:280,1,127.5
144,304,74117,2,0,P|92:280|68:244,1,85,8|0,0:0|0:0,0:0:0:0:
256,192,74470,12,4,75882,0:0:0:0:
256,192,85764,12,0,87000,0:0:0:0:
172,128,87176,6,0,P|240:172|256:256,1,170,4|8,0:0|0:0,0:0:0:0:
184,312,87706,1,0,0:0:0:0:
92,292,87882,2,0,P|111:239|150:206,1,85
172,128,88235,2,0,P|204:156|224:204,1,85,8|0,0:0|0:0,0:0:0:0:
224,348,88588,5,0,0:0:0:0:
224,348,88676,1,0,0:0:0:0:
224,348,88764,1,0,0:0:0:0:
316,328,88941,1,8,0:0:0:0:
408,356,89117,2,0,P|440:320|448:232,1,127.5
444,208,89470,1,8,0:0:0:0:
444,116,89647,1,8,0:0:0:0:
364,68,89823,1,0,0:0:0:0:
172,152,90000,5,0,0:0:0:0:
240,232,90176,1,0,0:0:0:0:
348,240,90353,2,0,P|317:279|287:296,1,85,8|0,0:0|0:0,0:0:0:0:
320,160,90706,2,0,P|364:145|416:156,1,85,0|0,0:0|0:0,0:0:0:0:
488,220,91059,1,8,0:0:0:0:
484,268,91147,1,0,0:0:0:0:
452,304,91235,1,0,0:0:0:0:
340,348,91411,6,8,L|312:228,1,85
256,192,91764,1,8,0:0:0:0:
168,348,91941,1,4,0:0:0:0:
84,92,92294,5,0,0:0:0:0:
106,184,92470,1,0,0:0:0:0:
128,276,92647,1,0,0:0:0:0:
129,276,92823,2,0,P|213:260|256:192,1,170,4|8,0:0|0:0,0:0:0:0:
280,108,93353,1,0,0:0:0:0:
368,76,93529,2,0,P|388:88|452:112,1,85
504,184,93882,2,0,P|468:220|444:276,1,85,8|0,0:0|0:0,0:0:0:0:
408,340,94235,5,0,0:0:0:0:
44,112,94588,1,8,0:0:0:0:
40,216,94764,2,0,P|104:260|164:260,1,127.5
184,256,95117,1,8,0:0:0:0:
336,168,95294,1,8,0:0:0:0:
408,340,95470,1,0,0:0:0:0:
350,250,95647,6,0,P|266:238|184:256,1,170,0|8,0:0|0:0,0:0:0:0:
80,288,96176,2,0,B|48:240|44:168|64:104,1,170
100,24,96706,1,8,0:0:0:0:
4,160,97059,5,8,0:0:0:0:
164,212,97235,1,8,0:0:0:0:
328,176,97411,1,8,0:0:0:0:
496,196,97588,1,0,0:0:0:0:
496,196,97676,1,0,0:0:0:0:
496,196,97764,1,0,0:0:0:0:
504,172,97941,5,8,0:0:0:0:
492,152,98117,1,8,0:0:0:0:
500,128,98294,1,8,0:0:0:0:
480,112,98470,6,0,P|428:76|312:84,1,170,4|8,0:0|0:0,0:0:0:0:
264,148,99000,1,0,0:0:0:0:
208,228,99176,2,0,P|164:244|126:245,1,85
372,140,99529,2,0,P|409:164|440:204,1,85,8|0,0:0|0:0,0:0:0:0:
408,340,99882,6,0,P|348:348|248:296,1,170,4|8,0:0|0:0,0:0:0:0:
136,288,100411,2,0,P|155:303|179:357,2,85,0|0|8,0:0|0:0|0:0,0:0:0:0:
136,288,100853,1,0,0:0:0:0:
136,288,100941,1,8,0:0:0:0:
44,272,101117,1,0,0:0:0:0:
76,152,101294,6,0,P|124:136|168:140,1,85
160,48,101647,2,0,P|207:68|237:100,1,85,8|0,0:0|0:0,0:0:0:0:
302,38,102000,1,0,0:0:0:0:
314,78,102088,1,0,0:0:0:0:
308,120,102176,1,0,0:0:0:0:
408,140,102353,2,0,P|376:178|337:199,1,85,8|0,0:0|0:0,0:0:0:0:
304,332,102706,5,8,0:0:0:0:
436,352,102882,1,8,0:0:0:0:
504,236,103059,1,8,0:0:0:0:
408,140,103235,2,0,P|281:125|255:99,1,170,4|0,0:0|0:0,0:0:0:0:
256,100,103764,1,8,0:0:0:0:
24,220,104117,5,0,0:0:0:0:
38,129,104294,2,0,P|57:86|85:62,1,85,0|8,0:0|0:0,0:0:0:0:
166,17,104647,1,0,0:0:0:0:
156,136,104823,2,0,P|208:112|256:112,2,85,0|0|8,0:0|0:0|0:0,0:0:0:0:
96,208,105353,1,0,0:0:0:0:
212,308,105529,6,0,P|276:356|380:360,1,170,0|8,0:0|0:0,0:0:0:0:
364,364,106059,1,0,0:0:0:0:
436,284,106235,2,0,P|444:248|440:196,1,85,0|8,0:0|0:0,0:0:0:0:
412,180,106500,1,0,0:0:0:0:
388,156,106588,2,0,P|376:116|380:68,1,85,8|0,0:0|0:0,0:0:0:0:
204,16,106941,6,0,P|124:52|84:120,1,170,0|8,0:0|0:0,0:0:0:0:
84,120,107470,1,0,0:0:0:0:
188,160,107647,2,0,P|214:190|254:210,1,85,0|0,0:0|0:0,0:0:0:0:
336,164,108000,1,8,0:0:0:0:
384,320,108176,1,8,0:0:0:0:
248,292,108353,2,0,P|196:332|76:328,1,170,4|8,0:0|0:0,0:0:0:0:
256,192,108882,12,4,109764,0:0:0:0:
484,224,110117,6,0,P|416:248|300:224,1,170,0|2,0:0|0:0,0:0:0:0:
248,176,110647,1,0,0:0:0:0:
208,92,110823,1,0,0:0:0:0:
128,44,111000,1,0,0:0:0:0:
72,120,111176,6,0,P|96:192|172:252,1,170,2|0,0:0|0:0,0:0:0:0:
280,224,111706,2,0,P|292:264|280:305,1,85,2|0,0:0|0:0,0:0:0:0:
280,304,112059,1,0,0:0:0:0:
192,196,112235,2,0,P|180:156|192:112,1,85,2|0,0:0|0:0,0:0:0:0:
280,20,112588,2,0,P|292:60|280:101,1,85,0|0,0:0|0:0,0:0:0:0:
280,100,112941,6,0,P|355:140|403:236,2,170,0|2|0,0:0|0:0|0:0,0:0:0:0:
24,304,114000,2,0,P|64:225|135:182,1,170,0|2,0:0|0:0,0:0:0:0:
200,252,114529,1,0,0:0:0:0:
232,344,114706,2,0,P|360:356|416:324,2,170,0|2|6,0:0|0:0|0:0,0:0:0:0:
480,336,115764,5,2,0:0:0:0:
472,244,115941,1,0,0:0:0:0:
376,244,116117,1,2,0:0:0:0:
272,76,116470,1,0,0:0:0:0:
88,152,116823,1,2,0:0:0:0:
140,344,117176,5,2,0:0:0:0:
60,292,117353,1,2,0:0:0:0:
146,250,117529,1,0,0:0:0:0:
124,352,117706,5,2,0:0:0:0:
46,312,117882,1,2,0:0:0:0:
120,267,118058,1,0,0:0:0:0:
296,144,118235,6,0,P|324:196|336:316,1,170,4|8,0:0|0:0,0:0:0:0:
276,224,118764,2,0,P|308:132|288:44,1,170,4|0,0:0|0:0,0:0:0:0:
208,16,119294,1,8,0:0:0:0:
104,32,119470,1,0,0:0:0:0:
52,216,119647,6,0,P|64:300|140:392,1,170,4|8,0:0|0:0,0:0:0:0:
216,328,120176,2,0,P|296:344|396:320,1,170,4|0,0:0|0:0,0:0:0:0:
400,320,120617,1,0,0:0:0:0:
416,312,120706,1,8,0:0:0:0:
484,248,120882,1,0,0:0:0:0:
384,128,121059,6,0,P|360:164|356:220,1,85,0|0,0:0|0:0,0:0:0:0:
472,160,121411,2,0,P|496:128|492:68,1,85,8|0,0:0|0:0,0:0:0:0:
280,196,121764,2,0,L|176:200,1,85,8|0,0:0|0:0,0:0:0:0:
256,84,122117,2,0,L|360:36,1,85,8|0,0:0|0:0,0:0:0:0:
256,84,122647,5,8,0:0:0:0:
132,292,122823,1,8,0:0:0:0:
380,292,123000,1,0,0:0:0:0:
256,236,123176,6,0,L|256:264,2,21.25,8|0|0,0:0|0:0|0:0,0:0:0:0:
256,152,123529,1,10,0:0:0:0:
68,32,123882,5,0,0:0:0:0:
20,124,124059,1,0,0:0:0:0:
96,200,124235,2,0,P|112:268|187:338,1,170,8|0,0:0|0:0,0:0:0:0:
280,352,124764,1,0,0:0:0:0:
316,344,124853,1,0,0:0:0:0:
344,320,124941,1,8,0:0:0:0:
344,172,125117,6,0,B|300:172|261:246|190:252,1,170
96,200,125647,2,0,P|84:152|63:121,1,85,8|0,0:0|0:0,0:0:0:0:
32,332,126000,1,0,0:0:0:0:
32,332,126088,1,0,0:0:0:0:
32,332,126176,1,0,0:0:0:0:
124,372,126353,1,8,0:0:0:0:
220,332,126529,1,0,0:0:0:0:
320,352,126706,6,0,P|359:348|399:320,1,85
464,200,127059,2,0,P|419:198|384:220,1,85,8|0,0:0|0:0,0:0:0:0:
192,320,127411,2,0,P|236:308|264:276,1,85,0|0,0:0|0:0,0:0:0:0:
312,192,127764,1,8,0:0:0:0:
372,76,127941,2,0,P|264:36|217:53,1,170,0|0,0:0|0:0,0:0:0:0:
108,68,128470,1,8,0:0:0:0:
36,152,128647,1,0,0:0:0:0:
116,232,128823,1,0,0:0:0:0:
56,307,129000,2,0,P|128:343|216:336,1,170,0|8,0:0|0:0,0:0:0:0:
312,372,129529,6,0,P|332:324|432:260,1,170,0|8,0:0|0:0,0:0:0:0:
460,156,130059,2,0,P|480:124|484:72,1,85
384,56,130411,1,0,0:0:0:0:
340,144,130588,1,8,0:0:0:0:
248,196,130764,5,0,0:0:0:0:
112,268,130941,1,0,0:0:0:0:
100,128,131117,2,0,P|92:84|104:36,2,85,0|8|0,0:0|0:0|0:0,0:0:0:0:
184,192,131647,5,0,0:0:0:0:
112,268,131823,1,0,0:0:0:0:
200,336,132000,1,8,0:0:0:0:
304,280,132176,1,0,0:0:0:0:
404,188,132353,6,0,B|332:120|236:256|168:168,1,255,0|8,0:0|0:0,0:0:0:0:
112,268,133059,1,0,0:0:0:0:
40,196,133235,1,0,0:0:0:0:
64,96,133411,1,8,0:0:0:0:
64,96,133500,1,0,0:0:0:0:
64,96,133588,1,0,0:0:0:0:
176,80,133764,5,8,0:0:0:0:
196,96,133853,1,0,0:0:0:0:
240,192,134029,1,0,0:0:0:0:
272,184,134117,1,8,0:0:0:0:
348,108,134294,1,0,0:0:0:0:
468,88,134470,2,0,P|488:108|400:156,1,170,0|10,0:0|0:0,0:0:0:0:
40,52,135176,5,0,0:0:0:0:
136,84,135353,1,0,0:0:0:0:
76,196,135529,2,0,P|119:190|155:165,1,85,8|0,0:0|0:0,0:0:0:0:
248,152,135882,1,0,0:0:0:0:
208,248,136058,1,0,0:0:0:0:
252,252,136147,1,0,0:0:0:0:
284,228,136235,1,8,0:0:0:0:
360,300,136411,6,0,P|372:260|372:208,1,85
436,84,136764,2,0,P|460:148|460:172,1,85,0|8,0:0|0:0,0:0:0:0:
432,344,137117,1,0,0:0:0:0:
320,368,137294,2,0,P|257:347|235:335,1,85
208,248,137647,2,0,P|220:202|256:154,1,85,8|0,0:0|0:0,0:0:0:0:
348,204,138000,6,0,P|443:190|505:141,1,170,0|8,0:0|0:0,0:0:0:0:
168,220,138706,1,0,0:0:0:0:
112,128,138882,2,0,P|84:148|64:224,1,85,0|8,0:0|0:0,0:0:0:0:
52,292,139235,1,0,0:0:0:0:
128,356,139411,5,2,0:0:0:0:
280,340,139588,1,2,0:0:0:0:
384,220,139764,1,10,0:0:0:0:
440,48,139941,2,0,B|364:116|294:2|200:88,1,255,2|8,0:0|0:0,0:0:0:0:
260,148,140647,1,0,0:0:0:0:
152,20,140823,6,0,P|116:48|56:68,1,85
112,160,141176,1,8,0:0:0:0:
112,160,141353,2,0,P|128:208|128:256,1,85
0,132,141706,2,0,P|25:99|61:75,1,85,0|8,0:0|0:0,0:0:0:0:
256,208,142058,5,0,0:0:0:0:
256,208,142147,1,0,0:0:0:0:
256,208,142235,2,0,P|296:228|356:228,1,85
444,192,142588,2,0,P|416:156|380:135,1,85,8|0,0:0|0:0,0:0:0:0:
280,96,142941,1,0,0:0:0:0:
144,128,143117,1,0,0:0:0:0:
256,208,143294,1,8,0:0:0:0:
168,304,143470,1,0,0:0:0:0:
360,312,143647,6,0,P|368:248|320:156,1,170,0|8,0:0|0:0,0:0:0:0:
356,76,144176,2,0,L|420:64,2,42.5,2|0|2,0:0|0:0|0:0,0:0:0:0:
420,160,144529,1,2,0:0:0:0:
492,224,144706,1,8,0:0:0:0:
436,304,144882,1,0,0:0:0:0:
232,344,145059,6,0,P|148:335|74:263,1,170,0|8,0:0|0:0,0:0:0:0:
56,184,145588,1,2,0:0:0:0:
148,48,145764,1,2,0:0:0:0:
212,200,145941,1,2,0:0:0:0:
248,80,146117,1,10,0:0:0:0:
248,80,146206,1,0,0:0:0:0:
248,80,146294,1,0,0:0:0:0:
68,160,146470,6,0,P|80:236|160:296,1,170,0|8,0:0|0:0,0:0:0:0:
248,336,147000,1,2,0:0:0:0:
348,324,147176,1,2,0:0:0:0:
368,228,147353,1,2,0:0:0:0:
304,140,147529,1,10,0:0:0:0:
384,68,147706,1,0,0:0:0:0:
384,68,147794,1,0,0:0:0:0:
384,68,147882,1,0,0:0:0:0:
216,168,148059,6,0,P|238:206|273:236,1,85,0|8,0:0|0:0,0:0:0:0:
368,228,148411,1,0,0:0:0:0:
436,312,148588,1,0,0:0:0:0:
332,336,148764,2,0,P|273:346|242:364,2,85,0|8|0,0:0|0:0|0:0,0:0:0:0:
256,192,149294,12,4,150706,0:0:0:0:
