osu file format v12

[General]
AudioFilename: Happy Sunday1.mp3
AudioLeadIn: 0
PreviewTime: 49059
Countdown: 0
SampleSet: Normal
StackLeniency: 0.7
Mode: 0
LetterboxInBreaks: 1
WidescreenStoryboard: 0

[Editor]
Bookmarks: 35146,87028
DistanceSpacing: 1.1
BeatDivisor: 4
GridSize: 4

[Metadata]
Title:Happy Sunday
TitleUnicode:Happy Sunday
Artist:Yellow Zebra
ArtistUnicode:Yellow Zebra
Creator:yametekure4
Version:Hard
Source:Touhou
Tags:yuki fujimiya sound of chord Locked Girl
BeatmapID:229067
BeatmapSetID:74055

[Difficulty]
HPDrainRate:6
CircleSize:4
OverallDifficulty:6
ApproachRate:7
SliderMultiplier:1.5
SliderTickRate:1

[Events]
//Background and Video events
0,0,"bg1.jpg",0,0
//Break Periods
2,76082,84864
//Storyboard Layer 0 (Background)
//Storyboard Layer 1 (Fail)
//Storyboard Layer 2 (Pass)
//Storyboard Layer 3 (Foreground)
//Storyboard Sound Samples
//Background Colour Transformations
3,100,163,162,255

[TimingPoints]
1059,352.941176470588,4,2,1,60,1,0
49058,-100,4,1,0,70,0,1
74823,-100,4,1,0,55,0,1
75176,-100,4,1,0,40,0,1
75529,-100,4,1,0,30,0,1
75882,-100,4,2,0,35,0,0
87176,-100,4,2,1,60,0,0
123882,-100,4,1,0,70,0,1
149647,-100,4,1,0,50,0,1
150000,-100,4,1,0,30,0,1
150353,-100,4,1,0,10,0,1
150706,-100,4,1,0,25,0,0

[Colours]
Combo1 : 239,63,63
Combo2 : 179,49,193
Combo3 : 236,239,99
Combo4 : 240,240,240

[HitObjects]
256,192,10941,12,0,12000,0:0:0:0:
116,232,12353,6,0,P|168:280|245:285,1,150,4|8,0:0|0:0,0:0:0:0:
376,360,13058,2,0,P|412:296|402:222,1,150,0|8,0:0|0:0,0:0:0:0:
360,160,13588,1,0,0:0:0:0:
336,88,13764,6,0,P|356:56|388:36,1,75
460,24,14117,1,8,0:0:0:0:
472,100,14294,2,0,P|480:136|472:172,1,75
408,212,14647,1,8,0:0:0:0:
408,212,14823,1,8,0:0:0:0:
278,366,15176,6,0,P|209:352|159:289,2,150,0|8|0,0:0|0:0|0:0,0:0:0:0:
288,216,16235,1,8,0:0:0:0:
116,216,16588,5,8,0:0:0:0:
44,164,16764,1,8,0:0:0:0:
56,76,16941,1,8,0:0:0:0:
128,128,17117,1,0,0:0:0:0:
400,232,17470,6,0,L|368:300,2,75,0|8|0,0:0|0:0|0:0,0:0:0:0:
400,232,18000,2,0,P|340:192|260:196,1,150,4|8,0:0|0:0,0:0:0:0:
204,236,18529,1,0,0:0:0:0:
204,236,18706,2,0,P|216:280|236:300,2,75,0|0|8,0:0|0:0|0:0,0:0:0:0:
208,156,19235,1,0,0:0:0:0:
264,100,19411,6,0,P|164:104|120:64,1,150,0|8,0:0|0:0,0:0:0:0:
48,12,19941,2,0,P|36:52|72:152,1,150,0|8,0:0|0:0,0:0:0:0:
128,200,20470,1,8,0:0:0:0:
72,356,20823,6,0,L|152:316,1,75
208,368,21176,2,0,L|264:316,1,75,8|0,0:0|0:0,0:0:0:0:
320,376,21529,2,0,P|364:316|368:240,1,150,0|8,0:0|0:0,0:0:0:0:
340,44,22235,5,8,0:0:0:0:
272,112,22411,1,8,0:0:0:0:
352,168,22588,1,8,0:0:0:0:
284,236,22764,1,0,0:0:0:0:
96,188,23117,6,0,L|20:212,2,75,0|8|0,0:0|0:0|0:0,0:0:0:0:
96,188,23647,2,0,P|92:116|44:56,2,150,4|8|0,0:0|0:0|0:0,0:0:0:0:
152,240,24529,2,0,L|240:236,2,75,0|8|0,0:0|0:0|0:0,0:0:0:0:
112,304,25058,6,0,P|156:356|248:364,1,150,0|8,0:0|0:0,0:0:0:0:
300,336,25588,1,0,0:0:0:0:
376,332,25764,2,0,P|412:344|448:384,2,75,0|8|8,0:0|0:0|0:0,0:0:0:0:
336,180,26470,6,0,P|391:233|461:238,2,150,0|8|0,0:0|0:0|0:0,0:0:0:0:
452,88,27529,1,8,0:0:0:0:
288,64,27882,5,8,0:0:0:0:
216,120,28058,1,8,0:0:0:0:
132,84,28235,1,8,0:0:0:0:
80,156,28411,2,0,P|130:286|200:296,1,225,0|8,0:0|0:0,0:0:0:0:
360,104,29294,5,4,0:0:0:0:
340,176,29470,2,0,P|300:204|274:207,1,75,0|8,0:0|0:0,0:0:0:0:
216,160,29823,1,0,0:0:0:0:
216,160,30000,2,0,P|180:220|186:297,1,150,0|8,0:0|0:0,0:0:0:0:
236,356,30529,1,0,0:0:0:0:
312,364,30706,6,0,P|384:356|441:300,1,150,0|8,0:0|0:0,0:0:0:0:
462,233,31235,1,0,0:0:0:0:
449,159,31411,1,0,0:0:0:0:
392,109,31588,2,0,P|352:109|304:141,2,75,8|8|0,0:0|0:0|0:0,0:0:0:0:
372,180,32117,6,0,P|348:244|280:284,1,150,0|8,0:0|0:0,0:0:0:0:
124,264,32823,1,0,0:0:0:0:
172,108,33176,2,0,P|204:132|221:161,1,75,8|0,0:0|0:0,0:0:0:0:
252,232,33529,2,0,P|292:288|380:308,1,150,4|8,0:0|0:0,0:0:0:0:
432,356,34058,2,0,P|480:292|476:220,2,150,0|8|0,0:0|0:0|0:0,0:0:0:0:
432,356,34941,1,4,0:0:0:0:
296,256,35294,6,0,P|224:292|128:292,2,150,0|0|2,0:0|0:0|0:0,0:0:0:0:
376,92,36353,1,0,0:0:0:0:
208,24,36706,1,2,0:0:0:0:
156,96,36882,2,0,P|136:160|144:248,1,150,2|0,0:0|0:0,0:0:0:0:
168,328,37411,1,2,0:0:0:0:
276,212,37764,6,0,P|360:208|421:184,2,150,0|2|0,0:0|0:0|0:0,0:0:0:0:
416,96,38823,1,2,0:0:0:0:
276,0,39176,2,0,P|284:76|320:144,1,150,2|0,0:0|0:0,0:0:0:0:
276,212,39706,2,0,L|236:280,1,75,2|0,0:0|0:0,0:0:0:0:
144,160,40235,1,2,0:0:0:0:
332,96,40588,6,0,P|280:53|195:51,1,150,4|2,0:0|0:0,0:0:0:0:
20,68,41294,1,0,0:0:0:0:
108,224,41647,1,2,0:0:0:0:
264,312,42000,2,0,P|328:272|400:268,2,150,0|2|0,0:0|0:0|0:0,0:0:0:0:
200,356,42882,1,0,0:0:0:0:
144,304,43059,2,0,P|136:268|143:231,1,75,2|0,0:0|0:0,0:0:0:0:
208,192,43411,6,0,P|252:184|276:165,1,75,4|0,0:0|0:0,0:0:0:0:
332,116,43764,1,8,0:0:0:0:
328,40,43941,2,0,P|263:15|187:31,2,150,4|8|8,0:0|0:0|0:0,0:0:0:0:
392,84,44823,6,0,P|404:120|400:160,1,75,4|0,0:0|0:0,0:0:0:0:
344,208,45176,1,8,0:0:0:0:
268,200,45353,2,0,P|237:265|245:341,2,150,4|8|8,0:0|0:0|0:0,0:0:0:0:
304,132,46235,6,0,P|279:96|241:74,1,75,4|0,0:0|0:0,0:0:0:0:
216,12,46588,2,0,P|193:34|176:73,1,75,8|0,0:0|0:0,0:0:0:0:
208,144,46941,2,0,P|186:167|147:184,1,75,8|8,0:0|0:0,0:0:0:0:
92,236,47294,2,0,P|113:259|152:276,2,75,8|0|0,0:0|0:0|0:0,0:0:0:0:
68,164,47823,6,0,P|72:148|108:104,1,75,8|8,0:0|0:0,0:0:0:0:
180,76,48176,2,0,P|184:28|175:3,1,75,0|8,0:0|0:0,0:0:0:0:
176,212,48706,5,10,0:0:0:0:
392,224,49059,6,0,P|332:244|316:240,1,75
288,172,49411,2,0,P|252:172|208:188,1,75,8|0,0:0|0:0,0:0:0:0:
172,248,49764,1,0,0:0:0:0:
236,288,49941,1,0,0:0:0:0:
176,332,50117,1,8,0:0:0:0:
244,364,50294,6,0,P|308:372|392:328,1,150,0|8,0:0|0:0,0:0:0:0:
456,352,50823,2,0,P|456:296|440:264,1,75,8|0,0:0|0:0,0:0:0:0:
472,208,51176,2,0,P|428:204|380:224,1,75
332,252,51529,2,0,L|304:180,1,75,8|0,0:0|0:0,0:0:0:0:
280,112,51882,5,0,0:0:0:0:
172,236,52235,1,8,0:0:0:0:
72,104,52588,2,0,P|92:72|124:48,1,75,0|0,0:0|0:0,0:0:0:0:
172,112,52941,1,8,0:0:0:0:
172,112,53117,2,0,P|240:88|320:96,1,150,0|0,0:0|0:0,0:0:0:0:
296,176,53647,1,8,0:0:0:0:
372,208,53823,5,0,0:0:0:0:
184,248,54176,1,0,0:0:0:0:
232,316,54353,2,0,L|300:260,1,75,8|0,0:0|0:0,0:0:0:0:
324,348,54706,2,0,P|384:324|427:254,1,150,0|8,0:0|0:0,0:0:0:0:
427,254,55235,2,0,P|382:211|351:206,1,75,0|0,0:0|0:0,0:0:0:0:
296,224,55588,1,0,0:0:0:0:
224,196,55764,2,0,P|176:168|160:144,1,75,8|0,0:0|0:0,0:0:0:0:
120,56,56117,6,0,P|192:36|268:56,1,150,0|8,0:0|0:0,0:0:0:0:
300,120,56647,1,0,0:0:0:0:
356,172,56823,2,0,L|436:132,2,75,0|0|8,0:0|0:0|0:0,0:0:0:0:
356,172,57353,1,0,0:0:0:0:
344,248,57529,6,0,P|300:288|210:302,2,150,0|8|0,0:0|0:0|0:0,0:0:0:0:
416,232,58411,1,0,0:0:0:0:
480,272,58588,1,8,0:0:0:0:
476,348,58764,1,0,0:0:0:0:
412,308,58941,5,8,0:0:0:0:
296,348,59206,1,8,0:0:0:0:
180,316,59470,1,0,0:0:0:0:
180,316,59647,6,0,P|80:324|56:292,1,150,0|10,0:0|0:0,0:0:0:0:
164,68,60353,6,0,P|196:48|232:42,1,75
248,116,60706,2,0,P|284:132|302:163,1,75,8|0,0:0|0:0,0:0:0:0:
252,216,61059,2,0,P|260:252|244:288,2,75,0|0|8,0:0|0:0|0:0,0:0:0:0:
312,320,61588,6,0,P|287:347|160:344,1,150,0|8,0:0|0:0,0:0:0:0:
92,308,62117,2,0,P|108:272|140:248,1,75,8|0,0:0|0:0,0:0:0:0:
208,224,62470,2,0,P|212:264|192:300,1,75
148,176,62823,1,8,0:0:0:0:
436,244,63176,6,0,P|364:236|300:188,1,150,0|8,0:0|0:0,0:0:0:0:
168,32,63882,2,0,P|204:16|268:12,2,75,0|0|8,0:0|0:0|0:0,0:0:0:0:
112,84,64411,1,2,0:0:0:0:
264,168,64764,1,2,0:0:0:0:
328,332,65117,5,2,0:0:0:0:
264,372,65294,1,0,0:0:0:0:
192,352,65470,2,0,P|152:350|105:327,2,75,0|8|0,0:0|0:0|0:0,0:0:0:0:
220,280,66000,2,0,L|188:204,1,75,0|0,0:0|0:0,0:0:0:0:
264,168,66353,1,8,0:0:0:0:
300,248,66529,2,0,L|332:324,2,75
372,204,67059,1,8,0:0:0:0:
408,284,67235,6,0,L|440:360,1,75
472,220,67588,2,0,L|440:144,2,75,0|8|0,0:0|0:0|0:0,0:0:0:0:
416,80,68117,1,0,0:0:0:0:
212,220,68470,6,0,P|212:148|251:81,1,150,8|0,0:0|0:0,0:0:0:0:
328,48,69000,1,0,0:0:0:0:
328,48,69176,2,8,P|336:96|324:132,1,75,8|0,0:0|0:0,0:0:0:0:
296,196,69529,1,2,0:0:0:0:
340,268,69706,1,2,0:0:0:0:
268,312,69882,1,10,0:0:0:0:
100,292,70235,6,0,P|80:260|76:220,1,75
116,152,70588,2,0,P|151:163|180:191,1,75,8|0,0:0|0:0,0:0:0:0:
184,272,70941,2,0,P|219:261|247:236,2,75,2|2|10,0:0|0:0|0:0,0:0:0:0:
216,160,71470,1,0,0:0:0:0:
216,160,71647,6,0,P|332:196|368:176,1,150,0|8,0:0|0:0,0:0:0:0:
400,120,72176,1,0,0:0:0:0:
350,187,72353,1,2,0:0:0:0:
392,260,72529,1,2,0:0:0:0:
476,260,72706,1,10,0:0:0:0:
312,344,73059,5,0,0:0:0:0:
312,344,73235,2,0,P|272:344|240:328,1,75,0|8,0:0|0:0,0:0:0:0:
180,272,73588,1,0,0:0:0:0:
108,232,73764,2,0,P|68:224|16:240,2,75,0|0|8,0:0|0:0|0:0,0:0:0:0:
180,272,74294,1,0,0:0:0:0:
256,192,74470,12,4,75882,0:0:0:0:
256,192,85764,12,0,87000,0:0:0:0:
166,344,87176,6,0,P|238:320|274:257,1,150,4|8,0:0|0:0,0:0:0:0:
314,196,87706,1,0,0:0:0:0:
390,204,87882,2,0,P|378:248|358:268,2,75,0|0|8,0:0|0:0|0:0,0:0:0:0:
314,196,88411,1,0,0:0:0:0:
322,120,88588,6,0,P|248:89|180:97,1,150,0|8,0:0|0:0,0:0:0:0:
110,124,89117,2,0,P|168:191|224:191,1,150,0|8,0:0|0:0,0:0:0:0:
224,191,89647,1,8,0:0:0:0:
362,284,90000,6,0,L|262:264,1,75
274,344,90353,2,0,L|202:296,1,75,8|0,0:0|0:0,0:0:0:0:
162,360,90706,2,0,P|122:300|138:196,1,150,0|8,0:0|0:0,0:0:0:0:
220,32,91411,5,8,0:0:0:0:
216,116,91588,1,8,0:0:0:0:
140,152,91764,1,8,0:0:0:0:
144,68,91941,1,4,0:0:0:0:
372,172,92294,6,0,L|324:92,2,75,0|8|0,0:0|0:0|0:0,0:0:0:0:
372,172,92823,2,0,P|340:227|260:246,1,150,4|8,0:0|0:0,0:0:0:0:
184,248,93353,1,0,0:0:0:0:
212,320,93529,2,0,P|224:348|262:371,1,75
348,364,93882,2,0,P|335:335|297:312,1,75,8|0,0:0|0:0,0:0:0:0:
260,246,94235,6,0,L|272:190,2,37.5
212,320,94588,1,8,0:0:0:0:
140,364,94764,2,0,P|66:361|10:313,1,150,0|8,0:0|0:0,0:0:0:0:
10,313,95294,1,8,0:0:0:0:
168,208,95647,6,0,L|144:300,2,75,0|0|8,0:0|0:0|0:0,0:0:0:0:
136,131,96176,1,0,0:0:0:0:
218,127,96353,2,0,B|286:119|286:119|362:151,1,150,0|8,0:0|0:0,0:0:0:0:
433,191,96882,1,0,0:0:0:0:
495,136,97059,6,8,P|499:100|490:62,1,75
420,24,97411,1,8,0:0:0:0:
420,24,97588,1,4,0:0:0:0:
356,208,97941,6,0,L|328:292,2,75,0|8|0,0:0|0:0|0:0,0:0:0:0:
356,208,98470,2,0,P|304:172|188:180,2,150,0|8|0,0:0|0:0|0:0,0:0:0:0:
408,264,99353,2,0,P|444:252|476:216,2,75,0|8|0,0:0|0:0|0:0,0:0:0:0:
368,328,99882,6,0,P|280:326|232:290,1,150,0|8,0:0|0:0,0:0:0:0:
204,220,100411,1,0,0:0:0:0:
260,168,100588,2,0,P|281:158|340:162,2,75,0|8|8,0:0|0:0|0:0,0:0:0:0:
68,192,101294,6,0,P|104:259|170:285,2,150,0|8|0,0:0|0:0|0:0,0:0:0:0:
158,74,102353,1,8,0:0:0:0:
320,40,102706,5,8,0:0:0:0:
392,80,102882,1,8,0:0:0:0:
324,128,103059,1,8,0:0:0:0:
396,168,103235,2,0,P|396:184|326:291,1,150,4|0,0:0|0:0,0:0:0:0:
326,290,103764,1,8,0:0:0:0:
192,128,104117,5,0,0:0:0:0:
224,196,104294,2,0,P|212:235|188:263,2,75,0|8|0,0:0|0:0|0:0,0:0:0:0:
272,136,104823,1,0,0:0:0:0:
328,188,105000,2,0,P|364:176|392:136,1,75,0|8,0:0|0:0,0:0:0:0:
424,80,105353,1,0,0:0:0:0:
476,136,105529,6,0,P|476:208|436:276,1,150,0|8,0:0|0:0,0:0:0:0:
460,348,106058,2,0,P|436:360|376:348,1,75
316,296,106411,2,0,P|280:280|245:283,2,75,8|8|0,0:0|0:0|0:0,0:0:0:0:
268,356,106941,6,0,P|200:356|144:292,1,150,0|8,0:0|0:0,0:0:0:0:
80,260,107470,1,0,0:0:0:0:
80,260,107647,2,0,P|101:224|140:208,1,75
208,200,108000,2,0,P|244:212|279:205,1,75,8|0,0:0|0:0,0:0:0:0:
328,144,108353,2,0,P|394:160|425:246,1,150,4|8,0:0|0:0,0:0:0:0:
256,192,108882,12,4,109764,0:0:0:0:
276,284,110117,6,0,P|200:292|131:264,2,150,0|0|2,0:0|0:0|0:0,0:0:0:0:
356,120,111176,1,0,0:0:0:0:
380,300,111529,1,2,0:0:0:0:
456,252,111706,2,0,P|460:180|436:104,1,150,2|0,0:0|0:0,0:0:0:0:
364,52,112235,1,2,0:0:0:0:
304,260,112588,6,0,P|234:314|172:327,2,150,0|2|0,0:0|0:0|0:0,0:0:0:0:
300,80,113647,1,2,0:0:0:0:
144,168,114000,1,0,0:0:0:0:
184,248,114176,2,0,P|268:272|344:256,1,150,2|0,0:0|0:0,0:0:0:0:
400,208,114706,1,2,0:0:0:0:
480,44,115059,1,0,0:0:0:0:
300,80,115411,6,0,P|223:106|187:162,1,150,0|2,0:0|0:0,0:0:0:0:
252,332,116117,1,0,0:0:0:0:
252,332,116470,1,2,0:0:0:0:
400,228,116823,2,0,P|420:308|388:396,2,150,0|2|0,0:0|0:0|0:0,0:0:0:0:
348,172,117706,1,0,0:0:0:0:
280,204,117882,2,0,P|228:216|206:214,1,75,2|0,0:0|0:0,0:0:0:0:
144,168,118235,6,0,P|180:220|189:304,1,150,4|8,0:0|0:0,0:0:0:0:
232,224,118764,2,0,P|264:152|248:68,2,150,4|8|8,0:0|0:0|0:0,0:0:0:0:
316,300,119647,6,0,P|364:296|456:220,1,150,4|8,0:0|0:0,0:0:0:0:
364,176,120176,2,0,P|444:192|512:180,2,150,4|8|8,0:0|0:0|0:0,0:0:0:0:
276,164,121059,6,0,P|252:200|245:230,1,75,0|0,0:0|0:0,0:0:0:0:
300,304,121411,2,0,P|324:268|330:237,1,75,8|0,0:0|0:0,0:0:0:0:
396,176,121764,2,0,P|412:215|413:247,1,75,8|8,0:0|0:0,0:0:0:0:
452,328,122117,2,0,P|475:307|492:268,2,75,8|0|0,0:0|0:0|0:0,0:0:0:0:
368,364,122647,6,0,P|351:367|296:356,1,75,8|8,0:0|0:0,0:0:0:0:
204,352,123000,2,0,P|163:325|149:303,1,75,0|8,0:0|0:0,0:0:0:0:
116,128,123529,5,10,0:0:0:0:
360,136,123882,6,0,P|328:164|298:177,1,75
228,220,124235,2,0,P|228:268|238:292,1,75,8|0,0:0|0:0,0:0:0:0:
300,348,124588,1,0,0:0:0:0:
380,328,124764,1,0,0:0:0:0:
404,248,124941,1,8,0:0:0:0:
404,248,125117,6,0,P|388:212|388:160,1,75
436,112,125470,2,0,P|421:91|376:72,1,75,8|8,0:0|0:0,0:0:0:0:
296,92,125823,1,0,0:0:0:0:
272,172,126000,2,0,L|292:228,2,37.5
208,228,126353,6,0,P|172:228|128:208,1,75,8|0,0:0|0:0,0:0:0:0:
100,140,126706,2,0,P|128:110|142:75,2,75,0|0|8,0:0|0:0|0:0,0:0:0:0:
16,140,127235,1,0,0:0:0:0:
56,216,127411,2,0,P|64:256|84:288,2,75,0|0|8,0:0|0:0|0:0,0:0:0:0:
56,216,127941,2,0,P|104:208|196:244,1,150,0|0,0:0|0:0,0:0:0:0:
264,308,128470,1,8,0:0:0:0:
356,284,128647,1,0,0:0:0:0:
356,284,129000,6,0,P|392:212|385:124,1,150,0|8,0:0|0:0,0:0:0:0:
372,64,129529,2,0,L|408:36,2,37.5,0|0|0,0:0|0:0|0:0,0:0:0:0:
292,84,129882,1,8,0:0:0:0:
300,168,130059,2,0,P|263:162|231:142,1,75
196,68,130411,1,8,0:0:0:0:
240,240,130764,6,0,P|196:236|164:224,1,75
88,196,131117,2,0,P|84:236|96:280,2,75,0|8|0,0:0|0:0|0:0,0:0:0:0:
108,116,131647,2,0,P|228:100|276:128,1,150,0|8,0:0|0:0,0:0:0:0:
320,152,132176,1,0,0:0:0:0:
368,220,132353,6,0,P|344:244|308:372,1,150,0|8,0:0|0:0,0:0:0:0:
306,351,132882,1,0,0:0:0:0:
220,328,133059,1,0,0:0:0:0:
152,268,133235,1,0,0:0:0:0:
132,180,133411,2,0,P|132:140|144:104,1,75,8|0,0:0|0:0,0:0:0:0:
184,36,133764,5,8,0:0:0:0:
256,176,134029,1,8,0:0:0:0:
364,60,134294,1,0,0:0:0:0:
364,60,134470,2,0,P|384:77|308:153,1,150,0|10,0:0|0:0,0:0:0:0:
360,320,135176,6,0,P|300:344|280:328,1,75
268,264,135529,2,0,P|224:244|192:264,1,75,8|0,0:0|0:0,0:0:0:0:
152,320,135882,1,0,0:0:0:0:
152,320,136059,2,0,P|112:304|93:279,1,75,0|8,0:0|0:0,0:0:0:0:
80,196,136411,5,0,0:0:0:0:
176,24,136764,2,0,P|204:52|209:89,2,75,0|8|0,0:0|0:0|0:0,0:0:0:0:
92,20,137294,1,0,0:0:0:0:
184,172,137647,6,0,P|216:188|256:188,1,75,8|0,0:0|0:0,0:0:0:0:
336,188,138000,2,0,P|348:284|316:356,1,150,0|8,0:0|0:0,0:0:0:0:
148,328,138706,2,0,P|180:308|232:308,1,75
288,344,139059,1,8,0:0:0:0:
368,364,139235,2,0,P|436:336|476:196,1,225,0|8,0:0|0:0,0:0:0:0:
464,120,139941,6,0,L|389:131,1,75
320,176,140294,1,0,0:0:0:0:
380,232,140470,2,0,P|364:264|316:304,1,75,8|0,0:0|0:0,0:0:0:0:
256,316,140823,5,0,0:0:0:0:
80,276,141176,1,8,0:0:0:0:
80,276,141353,2,0,P|100:320|96:372,2,75,0|0|0,0:0|0:0|0:0,0:0:0:0:
64,196,141882,1,8,0:0:0:0:
108,128,142059,5,0,0:0:0:0:
108,128,142235,2,0,P|152:128|184:144,1,75
221,212,142588,2,0,P|244:248|285:264,2,75,8|0|0,0:0|0:0|0:0,0:0:0:0:
266,142,143117,1,0,0:0:0:0:
331,193,143294,2,0,P|367:177|399:145,1,75,8|0,0:0|0:0,0:0:0:0:
373,72,143647,6,0,P|297:52|221:84,2,150,0|8|2,0:0|0:0|0:0,0:0:0:0:
454,83,144529,1,2,0:0:0:0:
480,161,144706,1,10,0:0:0:0:
400,316,145059,6,0,P|364:340|256:336,1,150,0|8,0:0|0:0,0:0:0:0:
208,272,145588,1,0,0:0:0:0:
124,272,145764,2,0,P|92:300|80:332,2,75,2|2|10,0:0|0:0|0:0,0:0:0:0:
172,204,146294,1,0,0:0:0:0:
172,204,146470,6,0,P|190:212|306:176,1,150,0|8,0:0|0:0,0:0:0:0:
344,100,147000,1,0,0:0:0:0:
408,156,147176,1,2,0:0:0:0:
404,240,147353,1,2,0:0:0:0:
336,288,147529,1,10,0:0:0:0:
172,204,147882,5,0,0:0:0:0:
172,204,148059,2,0,P|172:248|156:292,1,75,0|8,0:0|0:0,0:0:0:0:
80,284,148411,2,0,P|96:336|116:352,1,75
192,360,148764,2,0,P|232:364|280:352,2,75,0|8|0,0:0|0:0|0:0,0:0:0:0:
256,192,149294,12,4,150706,0:0:0:0:
