osu file format v12

[General]
AudioFilename: Happy Sunday1.mp3
AudioLeadIn: 0
PreviewTime: 49059
Countdown: 0
SampleSet: Normal
StackLeniency: 0.7
Mode: 0
LetterboxInBreaks: 1

[Editor]
Bookmarks: 35146,87028
DistanceSpacing: 0.9
BeatDivisor: 2
GridSize: 8

[Metadata]
Title:Happy Sunday
TitleUnicode:Happy Sunday
Artist:Yellow Zebra
ArtistUnicode:Yellow Zebra
Creator:yametekure4
Version:Easy
Source:Touhou
Tags:yuki fujimiya sound of chord Locked Girl
BeatmapID:210554
BeatmapSetID:74055

[Difficulty]
HPDrainRate:2
CircleSize:2
OverallDifficulty:2
ApproachRate:3
SliderMultiplier:0.9
SliderTickRate:1

[Events]
//Background and Video events
0,0,"bg1.jpg",0,0
//Break Periods
2,76082,85736
//Storyboard Layer 0 (Background)
//Storyboard Layer 1 (Fail)
//Storyboard Layer 2 (Pass)
//Storyboard Layer 3 (Foreground)
//Storyboard Sound Samples
//Background Colour Transformations
3,100,163,162,255

[TimingPoints]
1059,352.941176470588,4,2,1,60,1,0
49058,-100,4,2,1,70,0,1
52588,-100,4,2,2,70,0,1
52764,-100,4,2,1,70,0,1
55411,-100,4,2,2,70,0,1
55588,-100,4,2,1,70,0,1
58235,-100,4,2,2,60,0,1
58411,-100,4,2,1,70,0,1
72353,-100,4,2,2,70,0,1
72529,-100,4,2,1,70,0,1
74823,-100,4,1,0,55,0,1
75176,-100,4,1,0,40,0,1
75529,-100,4,1,0,30,0,1
75882,-100,4,1,0,35,0,0
87176,-100,4,2,1,60,0,0
123882,-100,4,2,1,70,0,1
127411,-100,4,2,2,70,0,1
127588,-100,4,2,1,70,0,1
133058,-100,4,2,2,70,0,1
133235,-100,4,2,1,70,0,1
149647,-100,4,1,0,50,0,1
150000,-100,4,1,0,30,0,1
150353,-100,4,1,0,10,0,1
150706,-100,4,1,0,25,0,0

[Colours]
Combo1 : 239,63,63
Combo2 : 179,49,193
Combo3 : 236,239,99
Combo4 : 240,240,240

[HitObjects]
216,128,12353,6,8,P|292:84|388:88,1,180,4|8,0:0|0:0,0:0:0:0:
336,240,13764,2,8,P|260:284|164:280,1,180,0|8,0:0|0:0,0:0:0:0:
56,168,15176,5,0,0:0:0:0:
176,56,15882,1,8,0:0:0:0:
336,88,16588,2,0,L|432:88,2,90,6|0|8,0:0|0:0|0:0,0:0:0:0:
224,200,18000,6,0,P|176:208|136:232,2,90,4|0|8,0:0|0:0|0:0,0:0:0:0:
288,344,19411,2,0,P|360:328|408:280,2,135,4|8|0,0:0|0:0|0:0,0:0:0:0:
208,344,20823,6,0,P|160:304|136:160,1,180,2|8,0:0|0:0,0:0:0:0:
112,32,22235,2,0,P|72:64|48:152,1,135,6|4,0:0|0:0,0:0:0:0:
104,336,23647,6,8,L|288:336,1,180,4|8,0:0|0:0,0:0:0:0:
424,248,25058,2,8,P|456:328|528:352,2,135,4|8|4,0:0|0:0|0:0,0:0:0:0:
408,168,26470,5,0,0:0:0:0:
288,56,27176,1,8,0:0:0:0:
128,88,27882,2,8,L|32:88,2,90,6|0|8,0:0|0:0|0:0,0:0:0:0:
248,200,29294,6,8,P|172:244|76:240,1,180,4|8,0:0|0:0,0:0:0:0:
128,88,30705,2,8,P|204:44|300:48,1,180,0|8,0:0|0:0,0:0:0:0:
456,56,32117,6,0,P|439:108|333:159,1,180,0|8,0:0|0:0,0:0:0:0:
168,160,33529,2,0,P|200:320|376:336,1,360,4|4,0:0|0:0,0:0:0:0:
456,336,35294,6,0,L|456:232,1,90,2|0,0:0|0:0,0:0:0:0:
368,40,36353,2,0,P|268:36|208:88,2,180,2|8|0,0:0|0:0|0:0,0:0:0:0:
352,120,38117,6,0,L|352:224,1,90,2|0,0:0|0:0,0:0:0:0:
288,360,39176,2,0,P|188:364|128:312,2,180,2|8|4,0:0|0:0|0:0,0:0:0:0:
256,40,42000,5,0,0:0:0:0:
128,144,42706,1,0,0:0:0:0:
256,248,43411,6,0,L|120:312,2,135,4|2|0,0:0|0:0|0:0,0:0:0:0:
256,168,44823,2,0,L|392:216,2,135,4|2|0,0:0|0:0|0:0,0:0:0:0:
256,88,46235,5,2,0:0:0:0:
416,88,46941,1,0,0:0:0:0:
416,248,47647,1,2,0:0:0:0:
176,240,48706,1,6,0:0:0:0:
176,240,49059,6,0,P|256:272|368:248,1,180,4|8,0:0|0:0,0:0:0:0:
472,360,50470,2,0,P|496:272|471:189,1,180,0|8,0:0|0:0,0:0:0:0:
368,64,51882,6,0,B|232:0|144:200|16:40,1,360,4|2,0:0|0:0,0:0:0:0:
376,296,54706,6,0,P|256:344|132:292,1,270
104,216,56117,1,0,0:0:0:0:
264,192,56823,1,8,0:0:0:0:
416,120,57529,6,0,P|256:48|97:121,1,360,0|2,0:0|0:0,0:0:0:0:
24,264,59647,1,2,0:0:0:0:
168,336,60353,6,0,L|258:336,2,90,4|0|8,0:0|0:0|0:0,0:0:0:0:
256,200,61764,2,0,L|346:200,2,90,0|0|8,0:0|0:0|0:0,0:0:0:0:
200,48,63176,6,0,L|400:48,2,180,4|8|0,0:0|0:0|0:0,0:0:0:0:
72,144,65294,1,8,0:0:0:0:
168,272,66000,6,0,L|78:272,2,90,0|0|8,0:0|0:0|0:0,0:0:0:0:
264,144,67411,2,0,L|144:144,2,90,0|0|8,0:0|0:0|0:0,0:0:0:0:
408,64,68823,6,0,B|478:87|488:162,2,135,0|8|0,0:0|0:0|0:0,0:0:0:0:
384,144,70235,2,0,P|352:200|272:224,2,135,0|8|0,0:0|0:0|0:0,0:0:0:0:
328,88,71647,6,0,P|152:104|72:264,1,360,0|4,0:0|0:0,0:0:0:0:
136,304,73411,2,0,L|232:304,2,90,0|8|0,0:0|0:0|0:0,0:0:0:0:
256,192,74470,12,4,75882,0:0:0:0:
272,176,87176,6,8,P|196:132|100:136,1,180,4|8,0:0|0:0,0:0:0:0:
152,288,88587,2,8,P|228:332|324:328,1,180,0|8,0:0|0:0,0:0:0:0:
432,216,89999,5,0,0:0:0:0:
312,104,90705,1,8,0:0:0:0:
152,136,91411,2,8,L|56:136,2,90,6|0|8,0:0|0:0|0:0,0:0:0:0:
232,280,92823,6,0,L|296:198,2,90,4|8|0,0:0|0:0|0:0,0:0:0:0:
392,248,94234,2,0,L|296:376,2,135,4|8|0,0:0|0:0|0:0,0:0:0:0:
440,184,95646,6,0,P|416:136|288:80,1,180,2|8,0:0|0:0,0:0:0:0:
160,152,97058,2,0,P|228:188|284:180,1,135,6|4,0:0|0:0,0:0:0:0:
432,312,98470,6,0,L|216:312,1,180,4|8,0:0|0:0,0:0:0:0:
112,232,99881,2,0,P|56:272|32:344,2,135,0|8|0,0:0|0:0|0:0,0:0:0:0:
192,256,101293,5,0,0:0:0:0:
336,176,101999,1,8,0:0:0:0:
200,96,102705,2,0,L|110:96,2,90,6|0|8,0:0|0:0|0:0,0:0:0:0:
272,240,104117,6,0,P|360:264|451:232,2,180,0|8|0,0:0|0:0|0:0,0:0:0:0:
200,96,106234,1,8,0:0:0:0:
40,72,106940,6,0,P|24:160|80:248,1,180,0|8,0:0|0:0,0:0:0:0:
192,336,108352,2,0,P|382:318|432:168,1,360,4|4,0:0|0:0,0:0:0:0:
400,104,110117,6,0,L|288:104,1,90,2|0,0:0|0:0,0:0:0:0:
144,104,111176,2,0,P|136:200|200:256,2,180,2|8|0,0:0|0:0|0:0,0:0:0:0:
224,104,112941,6,0,L|336:104,1,90,2|0,0:0|0:0,0:0:0:0:
480,104,114000,2,0,P|488:200|424:256,2,180,2|8|4,0:0|0:0|0:0,0:0:0:0:
168,192,116823,5,0,0:0:0:0:
256,328,117529,1,0,0:0:0:0:
416,336,118235,6,0,P|464:184|414:94,1,270,4|8,0:0|0:0,0:0:0:0:
336,120,119647,2,0,P|184:168|94:118,1,270,4|8,0:0|0:0,0:0:0:0:
40,56,121059,5,2,0:0:0:0:
56,216,121764,1,8,0:0:0:0:
192,312,122470,1,2,0:0:0:0:
432,264,123529,1,6,0:0:0:0:
432,264,123882,6,0,P|320:232|294:179,1,180,0|8,0:0|0:0,0:0:0:0:
264,24,125294,2,0,P|179:55|123:127,1,180,0|8,0:0|0:0,0:0:0:0:
112,288,126706,6,0,B|216:408|352:224|456:280,1,360,4|2,0:0|0:0,0:0:0:0:
168,64,129529,5,0,0:0:0:0:
328,96,130235,1,8,0:0:0:0:
184,168,130941,1,0,0:0:0:0:
344,200,131647,1,8,0:0:0:0:
200,272,132353,6,0,P|368:328|463:284,1,270
488,224,133764,1,2,0:0:0:0:
456,64,134470,1,2,0:0:0:0:
296,48,135176,6,0,L|184:48,2,90,4|0|8,0:0|0:0|0:0,0:0:0:0:
232,192,136588,2,0,L|142:192,2,90,0|0|8,0:0|0:0|0:0,0:0:0:0:
144,328,138000,2,0,P|56:288|24:208,2,180,4|8|0,0:0|0:0|0:0,0:0:0:0:
304,328,140117,5,8,0:0:0:0:
360,272,140470,1,0,0:0:0:0:
440,280,140823,2,0,P|480:152|456:88,1,180,4|8,0:0|0:0,0:0:0:0:
304,96,142235,2,0,P|208:136|112:88,1,180,0|8,0:0|0:0,0:0:0:0:
72,264,143647,6,0,P|112:328|165:348,2,135,0|8|0,0:0|0:0|0:0,0:0:0:0:
152,240,145058,2,0,P|216:200|236:146,2,135,0|8|0,0:0|0:0|0:0,0:0:0:0:
88,184,146470,6,0,P|29:121|40:20,2,180,0|8|4,0:0|0:0|0:0,0:0:0:0:
72,264,148235,2,0,L|184:264,2,90,0|8|0,0:0|0:0|0:0,0:0:0:0:
256,192,149294,12,4,150706,0:0:0:0:
