osu file format v7

[General]
AudioFilename: Flowering Light.mp3
AudioLeadIn: 0
PreviewTime: 61165
Countdown: 0
SampleSet: Soft
StackLeniency: 0.7
Mode: 0
LetterboxInBreaks: 1

[Editor]
DistanceSpacing: 0.800000011920929
BeatDivisor: 4
GridSize: 8

[Metadata]
Title:Hana no iro wa ~Flowering Light~
Artist:Yellow Zebra
Creator:Frill
Version:Normal
Source:Touhou
Tags:ZUN ucchi Flowering Night sakuya izayoi Escalation

[Difficulty]
HPDrainRate:3
CircleSize:3
OverallDifficulty:3
SliderMultiplier:1.2
SliderTickRate:1

[Events]
//Background and Video events
0,0,"sakuya.jpg"
//Break Periods
2,24349,24871
2,77863,94061
2,147593,163250
//Storyboard Layer 0 (Background)
//Storyboard Layer 1 (Fail)
//Storyboard Layer 2 (Pass)
//Storyboard Layer 3 (Foreground)
//Storyboard Sound Samples
//Background Colour Transformations
3,100,64,0,64

[TimingPoints]
366,540.540540540541,4,2,0,100,1,0
29554,-100,4,2,0,79,0,0
60894,-100,4,2,0,100,0,1
61446,-100,4,1,0,85,0,1
74408,-100,4,1,0,100,0,1
77651,-100,4,2,0,100,0,0
124948,-100,4,2,0,82,0,0
126840,-100,4,2,0,100,0,0
130095,-100,4,2,0,100,0,1
131165,-100,4,1,0,85,0,1
137921,-100,4,1,0,100,0,1
138732,-100,4,1,0,85,0,1
147392,-100,4,1,0,85,0,0
167921,-100,4,1,0,100,0,0
169003,-100,4,1,0,86,0,0
172246,-100,4,1,0,100,0,0
173327,-100,4,1,0,80,0,0
176570,-100,4,1,0,63,0,0
177111,-100,4,1,0,100,0,0
177651,-100,4,1,0,85,0,0
189813,-100,4,2,0,100,0,0
190084,-100,4,1,0,84,0,0
193867,-100,4,1,0,100,0,0
195219,-100,4,1,0,83,0,0
198462,-100,4,1,0,100,0,0
199284,-100,4,2,0,100,0,1
199824,-100,4,1,0,84,0,1
206840,-100,4,1,0,100,0,1
207921,-100,4,1,0,79,0,1
215084,-100,4,1,0,100,0,1
216030,-100,4,1,0,100,0,0
218192,-100,4,2,0,100,0,0

[Colours]
Combo1 : 231,154,107
Combo2 : 183,183,0
Combo3 : 0,236,236

[HitObjects]
464,80,9014,2,0,B|320:80,1,120,2|0
256,80,10095,1,2
256,176,10636,2,2,B|264:256|152:240,1,120
88,248,11717,1,0
88,152,12257,2,2,B|88:80,3,60
136,96,13338,5,4
232,96,13879,1,0
328,96,14420,1,2
424,96,14960,2,0,B|424:232,1,120,2|2
424,312,16041,1,2
328,312,16582,2,2,B|256:312,3,60
216,312,17663,6,2,B|216:168,1,120
216,96,18744,2,0,B|344:96,1,120
432,96,19825,2,0,B|432:224,1,120
432,312,20906,2,2,B|344:312,3,60
320,312,21987,5,2
224,312,22528,2,2,B|224:176,1,120
224,96,23609,1,2
320,96,24149,1,0
408,72,26311,5,0
408,72,26852,2,2,B|272:72,1,120
176,72,27933,1,2
176,72,28474,2,2,B|176:208,1,120
176,288,29555,1,4
448,104,30636,6,2,B|312:104,1,120
232,104,31717,2,0,B|232:232,1,120
232,320,32798,1,2
120,320,33338,1,2
120,216,33879,2,2,B|120:144,2,60
208,80,34960,5,4
344,80,35501,2,2,B|344:176|280:184,1,120
240,184,36311,1,2
184,184,36582,1,2
72,184,37122,1,0
72,296,37663,1,2
184,296,38203,2,2,B|184:352,4,30
312,280,39284,6,0,B|312:136,1,120,0|0
312,64,40366,2,2,B|176:64,1,120
88,64,41447,2,2,B|48:224|224:232,1,240
408,256,43338,6,0,B|408:112,1,120
408,96,44149,1,2
408,48,44420,2,2,B|216:48,1,180
184,48,45501,1,2
184,168,46311,1,2
288,168,46852,1,2
336,88,47393,5,2
336,88,47663,2,2,B|136:88,1,180,0|0
64,88,49014,1,0
64,176,49555,2,0,B|64:312,1,120
160,296,50636,1,2
248,296,51176,1,4
352,136,51987,6,2,B|144:136,1,180
72,136,53338,1,0
72,232,53879,2,2,B|72:312|160:312,1,120
240,312,54960,1,2
336,312,55501,2,0,B|336:184,1,120
336,96,56582,1,0
240,96,57122,1,2
144,96,57663,1,2
256,192,57933,12,2,60365
408,104,60906,5,4
408,200,61447,1,0
312,200,61987,1,8
216,200,62528,2,2,B|216:64,1,120
312,80,63609,1,0
312,80,63879,1,0
312,80,64149,1,0
408,80,64690,2,2,B|472:80,2,60
408,176,65771,5,8
408,272,66311,2,0,B|272:272,1,120,0|0
192,296,67393,2,0,B|192:208,1,60
192,192,67933,2,0,B|192:104,1,60
192,88,68474,2,2,B|192:24,2,60
360,80,69555,6,8,B|360:208,1,120,8|0
360,296,70636,2,0,B|224:296,1,120
144,296,71717,1,0
144,200,72257,1,0
144,104,72798,1,0
144,104,73068,1,0
144,104,73338,1,0
288,104,73879,1,0
288,104,74149,6,0,B|360:104,1,60,0|0
440,104,74960,1,0
440,200,75501,2,0,B|312:200,1,120,0|0
224,200,76582,2,0,B|224:64,1,120
176,80,77393,1,0
128,80,77663,1,4
112,312,95501,5,0
112,312,96041,2,2,B|248:312,1,120
336,312,97122,1,0
336,312,97663,2,2,B|336:176,1,120
336,96,98744,1,2
456,96,99284,1,0
456,192,99825,6,2,B|320:192,1,120
240,200,100906,2,2,B|239:337,1,120
144,320,101987,1,2
144,224,102528,1,2
144,128,103068,2,2,B|144:56,2,60
280,72,104149,5,2
408,73,104690,2,2,B|407:168|343:175,1,120
304,176,105501,1,2
248,176,105771,1,2
144,176,106311,1,0
144,281,106852,1,0
248,280,107393,2,0,B|248:336,4,30
352,280,108474,6,0,B|351:136,1,120
351,64,109555,2,0,B|215:64,1,120
136,65,110636,2,2,B|55:121|198:217|118:305,1,240
351,264,112528,6,2,B|350:121,1,120
352,105,113338,1,2
353,56,113609,2,2,B|159:56,1,180
128,57,114690,1,2
128,216,115501,1,2
320,216,116041,1,2
320,89,116582,5,0
320,89,116852,2,0,B|119:88,1,180,0|0
48,88,118203,1,2
48,186,118744,2,2,B|48:320,1,120
144,304,119825,1,0
144,304,120365,1,4
360,320,121176,6,2,B|361:112,1,180
360,40,122528,1,0
264,40,123068,2,2,B|185:40|186:129,1,120
184,208,124149,1,0
184,305,124690,2,2,B|312:304,1,120
400,304,125771,1,0
400,208,126311,1,2
400,112,126852,1,0
256,192,127122,12,0,129555
256,192,130095,5,4
152,192,130636,1,0
152,88,131176,1,0
256,88,131717,2,0,B|384:88,1,120
376,184,132798,2,2,B|360:264|280:280,1,120
200,272,133879,1,2
200,272,134149,1,0
200,272,134420,6,8,B|200:128,1,120
200,56,135501,1,8
304,56,136041,1,8
408,56,136582,1,0
408,160,137122,2,2,B|408:280|352:272,1,120
328,272,137933,1,2
280,272,138203,1,2
128,272,138744,6,0,B|128:128,1,120
256,56,139825,2,0,B|256:200,1,120
256,312,140906,1,0
256,312,141447,1,0
392,312,141987,2,2,B|456:312,3,60
448,264,143068,5,0
448,168,143609,1,0
448,72,144149,1,0
448,72,144690,2,2,B|312:72,1,120
232,72,145771,2,0,B|232:216,1,120
232,240,146582,2,0,B|304:240,2,60,0|0|0
232,288,147393,1,0
72,152,164690,5,0
72,56,165230,1,0
168,56,165771,1,0
264,56,166311,2,0,B|264:191,1,120
168,176,167393,5,0
168,176,167663,1,0
168,176,167933,1,0
168,272,168474,2,2,B|104:271,2,60
112,160,169555,5,0
112,64,170095,2,2,B|248:64,1,120
328,64,171176,2,0,B|328:152,1,60
328,168,171717,2,0,B|328:255,1,60
328,280,172257,2,2,B|328:344,2,60
152,264,173338,6,8,B|152:135,1,120
152,48,174420,2,8,B|288:48,1,120
368,48,175501,1,0
368,48,176041,1,0
368,144,176582,1,2
368,144,177122,1,2
368,144,177663,6,8,B|368:288,1,120
272,264,178744,1,0
176,264,179284,2,0,B|176:136,1,120
176,48,180366,2,2,B|312:48,1,120
344,48,181176,1,2
344,96,181447,1,4
256,192,181987,5,0
160,192,182528,1,4
160,96,183068,1,0
256,96,183609,2,0,B|384:96,1,120
376,184,184690,2,0,B|360:264|280:280,1,120
208,272,185771,1,0
208,272,186041,1,0
208,272,186311,6,2,B|208:128,1,120
208,56,187393,1,0
304,56,187933,1,0
400,56,188474,1,0
400,152,189014,2,2,B|400:272|344:264,1,120,2|4
320,264,189825,1,0
272,264,190095,1,4
176,264,190636,6,0,B|176:120,1,120
232,64,191717,2,0,B|232:208,1,120
256,280,192798,1,0
256,280,193338,1,0
352,280,193879,2,2,B|416:280,3,60
464,280,194960,5,0
464,184,195501,1,0
464,88,196041,1,0
464,88,196582,2,0,B|328:88,1,120,0|0
248,96,197663,2,2,B|248:240,1,120
248,264,198474,2,2,B|320:264,2,60,0|0|0
248,312,199284,5,4
152,312,199825,1,0
152,216,200366,2,2,B|152:80,1,120
248,96,201447,1,0
344,96,201987,1,0
440,96,202528,2,2,B|440:168,1,60
440,208,203068,2,2,B|440:272,1,60
392,280,203609,5,0
296,280,204149,1,0
200,280,204690,2,0,B|200:136,1,120
296,160,205771,1,0
392,160,206311,2,2,B|400:280|344:264,1,120,0|0
264,264,207393,1,4
168,264,207933,5,0
72,264,208474,1,8
72,168,209014,1,0
72,72,209555,1,0
168,72,210095,1,8
264,72,210636,1,8
360,72,211176,1,0
360,72,211717,1,0
360,72,212257,6,4,B|360:200,1,120,4|0
360,288,213338,2,0,B|216:288,1,120
144,288,214420,2,2,B|144:152,1,120
144,120,215230,1,2
144,72,215501,2,2,B|216:72,2,60
256,192,216582,12,4,218203
