osu file format v7

[General]
AudioFilename: Flowering Light.mp3
AudioLeadIn: 0
PreviewTime: 61165
Countdown: 0
SampleSet: Soft
StackLeniency: 0.7
Mode: 0
LetterboxInBreaks: 1

[Editor]
DistanceSpacing: 0.800000011920929
BeatDivisor: 4
GridSize: 8

[Metadata]
Title:Hana no iro wa ~Flowering Light~
Artist:Yellow Zebra
Creator:Frill
Version:Lunatic
Source:Touhou
Tags:ZUN ucchi Flowering Night sakuya izayoi Escalation

[Difficulty]
HPDrainRate:7
CircleSize:5
OverallDifficulty:7
SliderMultiplier:1.9
SliderTickRate:1

[Events]
//Background and Video events
0,0,"sakuya.jpg"
//Break Periods
2,77863,94601
2,147593,163790
//Storyboard Layer 0 (Background)
//Storyboard Layer 1 (Fail)
//Storyboard Layer 2 (Pass)
//Storyboard Layer 3 (Foreground)
//Storyboard Sound Samples
//Background Colour Transformations
3,100,64,0,64

[TimingPoints]
366,540.540540540541,4,2,0,100,1,0
24004,-100,4,2,0,0,0,0
26166,-100,4,2,0,100,0,0
60894,-100,4,2,0,100,0,1
61570,-100,4,1,0,68,0,1
67516,-100,4,1,0,73,0,1
77651,-100,4,2,0,100,0,0
124813,-100,4,2,0,82,0,0
126705,-100,4,2,0,100,0,0
130095,-100,4,2,0,100,0,1
131165,-100,4,1,0,83,0,1
137786,-100,4,1,0,62,0,1
138597,-100,4,1,0,76,0,1
147246,-100,4,2,0,100,0,0
164543,-100,4,1,0,83,0,0
167786,-100,4,1,0,100,0,0
168867,-100,4,1,0,86,0,0
172246,-100,4,1,0,100,0,0
173192,-100,4,1,0,80,0,0
176435,-100,4,1,0,59,0,0
176975,-100,4,1,0,100,0,0
177516,-100,4,1,0,85,0,0
189678,-100,4,2,0,100,0,0
190084,-100,4,1,0,84,0,0
193732,-100,4,1,0,100,0,0
195084,-100,4,1,0,83,0,0
199138,-100,4,2,0,100,0,0
199284,-100,4,2,0,100,0,1
199408,-100,4,1,0,85,0,1
200354,-100,4,1,0,84,0,1
206840,-100,4,1,0,100,0,1
207921,-100,4,1,0,79,0,1
215157,-100,4,1,0,100,0,0
216840,-100,4,1,0,72,0,0
218022,-100,4,1,0,100,0,0

[Colours]
Combo1 : 230,139,100
Combo2 : 181,181,0
Combo3 : 0,240,240

[HitObjects]
392,216,9014,1,0
320,168,9284,1,2
256,216,9555,1,0
224,240,9690,1,0
192,264,9825,1,0
112,216,10095,1,2
192,168,10366,1,2
256,96,10636,1,2
256,144,10771,1,2
256,192,10906,1,2
256,264,11176,5,2
256,264,11447,1,2
320,224,11717,1,0
344,192,11852,1,0
360,160,11987,1,0
360,80,12257,1,0
360,80,12528,2,2,B|264:80,1,95
176,80,13068,1,2
88,200,13338,5,2
152,144,13609,1,2
240,144,13879,1,0
240,192,14014,1,0
240,240,14149,1,0
240,288,14284,1,0
240,336,14420,1,0
152,336,14690,5,2
152,336,14960,1,2
152,336,15230,2,2,B|136:264|200:248,1,95
240,200,15771,5,2
240,128,16041,2,2,B|240:24,2,95
240,200,16852,1,0
240,272,17122,2,2,B|240:320,2,47.5
104,200,17663,5,4
160,136,17933,1,0
160,56,18203,1,2
160,56,18338,1,2
160,56,18474,1,2
240,56,18744,1,2
240,104,18879,1,2
240,152,19014,1,2
240,232,19284,1,0
240,280,19420,1,0
240,328,19555,1,0
152,328,19825,5,0
88,280,20095,1,0
152,232,20366,1,2
152,232,20501,1,2
152,232,20636,1,2
152,144,20906,1,0
152,144,21041,1,0
152,144,21176,1,0
80,144,21447,1,2
80,224,21717,1,2
80,224,21987,6,2,B|200:224,1,95
280,224,22528,1,0
328,224,22663,1,0
376,224,22798,1,0
376,128,23068,1,2
376,128,23338,1,2
376,32,23609,1,2
376,32,23879,1,2
256,192,24149,12,0,25771
256,312,26311,5,2
184,272,26582,1,0
112,312,26852,1,0
112,272,26987,1,0
112,224,27122,1,0
112,184,27257,1,0
112,144,27393,1,0
112,72,27663,1,0
112,72,27933,2,2,B|160:32|232:96,1,95
200,144,28474,5,2
200,144,28744,2,2,B|320:144,1,95
384,144,29284,1,0
384,144,29555,2,0,B|384:256|240:256,1,190
256,72,30636,5,2
256,120,30771,1,2
256,168,30906,1,2
200,232,31176,1,2
256,296,31447,1,0
312,232,31717,1,2
368,296,31987,1,0
424,232,32257,1,2
424,232,32528,1,2
424,160,32798,5,0
392,120,32933,1,0
352,88,33068,1,0
312,64,33203,1,0
264,56,33338,1,0
264,152,33609,1,2
264,248,33879,1,2
264,344,34149,1,0
264,344,34420,2,0,B|312:344,2,47.5
184,296,34960,5,2
120,256,35230,1,2
120,216,35366,1,2
120,176,35501,1,2
120,104,35771,1,0
120,104,36041,2,0,B|232:104,1,95
288,104,36582,1,0
288,104,36852,1,2
288,104,37122,6,2,B|360:184|296:296,1,190
224,280,37933,1,2
152,280,38203,2,0,B|56:280,2,95
256,80,39284,5,2
312,120,39555,1,2
376,80,39825,1,2
376,120,39960,1,2
376,160,40095,1,2
344,232,40366,1,0
344,232,40636,1,0
272,232,40906,1,0
272,232,41176,1,0
216,176,41447,6,2,B|216:64|376:80,1,190
344,152,42257,1,0
344,224,42528,2,0,B|344:328,2,95
280,256,43338,5,0
280,256,43609,2,0,B|200:264|176:184,1,95
136,184,44149,1,2
136,112,44420,2,2,B|136:8,2,95
136,184,45230,1,0
136,264,45501,5,0
136,264,45636,1,0
136,264,45771,1,0
136,264,45906,1,0
136,264,46041,1,0
216,264,46311,1,2
296,264,46582,1,2
296,264,46852,6,2,B|352:200|400:264|464:184,1,190
464,120,47663,2,2,B|272:120,1,190
200,120,48474,1,0
128,120,48744,2,0,B|128:224,1,95
424,184,49555,5,2
424,184,49825,2,2,B|384:136|328:200,2,95
424,264,50636,1,2
424,264,50906,2,0,B|296:264,2,95
296,160,51987,5,2
296,160,52122,1,2
296,160,52257,1,2
296,64,52528,1,0
296,64,52798,1,2
392,64,53068,1,0
392,64,53338,2,2,B|392:168,2,95
488,64,54149,1,0
488,64,54420,2,2,B|488:160|328:160,1,190
256,160,55230,1,2
256,160,55501,1,2
256,160,55771,2,2,B|256:48,1,95
160,64,56311,5,2
160,64,56582,2,0,B|160:184,1,95,0|2
160,232,57122,1,0
160,232,57393,2,2,B|160:296|240:296,1,95
256,192,57933,12,4,59825
304,88,60906,5,4
304,168,61176,1,0
248,216,61447,1,0
216,232,61582,1,0
184,216,61717,1,0
144,152,61987,1,0
144,152,62257,2,2,B|256:152,1,95,2|2
312,152,62798,1,8
392,152,63068,5,8
392,152,63338,1,8
392,232,63609,1,0
360,264,63744,1,0
320,288,63879,1,0
280,296,64014,1,0
240,296,64149,1,0
160,296,64420,1,0
160,296,64690,2,2,B|160:176,1,95
160,128,65230,5,4
216,72,65501,1,8
272,128,65771,1,0
272,168,65906,1,0
272,208,66041,1,0
272,296,66311,1,8
272,296,66582,1,8
200,296,66852,1,0
168,264,66987,1,0
144,232,67122,1,0
88,176,67393,5,8
88,176,67663,2,8,B|88:64|224:64,1,190
288,64,68474,1,0
288,64,68744,2,0,B|288:184,1,95,4|4
144,312,69555,5,0
208,272,69825,1,8
272,312,70095,1,0
272,232,70365,1,0
272,160,70636,1,2
272,160,70906,5,2
352,160,71176,1,0
328,192,71311,1,0
304,224,71447,1,0
280,248,71582,1,0
256,280,71717,1,0
184,280,71987,5,8
184,280,72257,2,8,B|80:280,1,95
88,208,72798,1,8
88,208,73068,1,8
88,136,73338,1,0
88,136,73474,1,0
88,136,73609,1,0
160,136,73879,6,2,B|280:136,1,95
328,136,74420,1,0
328,136,74555,1,0
328,136,74690,2,0,B|432:136,1,95,0|2
424,216,75230,1,2
424,216,75501,2,2,B|424:320|272:320,1,190
216,320,76311,5,8
216,320,76582,1,8
216,248,76852,1,0
240,216,76987,1,0
264,184,77122,1,0
304,184,77257,1,0
344,184,77393,1,0
368,216,77528,1,0
392,248,77663,1,4
432,88,95501,5,4
384,144,95771,1,0
384,224,96041,1,2
360,256,96176,1,2
336,280,96311,1,0
296,280,96447,1,2
256,280,96582,1,2
184,280,96852,2,2,B|128:272|128:184,1,95
128,136,97393,2,2,B|128:72|200:56,1,95
176,64,97933,5,2
256,64,98203,1,2
256,64,98338,1,2
256,64,98474,2,2,B|392:64,1,95
424,64,99014,1,0
424,136,99284,1,0
376,192,99555,1,0
304,208,99825,6,2,B|304:280,2,47.5
224,208,100365,1,0
224,208,100636,2,0,B|152:272|56:192|144:136,1,190
128,72,101447,1,2
192,32,101717,1,2
256,72,101987,5,0
256,112,102122,1,0
256,152,102257,2,2,B|256:288,1,95
256,320,102798,1,0
256,320,103068,1,0
328,320,103338,1,2
328,320,103609,2,2,B|400:320,2,47.5
328,248,104149,5,0
320,208,104284,1,0
296,176,104420,1,0
256,96,104690,1,2
256,96,104960,2,0,B|256:208,1,95
256,264,105501,1,2
256,264,105771,2,0,B|256:160,1,95
184,168,106311,5,2
88,168,106582,1,2
184,168,106852,1,0
88,168,107122,1,2
88,264,107393,2,2,B|120:200|224:312|272:256,1,190
440,72,108474,5,2
424,144,108744,1,2
360,192,109014,1,2
328,168,109149,1,2
296,192,109284,1,2
256,120,109555,1,0
280,88,109690,1,0
255,56,109825,1,0
168,56,110095,1,2
168,56,110365,1,2
168,56,110636,6,2,B|112:128|208:160|152:240,1,190
152,304,111447,1,0
224,304,111717,2,2,B|424:304,1,190
416,240,112528,5,2
416,240,112798,2,2,B|416:120,1,95
416,72,113338,2,2,B|312:72,1,95
248,72,113879,2,2,B|176:72|176:160,1,95
176,192,114420,1,0
176,192,114690,6,2,B|384:192,1,190
368,272,115501,5,2
296,272,115771,1,0
224,272,116041,1,0
152,272,116311,1,2
152,272,116582,1,2
152,272,116852,6,2,B|152:176|256:176|352:176|344:288,2,285
80,272,118744,1,0
80,272,119014,1,4
80,272,119284,2,2,B|80:152,1,95
152,176,119825,5,2
152,176,120095,1,2
224,176,120365,1,2
263,176,120501,1,2
295,176,120636,1,2
80,88,121176,6,0,B|192:88,1,95
176,160,121717,1,0
176,232,121987,2,2,B|280:232,1,95
344,232,122528,1,2
344,232,122798,2,2,B|344:96,1,95
344,64,123338,6,2,B|272:64|272:128,1,95
272,184,123879,2,2,B|272:288,2,95
200,184,124690,1,0
200,184,124960,2,0,B|64:184,2,95,0|0|2
256,240,125771,5,2
312,184,126041,2,2,B|448:184,2,95
256,128,126852,5,2
256,128,127122,2,2,B|256:64,2,47.5
256,192,127663,12,0,129555
120,272,130095,5,4
176,216,130365,1,0
248,216,130636,1,0
288,216,130771,1,0
248,216,130906,1,0
248,136,131176,1,8
192,88,131447,1,0
120,88,131717,1,4
80,88,131852,1,0
120,88,131987,1,0
104,160,132257,5,8
104,160,132528,1,0
104,232,132798,1,8
136,248,132933,1,0
168,232,133068,1,0
200,248,133203,1,0
232,232,133338,1,8
312,232,133609,1,0
312,232,133879,1,2
312,232,134149,2,2,B|312:112,1,95
336,64,134690,5,0
336,64,134825,1,0
336,64,134960,1,0
336,64,135095,1,0
336,64,135230,1,0
264,64,135501,1,8
264,64,135771,1,0
184,64,136041,1,0
184,64,136176,1,0
184,64,136311,1,0
184,136,136582,5,0
184,136,136852,2,2,B|88:136|96:240|184:240,1,190
232,296,137663,1,0
232,296,137933,2,4,B|232:168,1,95
440,72,138744,5,0
440,144,139014,1,0
440,216,139284,2,0,B|440:264,2,47.5
360,216,139825,1,2
312,272,140095,1,2
256,320,140365,2,0,B|256:368,2,47.5
184,320,140906,5,0
184,320,141176,1,0
184,248,141447,1,0
200,216,141582,1,0
184,184,141717,1,0
184,120,141987,1,0
184,48,142257,1,2
184,48,142528,2,2,B|304:48|304:176,1,190
304,240,143338,5,0
304,320,143609,1,0
304,320,143744,1,0
304,320,143879,1,0
224,320,144149,1,8
224,320,144420,2,8,B|104:320,1,95,0|8
56,320,144960,1,8
56,240,145230,5,0
80,208,145366,1,4
104,168,145501,1,0
120,136,145636,1,0
128,96,145771,1,0
184,48,146041,1,0
184,48,146311,1,0
184,120,146582,1,0
184,120,146852,2,0,B|184:200,2,47.5
184,200,147393,5,4
416,80,164690,5,0
416,160,164960,1,0
416,240,165230,1,8
384,264,165366,1,0
352,240,165501,1,0
272,240,165771,1,8
240,264,165906,1,0
208,240,166041,1,0
136,200,166311,1,0
112,168,166447,1,0
136,144,166582,1,0
136,64,166852,5,0
136,64,167122,1,0
216,64,167393,1,0
256,64,167528,1,0
216,64,167663,1,0
216,144,167933,1,2
216,144,168203,2,2,B|216:264,2,95
136,144,169014,5,0
136,224,169284,1,8
168,256,169420,1,0
200,280,169555,1,0
240,280,169690,1,0
280,280,169825,1,0
352,280,170095,1,0
352,280,170366,2,2,B|440:192|328:120,1,190
264,120,171176,5,2
184,120,171447,1,0
184,120,171582,1,0
184,120,171717,1,0
184,120,171987,2,2,B|184:256,1,95
184,288,172528,1,2
184,288,172798,2,2,B|232:296|232:248|312:288,1,95
344,272,173338,5,4
344,200,173609,1,8
344,128,173879,1,0
344,128,174014,1,0
344,128,174149,1,0
264,128,174420,2,8,B|160:128,1,95
120,192,174960,2,0,B|248:192,1,95
256,256,175501,5,8
256,184,175771,1,0
256,104,176041,1,0
256,104,176311,1,0
344,104,176582,5,2
176,104,176852,1,2
344,104,177122,1,2
176,104,177393,1,2
104,104,177663,5,0
136,176,177933,1,0
152,216,178068,1,0
168,256,178203,1,0
200,280,178338,1,0
240,280,178474,1,8
328,280,178744,1,2
328,280,179014,1,2
328,208,179284,1,0
328,168,179420,1,0
328,128,179555,1,8
320,48,179825,5,0
240,48,180095,1,0
240,128,180366,2,0,B|240:264,1,95
240,296,180906,1,0
240,296,181176,1,0
240,296,181447,2,0,B|240:376,2,47.5
176,256,181987,5,4
120,200,182257,1,0
88,128,182528,2,8,B|32:128,2,47.5
120,56,183068,1,0
184,16,183338,1,0
232,64,183609,2,0,B|232:120,2,47.5
304,96,184149,5,0
304,96,184420,1,0
392,96,184690,1,8
392,96,184960,1,0
392,184,185230,1,8
392,184,185501,1,0
392,184,185771,2,0,B|448:184,2,47.5
312,184,186311,5,0
312,184,186582,2,8,C|176:184,1,95
144,184,187122,1,0
144,184,187393,1,0
144,104,187663,1,8
184,104,187798,1,0
224,104,187933,1,8
264,104,188068,1,0
304,104,188203,1,0
384,104,188474,5,0
384,104,188744,2,0,B|384:200|224:200,1,190
176,200,189555,1,0
176,200,189825,2,4,B|40:200,1,95
232,32,190636,5,0
232,112,190906,1,0
232,192,191176,2,2,B|232:264,2,47.5
152,192,191717,1,0
152,192,191987,1,0
72,192,192257,1,2
72,192,192393,1,2
72,192,192528,1,2
72,120,192798,6,0,B|104:64|176:64,1,95
224,64,193338,2,0,B|296:72|312:120,1,95
304,184,193879,2,2,B|304:304,3,95
232,272,194960,5,0
232,192,195230,1,0
200,120,195501,1,8
168,96,195636,1,0
128,96,195771,1,0
48,96,196041,1,8
48,96,196311,1,8
48,176,196582,1,0
48,216,196717,1,0
64,248,196852,1,0
144,248,197122,5,0
232,248,197393,1,0
320,248,197663,1,0
408,248,197933,1,0
408,248,198203,1,0
408,168,198474,1,0
408,168,198609,1,0
408,168,198744,2,0,B|280:168,1,95
240,168,199284,5,4
168,168,199555,1,0
168,168,199825,2,2,B|168:64|320:64,1,190,2|0
376,64,200636,1,0
376,64,200906,2,2,B|376:168,1,95
376,240,201447,5,2
376,240,201717,2,2,B|248:240,1,95
200,240,202257,2,0,B|120:240,2,47.5
200,160,202798,2,0,B|136:160,2,47.5
200,80,203338,1,0
280,80,203609,5,0
320,80,203744,1,0
360,80,203879,1,0
440,80,204149,1,0
440,80,204420,1,0
440,152,204690,1,8
400,216,204960,1,0
320,216,205230,1,8
280,216,205366,1,0
240,216,205501,1,0
152,216,205771,6,0,B|152:96,1,95
152,48,206311,2,2,B|248:-24|352:64,1,190
328,120,207122,1,2
328,120,207393,2,2,B|328:240,1,95
328,288,207933,5,4
328,288,208203,1,0
400,288,208474,2,8,B|400:152,1,95
400,120,209014,1,0
400,48,209284,1,0
400,48,209555,2,2,B|296:48|296:184,1,190
296,264,210366,5,2
296,264,210636,2,2,B|168:264,1,95
136,264,211176,1,2
136,192,211447,1,0
88,136,211717,2,0,B|24:136,2,47.5
88,56,212257,5,0
160,56,212528,1,0
232,56,212798,1,0
272,56,212933,1,0
232,56,213068,1,0
232,128,213338,1,0
232,128,213609,2,8,B|232:240,1,95
232,296,214149,1,0
160,296,214420,5,0
96,240,214690,1,0
136,168,214960,1,0
184,104,215230,5,0
216,88,215366,1,0
256,96,215501,1,0
288,120,215636,1,0
312,152,215771,1,0
328,184,215906,1,0
336,224,216041,1,0
232,312,216582,5,0
72,176,216987,1,0
232,40,217393,1,0
232,40,217663,5,0
232,176,218203,1,4
